#VERSION:0.83;
#TITLE:Future Eve;
#SUBTITLE:;
#ARTIST:sasakure.uk;
#TITLETRANSLIT:;
#SUBTITLETRANSLIT:;
#ARTISTTRANSLIT:;
#GENRE:;
#CREDIT:Flicks;
#MUSIC:Future Eve.ogg;
#BANNER:Future Eve-bn;
#BACKGROUND:Future Eve-bg;
#JACKET:Future Eve.png;
#CDTITLE:;
#SAMPLESTART:58.667;
#SAMPLELENGTH:14.915;
#SELECTABLE:YES;
#OFFSET:-0.032;
#BPMS:0.000=190.073;
#STOPS:;
#BGCHANGES:;
#FGCHANGES:;

//--------------- dance-single - ----------------
#NOTEDATA:;
#STEPSTYPE:dance-single;
#DESCRIPTION:;
#DIFFICULTY:Hard;
#METER:13;
#RADARVALUES:0,0,0,0,0;
#NOTES:
0000
0000
0000
0000
,
0000
0000
0000
0000
,
0000
0000
0000
0000
,
0000
0000
0000
0000
,
0000
0000
0000
0000
0000
0000
0000
0001
,
0100
0010
1000
0010
0100
0001
1000
0100
,
0010
0001
0010
0100
1000
0100
0000
1000
,
0000
0100
0000
0000
0001
0000
0000
0100
0000
0000
1000
0000
0000
0010
0000
0000
,
0001
0000
0000
0010
0000
0000
1000
0000
1001
0000
0000
0000
1001
0000
0000
0000
,
0001
0010
0100
0001
0100
1000
0100
0010
,
0100
1000
0100
0010
0001
1000
0002
0000
,
1003
0010
0100
1000
0100
0001
0100
0010
,
0100
0001
0100
0010
1000
0001
2000
0000
,
3001
0010
0100
0001
0100
1000
0100
0010
,
0001
0100
1000
0100
0001
1000
0001
0000
,
1000
0100
0010
0001
0100
0010
1000
0100
,
1000
0100
0010
0001
0010
0001
1000
0000
,
0001
0100
0010
0100
0001
0000
1000
0000
,
0100
0010
0001
0000
0000
0000
0001
0000
,
1000
0010
0100
0010
1000
0000
0001
0000
,
0010
0100
1000
0000
0000
0000
0001
0000
,
1000
0001
1000
0010
,
0100
0000
0010
0000
0100
0001
2000
0000
,
0000
0000
0000
0000
0000
0000
0000
3000
,
0000
0001
0010
0001
0010
0000
0001
0000
,
1000
0010
1000
0001
1000
0100
0002
0003
,
0100
0010
0001
1000
0010
0100
0001
0000
,
1000
0100
1000
0001
1000
0010
0002
0003
,
0010
0100
0001
1000
0100
0010
0002
0000
,
1003
0001
2000
0000
3001
0100
0010
1000
,
0001
0010
0100
1000
0100
0010
0002
1000
,
0000
1000
0000
1003
0010
0100
1000
0100
,
0000
0001
0000
0000
1001
0000
0000
0000
0000
0000
0000
0000
0000
0000
1000
0000
,
0100
1000
0100
0010
0001
1000
0000
1000
,
0000
1000
0000
0001
0100
0001
0100
0010
,
1000
0001
0000
0001
0000
0001
0000
1000
,
0001
0010
1000
0010
0001
0010
0100
0010
,
0001
1000
0000
0001
1000
0010
0001
0010
,
1000
0010
0100
0010
1000
0001
1000
0100
,
0001
0100
1000
0000
1000
1100
0000
1000
,
1001
0000
0001
0100
1000
0100
0001
0000
,
0001
0101
0000
0001
1001
0000
0001
0010
,
1000
0010
0001
0000
0001
0011
0000
0001
,
1001
0000
0001
0100
0010
1000
0000
0100
,
0010
0000
0002
0000
0000
0000
0000
0203
0000
0000
0000
0000
0002
0300
0000
0000
,
0000
0000
2000
0003
0000
0000
0000
0000
0000
0000
0000
0000
0000
0000
0000
0000
,
0000
3000
0000
0000
1000
0100
0001
0100
,
2000
0000
3100
0010
0001
0010
0100
1000
,
0002
0000
1003
0010
1000
0001
1000
0100
,
2000
0000
3001
0100
0002
0000
0103
0010
,
1000
0001
1000
0001
1000
0100
0001
0100
,
1000
0000
0100
0010
0001
0100
0010
0100
,
0001
0000
1000
0100
0010
0100
1000
0001
,
1000
0000
1000
0010
0100
0001
1000
0001
,
0100
0010
1000
0001
1000
0100
0001
0100
,
2000
0000
3001
0000
1000
0010
0001
0010
,
2000
0000
3001
0000
1000
0100
0001
0100
,
1000
0100
0010
0001
1000
0001
0100
1000
,
0200
0000
0301
0000
1000
0100
0010
0001
,
1000
0000
0001
0100
0010
1000
0001
0010
,
0200
0000
0301
0000
0100
0010
0001
1000
,
0001
0100
0010
1000
0001
1000
0100
0001
,
0100
2000
0000
0000
,
0000
0001
0000
0000
3001
0000
0000
0100
0000
0000
1000
0000
0000
0100
0000
0000
,
0001
0000
0000
0010
0000
0000
1000
0000
0000
0010
0000
0000
0001
0000
1001
0000
,
0000
0000
0000
0000
,
0000
0000
2000
0000
0000
0100
0000
3001
,
0000
0000
0002
0000
0000
0100
0000
1003
,
0000
0000
2000
0000
0000
0010
0000
3001
,
0000
0000
0002
0000
0000
0010
0000
1003
,
0000
0000
2000
0000
0000
0100
0000
3001
,
0000
0000
0002
0000
0000
0100
0000
1003
,
0000
0001
2000
0000
,
3100
0010
0002
0000
,
0000
0000
0000
0003
0000
0000
1000
0010
,
0001
0010
2000
0000
3010
0100
0001
0100
,
0010
1000
0002
0000
1003
0100
1000
0001
,
1000
0010
2000
0000
3001
0010
0002
0000
,
0013
0100
1000
0001
1000
0001
1000
0010
,
0001
0010
1000
0000
0010
0100
0001
0010
,
0100
0010
0001
0000
1000
0010
0100
0010
,
1000
0001
1000
0000
1000
0100
0010
0001
,
1000
0001
0010
0100
1000
0001
1000
0010
,
0001
0010
2000
0000
3001
0000
1000
0100
,
0001
0100
2000
0000
3001
0000
1000
0010
,
0001
0010
1000
0010
0100
0001
1000
0001
,
0010
1000
0020
0000
0031
0000
1000
0010
,
0100
0001
1000
0000
0001
0010
0100
1000
,
0001
0100
0020
0000
0031
0000
0010
0100
,
0001
1000
0001
0010
0100
1000
0001
1000
,
0010
0001
0010
0000
2000
0000
0000
0000
,
3001
0010
0100
0000
1000
0100
0001
0100
,
1000
0100
0001
0100
0010
0001
1000
0010
,
0100
0001
1000
0001
1000
0100
0010
0001
,
1000
0001
0100
1000
0100
0010
2000
0000
,
3000
0000
1001
0000
0001
0010
0100
0000
,
1000
0100
0010
0000
0001
1000
1001
0000
,
1000
0001
1001
0000
0001
0100
0010
0001
,
0010
0100
0001
0000
1000
0000
0100
0000
,
0001
0100
0020
0000
0000
0000
0000
0000
,
0000
0000
0000
0000
,
0030
0000
0000
0000
;
