#VERSION:0.83;
#TITLE:Fury Of The Storm;
#SUBTITLE:;
#ARTIST:DragonForce;
#TITLETRANSLIT:;
#SUBTITLETRANSLIT:;
#ARTISTTRANSLIT:;
#GENRE:EXTREME POWER METAL;
#ORIGIN:;
#CREDIT:;
#BANNER:Fury Of The Storm.png;
#BACKGROUND:Fury Of The Storm-bg.png;
#PREVIEWVID:;
#JACKET:Fury Of The Storm-jacket.png;
#CDIMAGE:;
#DISCIMAGE:;
#LYRICSPATH:;
#CDTITLE:;
#MUSIC:Fury Of The Storm.ogg;
#OFFSET:-0.289000;
#SAMPLESTART:47.412636;
#SAMPLELENGTH:17.019999;
#SELECTABLE:YES;
#DISPLAYBPM:200.000000;
#BPMS:0.000=200.000,
391.000=192.000,
392.000=200.000;
#STOPS:;
#DELAYS:;
#WARPS:;
#TIMESIGNATURES:0.000=4=4;
#TICKCOUNTS:0.000=4;
#COMBOS:0.000=1;
#SPEEDS:0.000=1.000=0.000=0;
#SCROLLS:0.000=1.000;
#FAKES:;
#LABELS:0.000=Song Start;
#BGCHANGES:;
#KEYSOUNDS:;
#ATTACKS:
;

//---------------dance-single - ----------------
#NOTEDATA:;
#CHARTNAME:;
#STEPSTYPE:dance-single;
#DESCRIPTION:;
#CHARTSTYLE:;
#DIFFICULTY:Medium;
#METER:14;
#RADARVALUES:0.705379,0.740648,0.490441,0.290939,0.008313,594.000000,535.000000,59.000000,35.000000,0.000000,0.000000,0.000000,0.000000,0.000000,0.705379,0.740648,0.490441,0.290939,0.008313,594.000000,535.000000,59.000000,35.000000,0.000000,0.000000,0.000000,0.000000,0.000000;
#CREDIT:BlindedVanguard573;
#DISPLAYBPM:200.000000;
#NOTES:
// measure 0
0000
0000
0000
0000
,  // measure 1
0000
0000
0000
0000
,  // measure 2
0000
0000
0000
0000
,  // measure 3
0000
0000
0000
0000
,  // measure 4
1001
0000
0001
0100
0010
0100
0001
0000
,  // measure 5
1001
0000
1000
0100
0001
0100
1000
0000
,  // measure 6
1010
0101
0011
1100
,  // measure 7
0101
1100
0011
1001
,  // measure 8
0001
0100
0010
1000
0010
0100
0001
1000
,  // measure 9
0001
0000
2000
0100
0000
3002
0100
0000
,  // measure 10
1003
0100
0010
0001
0010
0100
1000
0001
,  // measure 11
1000
0000
0001
0020
0100
0000
0031
0000
,  // measure 12
1000
0010
0100
0001
1000
0100
0010
0001
,  // measure 13
1000
0000
0002
0100
0000
2003
0010
0000
,  // measure 14
3001
1000
0100
0010
0001
1000
0010
0100
,  // measure 15
0001
0000
1000
0200
0010
0000
1300
0000
,  // measure 16
1001
0000
0001
0200
1000
0000
0310
0000
,  // measure 17
1001
0000
1000
0200
0001
0000
0310
0000
,  // measure 18
0100
0100
0100
1000
1000
1000
0001
0001
,  // measure 19
0010
0001
0100
0010
1000
0100
0010
0000
,  // measure 20
1001
0000
1000
0200
0001
0000
0310
0000
,  // measure 21
1001
0000
0001
0200
1000
0000
0310
0000
,  // measure 22
0100
0100
0100
0001
0001
0001
1000
1000
,  // measure 23
0010
1000
0100
0010
0001
0100
0010
0000
,  // measure 24
2010
0000
0001
0000
0100
0000
0010
0010
,  // measure 25
0000
0001
0010
3100
,  // measure 26
0102
0000
0010
0010
0000
0000
1000
0000
,  // measure 27
0100
0000
0000
0010
0000
0000
1003
0000
,  // measure 28
2001
0000
0010
0010
0000
0000
3200
0000
,  // measure 29
0302
0203
0320
0031
,  // measure 30
0202
0000
0303
2020
0000
3030
1001
0000
,  // measure 31
1000
0100
0100
0001
0100
0100
1000
0000
,  // measure 32
1001
0000
0001
0100
0010
1000
0100
0000
,  // measure 33
1001
0000
1000
0100
0001
0100
0010
0000
,  // measure 34
1001
0000
0001
0010
0100
1000
0001
0000
,  // measure 35
1002
0013
0101
1010
,  // measure 36
1001
0000
0001
0010
1000
0010
0100
0000
,  // measure 37
1000
1000
0010
0010
0100
0100
0001
0001
,  // measure 38
0010
0100
0100
1000
0001
0001
0100
0010
,  // measure 39
1001
0000
0000
0000
,  // measure 40
0001
0100
0010
0100
1000
0100
0010
0100
,  // measure 41
0001
0010
0100
0000
0110
0000
1001
0000
,  // measure 42
1000
0100
0010
0100
0001
0100
0010
0100
,  // measure 43
1000
0010
0100
0000
0110
0000
1001
0000
,  // measure 44
0001
0010
0010
1000
0010
0010
0100
0000
,  // measure 45
1000
0010
0010
0001
0010
0010
0100
0000
,  // measure 46
0102
0000
2003
0010
0000
3002
0010
0000
,  // measure 47
0103
0001
0010
0100
1000
0010
0100
0000
,  // measure 48
0001
0100
0010
0100
1000
0100
0010
0100
,  // measure 49
0001
0010
0100
0000
0110
0000
1001
0000
,  // measure 50
1000
0100
0010
0100
0001
0100
0010
0100
,  // measure 51
1000
0010
0100
0100
0001
0001
1000
1000
,  // measure 52
1001
0000
0000
0000
,  // measure 53
0110
0000
0000
0000
,  // measure 54
0001
0001
1000
1000
0010
0010
0100
0100
,  // measure 55
0102
0010
1000
0103
,  // measure 56
0101
0000
1010
0000
0001
0010
1000
0010
,  // measure 57
0200
1000
0010
1300
,  // measure 58
1100
0000
0011
0000
0001
0100
0010
0000
,  // measure 59
2100
0010
0001
3100
,  // measure 60
1100
0000
0011
0000
1000
0010
0001
0010
,  // measure 61
0200
0001
0010
0301
,  // measure 62
0101
0000
1010
0000
1000
0100
0010
0000
,  // measure 63
0001
0001
0100
0001
0010
0100
1000
0001
,  // measure 64
1000
1000
0010
1000
0100
0010
0001
1000
,  // measure 65
0001
0001
0100
0010
1000
1000
0010
0100
,  // measure 66
0100
0100
0001
1000
0010
0010
1000
0001
,  // measure 67
1000
1000
0100
1000
0010
0100
0001
1000
,  // measure 68
0001
0001
0010
0001
0100
0010
1000
0001
,  // measure 69
1000
1000
0100
0010
0001
0001
0010
0100
,  // measure 70
0100
0100
1000
0001
0010
0010
0001
1000
,  // measure 71
0001
0001
0100
0010
1000
1000
0010
0100
,  // measure 72
0100
0100
0001
1000
0010
0010
1000
0001
,  // measure 73
1000
1000
0100
0010
1000
1000
0010
0100
,  // measure 74
0100
0100
1000
0010
0001
0001
0010
0100
,  // measure 75
0001
0001
0010
0100
1000
1000
0100
0010
,  // measure 76
0010
0010
0001
1000
0100
0100
1000
0001
,  // measure 77
1000
1000
0010
0001
0001
0010
1000
1000
,  // measure 78
0001
0010
1000
0010
0001
0100
1000
0100
,  // measure 79
2002
3003
0000
0000
,  // measure 80
0000
0000
0000
0000
,  // measure 81
0000
0000
0000
0000
,  // measure 82
0000
0000
0000
0000
,  // measure 83
0000
0000
0000
0000
,  // measure 84
0000
0000
0000
0000
,  // measure 85
0001
0010
0010
0100
1000
1000
0001
1000
,  // measure 86
0010
0100
0001
0000
0110
0000
1001
0000
,  // measure 87
0001
0010
0100
0010
1000
0010
0100
0010
,  // measure 88
0001
0100
0010
0000
0110
0000
1001
0000
,  // measure 89
1000
0010
0100
0010
0001
0010
0100
0010
,  // measure 90
1000
0100
0010
0000
0001
0000
1001
0000
,  // measure 91
1001
0000
0002
0100
0000
2003
0010
0000
,  // measure 92
3001
0010
0110
1001
,  // measure 93
0001
1000
0100
0010
0001
1000
0010
0100
,  // measure 94
0001
0010
0100
0010
1000
0010
0100
0010
,  // measure 95
0011
0000
0000
0000
,  // measure 96
1100
0000
0000
0000
,  // measure 97
1000
0010
0001
1000
0100
0001
0010
0000
,  // measure 98
0100
0000
1000
0000
0001
0000
2002
0000
0000
0000
0000
0000
,  // measure 99
3003
0000
0000
0000
;

//---------------dance-single - ----------------
#NOTEDATA:;
#CHARTNAME:;
#STEPSTYPE:dance-single;
#DESCRIPTION:;
#CHARTSTYLE:;
#DIFFICULTY:Hard;
#METER:18;
#RADARVALUES:1.064007,1.357855,0.141313,0.266002,1.280133,896.000000,879.000000,17.000000,32.000000,65.000000,0.000000,0.000000,0.000000,0.000000,1.064007,1.357855,0.141313,0.266002,1.280133,896.000000,879.000000,17.000000,32.000000,65.000000,0.000000,0.000000,0.000000,0.000000;
#CREDIT:BlindedVanguard573;
#DISPLAYBPM:200.000000;
#NOTES:
// measure 0
0000
0000
0000
0000
,  // measure 1
0000
0000
0000
0000
,  // measure 2
0000
0000
0000
0000
,  // measure 3
0000
0000
0000
0000
,  // measure 4
1001
0000
0001
0100
0010
0100
0001
0000
,  // measure 5
1001
0000
1000
0100
0001
0100
1000
0000
,  // measure 6
1010
0101
0011
1100
,  // measure 7
0101
0000
0000
0000
1100
0000
0000
0000
0011
0000
0001
1000
0100
0000
0000
0000
,  // measure 8
1000
0000
0010
0000
0100
0001
0100
0000
0001
0000
0010
0000
0100
1000
0100
0000
,  // measure 9
1000
0000
0000
0000
0010
0M00
0010
0000
0001
0000
0000
0000
1000
0000
0000
0000
0010
0M00
0010
0000
0001
0000
0000
0000
1000
0000
0000
0000
0000
0000
0000
0000
,  // measure 10
0001
0000
0010
0000
0100
1000
0100
0000
1000
0000
0010
0000
0100
0001
0100
0000
,  // measure 11
0002
0000
0000
0000
0010
0000
1003
0000
0000
0000
0001
0000
0010
0100
0010
0000
,  // measure 12
0001
0000
0100
0000
0010
1000
0001
0000
1000
0000
0100
0000
0010
0001
1000
0000
,  // measure 13
0001
0000
0000
0000
0100
00M0
0100
0000
1000
0000
0000
0000
0001
0000
0000
0000
0100
00M0
0100
0000
1000
0000
0000
0000
0001
0000
0000
0000
0000
0000
0000
0000
,  // measure 14
1000
0000
0100
0000
0010
0001
1000
0000
0001
0000
0100
0000
0010
1000
0001
0000
,  // measure 15
1000
0100
1000
0000
0001
0010
0001
0000
1000
0010
1000
0000
0001
0100
0001
0000
,  // measure 16
1000
0000
0100
000M
0100
0000
0010
0000
1000
0000
0100
0000
0010
0000
0001
0000
,  // measure 17
1000
0000
0010
000M
0010
0000
0100
0000
1000
0000
0010
0000
0100
0000
0001
0000
,  // measure 18
1000
1000
1000
0001
0001
0001
0100
0100
,  // measure 19
0001
0010
0001
0010
0100
0000
1000
0010
1000
0010
0100
0000
0001
1000
0000
0000
,  // measure 20
0001
0000
0100
M000
0100
0000
0010
0000
0001
0000
0100
0000
0010
0000
1000
0000
,  // measure 21
0001
0000
0010
M000
0010
0000
0100
0000
0001
0000
0010
0000
0100
0000
1000
0000
,  // measure 22
0001
0001
0001
1000
1000
1000
0100
0100
,  // measure 23
1000
0010
1000
0010
0100
0000
0001
0010
0001
0010
0100
0000
1000
0001
1000
0001
,  // measure 24
1000
0000
0000
0000
0001
0000
0000
0000
0010
0M00
0010
0000
1000
0000
0000
0000
0001
0000
0000
0000
1000
0000
0000
0000
0010
0M00
0010
0000
0001
0000
0000
0000
,  // measure 25
1000
0000
0000
0000
0001
0000
0000
0000
0010
M000
0010
0000
0100
0000
0000
0000
0001
0000
0000
0000
0000
0000
0000
0000
1000
0000
0000
0000
0000
0000
0000
0000
,  // measure 26
0001
0000
0000
0000
1000
0000
0000
0000
0100
00M0
0100
0000
0001
0000
0000
0000
1000
0000
0000
0000
0001
0000
0000
0000
0100
00M0
0100
0000
1000
0000
0000
0000
,  // measure 27
0001
0000
0000
0000
1000
0000
0000
0000
0100
000M
0100
0000
0010
0000
0000
0000
1000
0000
0000
0000
0000
0000
0000
0000
0001
0000
1000
0000
0001
0000
1000
0000
,  // measure 28
0001
0000
0000
0000
1000
0000
0000
0000
0010
0M00
0010
0000
0001
0000
0000
0000
1000
0000
0000
0000
0001
0000
0000
0000
0010
0M00
0010
0000
1000
0000
0000
0000
,  // measure 29
0001
0000
0000
0000
1000
0000
0000
0000
0010
000M
0010
0000
0100
0000
0000
0000
1000
0000
0000
0000
0001
0000
0000
0000
0100
M000
0100
0000
0010
0000
0000
0000
,  // measure 30
0002
0010
1003
0002
0100
1003
0001
0000
,  // measure 31
1000
0100
1000
0100
0010
0000
0001
0100
0001
0100
0010
0000
1000
0001
1000
0000
,  // measure 32
0001
0000
1000
0000
0010
1000
0010
0M00
0010
0M01
0010
0000
0001
0000
0000
0000
,  // measure 33
1000
0000
0001
0000
0010
0001
0010
0M00
0010
1M00
0010
0000
1000
0001
1000
0001
,  // measure 34
1000
0000
0001
0000
0100
0001
0100
00M0
0100
10M0
0100
0000
1000
0001
1000
0000
,  // measure 35
0020
0130
0101
1010
,  // measure 36
1000
0000
0100
1000
0001
1000
0010
0000
0100
0001
1000
0001
0010
0000
0000
0000
,  // measure 37
0100
1000
0001
0000
0100
0001
1000
0000
0010
1000
0001
0000
0010
0001
1000
0000
,  // measure 38
0001
0100
0001
0100
0010
1000
0010
1000
0001
0010
0001
0010
0100
1000
0100
1000
,  // measure 39
0001
0000
0000
0000
,  // measure 40
1000
0010
0100
0001
1000
0010
0100
0001
1000
0100
0010
0001
1000
0100
0010
0001
,  // measure 41
1000
0001
0100
0010
2000
0000
3002
0000
,  // measure 42
1003
0100
0010
0001
1000
0100
0010
0001
1000
0010
0100
0001
1000
0010
0100
0001
,  // measure 43
1000
0001
0010
0100
2000
0000
3002
0000
,  // measure 44
1003
0000
0000
0000
0010
0M00
0010
0M00
0010
0M00
0010
0000
0001
0000
0000
0000
0010
0M00
0010
0M00
0010
0M00
0010
0000
1000
0000
0000
0000
0000
0000
0000
0000
,  // measure 45
0001
0000
0000
0000
0100
00M0
0100
00M0
0100
00M0
0100
0000
1000
0000
0000
0000
0100
00M0
0100
00M0
0100
00M0
0100
0000
0001
0000
0000
0000
0000
0000
0000
0000
,  // measure 46
2000
0100
3001
2000
0010
3001
2000
3001
,  // measure 47
1000
0010
1000
0010
0100
0001
0100
0001
1000
0100
1000
0100
0010
0001
0010
0001
,  // measure 48
1000
0000
0000
0000
0001
0000
0000
0000
0100
00M0
0100
0000
1000
0000
0000
0000
0001
0000
0000
0000
0010
0000
0000
0000
0100
M000
0100
0000
0001
0000
0000
0000
,  // measure 49
1000
0000
0000
0000
0001
0000
0000
0000
0010
0M00
0010
0000
1000
0000
0000
0000
0001
0000
0000
0000
0100
0000
0000
0000
0010
M000
0010
0000
0001
0000
0000
0000
,  // measure 50
1000
0000
0000
0000
0001
0000
0000
0000
0010
M000
0010
0000
0100
0000
0000
0000
0001
0000
0000
0000
1000
0000
0000
0000
0100
000M
0100
0000
0010
0000
0000
0000
,  // measure 51
1000
0000
0001
0000
0010
0100
1000
0001
0100
0010
1000
0001
0010
0100
1000
0001
,  // measure 52
0200
0300
0000
0000
,  // measure 53
2002
3003
0000
0000
,  // measure 54
1000
0100
0010
0001
1000
0010
0100
0001
1000
0100
0010
0001
1000
0010
0100
0001
,  // measure 55
2000
0000
3010
1000
0001
1000
0100
0010
,  // measure 56
1000
0010
0100
0010
0001
0100
0001
0100
,  // measure 57
0020
0000
1030
0001
1000
0100
1000
0001
,  // measure 58
0100
0010
0100
0001
1000
0100
0002
0000
,  // measure 59
0203
0000
0310
0001
1000
0001
0100
0010
,  // measure 60
0001
0010
0100
0010
1000
0100
1000
0100
,  // measure 61
0020
0000
0031
1000
0001
0100
0001
1000
,  // measure 62
0001
0010
0100
1000
0001
0010
0100
1000
0001
0100
0010
1000
0002
0000
0000
0000
,  // measure 63
1003
0100
1000
0100
0010
0100
1000
0100
0010
0000
0001
0000
1000
0000
0001
0000
,  // measure 64
1000
0010
1000
0010
0100
0010
1000
0010
0100
0000
0001
0000
1000
0000
0001
0000
,  // measure 65
1000
0100
1000
0100
0010
0001
1000
0001
0100
00M0
0100
0000
1000
0000
0001
0000
,  // measure 66
1000
0010
1000
0010
0100
0001
1000
0001
0010
0M00
0010
0000
1000
0001
1000
0000
,  // measure 67
0001
0100
0001
0100
0010
0100
0001
0100
0010
0000
1000
0000
0001
0000
1000
0000
,  // measure 68
0001
0010
0001
0010
0100
0010
0001
0010
0100
0000
1000
0000
0001
0000
1000
0000
,  // measure 69
0001
0100
0001
0100
0010
1000
0001
1000
0100
00M0
0100
0000
0001
0000
1000
0000
,  // measure 70
0001
0010
0001
0010
0100
1000
0001
1000
0010
0M00
0010
0000
0001
1000
0001
0000
,  // measure 71
1000
0010
1000
0001
1000
0100
1000
0001
0010
0M00
0010
0000
1000
0000
0001
0000
,  // measure 72
1000
0100
1000
0001
1000
0010
1000
0001
0100
00M0
0100
0000
1000
0000
0001
0000
,  // measure 73
1000
0010
0100
0010
1000
0001
0010
0100
0010
M000
0010
0000
1000
0000
0001
0000
,  // measure 74
1000
0100
0010
0100
1000
0001
0100
0010
0100
M000
0100
0000
1000
0001
1000
0000
,  // measure 75
0001
0010
0001
1000
0001
0100
0001
1000
0010
0M00
0010
0000
0001
0000
1000
0000
,  // measure 76
0001
0100
0001
1000
0001
0010
0001
1000
0100
00M0
0100
0000
0001
0000
1000
0000
,  // measure 77
0001
0100
0001
0100
0010
1000
0001
0010
0001
0010
0100
1000
0001
1000
0001
1000
,  // measure 78
0001
0100
0010
1000
0001
0010
0100
1000
0001
1000
0100
0010
0001
1000
0010
0100
,  // measure 79
0002
0003
0000
0000
,  // measure 80
0000
0000
0000
0000
,  // measure 81
0000
0000
0000
0000
,  // measure 82
0000
0000
0000
0000
,  // measure 83
0000
0000
0000
0000
,  // measure 84
0000
0000
0000
0000
,  // measure 85
0001
0100
0010
1000
0010
1000
0001
0010
0100
1000
0100
1000
0001
1000
0010
0100
,  // measure 86
0001
0010
0100
1000
0100
1000
0001
0100
0010
1000
0010
1000
0001
1000
0100
0010
,  // measure 87
0001
0000
0000
0000
1000
0000
0000
0000
0010
0M00
0010
0000
0001
0000
0000
0000
1000
0000
0000
0000
0100
0000
0000
0000
0010
000M
0010
0000
1000
0000
0000
0000
,  // measure 88
0001
0000
0000
0000
1000
0000
0000
0000
0100
00M0
0100
0000
0001
0000
0000
0000
1000
0000
0000
0000
0010
0000
0000
0000
0100
000M
0100
0000
1000
0000
0000
0000
,  // measure 89
0001
0000
0000
0000
1000
0000
0000
0000
0100
000M
0100
0000
0010
0000
0000
0000
1000
0000
0000
0000
0001
0000
0000
0000
0010
M000
0010
0000
0100
0000
0000
0000
,  // measure 90
0001
0000
0000
0000
1000
0000
0000
0000
0100
000M
0100
0000
0010
0000
0000
0000
1000
0000
0000
0000
0001
0000
0000
0000
0010
M000
0010
0000
0100
0000
0000
0000
,  // measure 91
0002
0010
1003
0002
0100
1003
0002
0010
,  // measure 92
2003
0010
3001
2000
0100
3001
2000
3010
,  // measure 93
1000
0000
0000
0000
0001
0000
0000
0000
0010
M000
0010
0000
0100
0000
0000
0000
0001
0000
0000
0000
1000
0000
0000
0000
0100
000M
0100
0000
0010
0000
0000
0000
,  // measure 94
1000
0001
0010
0100
1000
0001
0100
0010
1000
0100
0010
0100
1000
0001
0010
0001
,  // measure 95
0200
0300
0000
0000
,  // measure 96
2002
3003
0000
0000
,  // measure 97
1000
0000
0001
0000
0100
00M0
0100
0000
1000
0000
0001
0000
0010
0M00
0010
0000
1000
0000
0001
0000
0100
00M0
0100
0000
1000
0000
0000
0000
0000
0000
0000
0000
,  // measure 98
1010
0000
0101
0000
0011
0000
2200
0000
0000
0000
0000
0000
,  // measure 99
3300
0000
0000
0000
;

//---------------dance-single - ----------------
#NOTEDATA:;
#CHARTNAME:;
#STEPSTYPE:dance-single;
#DESCRIPTION:;
#CHARTSTYLE:;
#DIFFICULTY:Easy;
#METER:9;
#RADARVALUES:0.432253,0.699501,0.182876,0.133001,0.000000,364.000000,342.000000,22.000000,16.000000,0.000000,0.000000,0.000000,0.000000,0.000000,0.432253,0.699501,0.182876,0.133001,0.000000,364.000000,342.000000,22.000000,16.000000,0.000000,0.000000,0.000000,0.000000,0.000000;
#CREDIT:BlindedVanguard573;
#DISPLAYBPM:200.000000;
#NOTES:
// measure 0
0000
0000
0000
0000
,  // measure 1
0000
0000
0000
0000
,  // measure 2
0000
0000
0000
0000
,  // measure 3
0000
0000
0000
0000
,  // measure 4
1001
0000
0000
0000
,  // measure 5
0220
0000
0000
0330
,  // measure 6
1001
1001
1001
1001
,  // measure 7
1001
1001
1001
1001
,  // measure 8
0001
0100
0010
1000
,  // measure 9
0010
0100
0001
1000
,  // measure 10
0001
0010
0100
1000
,  // measure 11
0100
0010
1000
0000
,  // measure 12
0010
0001
0100
0010
,  // measure 13
1000
0001
0010
0100
,  // measure 14
1000
0001
0100
0010
,  // measure 15
1000
0100
0001
0000
,  // measure 16
0100
0100
0010
0001
,  // measure 17
0100
0100
0010
1000
,  // measure 18
0001
0001
1000
1000
,  // measure 19
0100
0010
0100
1001
,  // measure 20
0010
0010
0100
0001
,  // measure 21
0010
0010
0100
1000
,  // measure 22
0001
0001
1000
1000
,  // measure 23
0010
0100
0010
1001
,  // measure 24
2000
0010
3010
1000
,  // measure 25
0001
0010
0100
1000
,  // measure 26
0002
0100
0103
0001
,  // measure 27
1000
0100
0010
0000
,  // measure 28
0002
1000
1003
0001
,  // measure 29
0100
0010
1000
0100
,  // measure 30
0010
0000
0000
1000
0000
0000
0010
0000
,  // measure 31
0100
0000
0000
2000
0000
0000
3000
0000
,  // measure 32
0001
0100
0100
0001
,  // measure 33
1000
0100
0100
1000
,  // measure 34
0001
0010
0010
0001
,  // measure 35
1000
0001
1000
1001
,  // measure 36
0001
0100
0010
0010
,  // measure 37
1000
0100
0010
0010
,  // measure 38
0001
0100
1000
0010
,  // measure 39
0001
0000
0000
0000
,  // measure 40
1000
1000
0010
0010
,  // measure 41
0100
0100
0001
1000
,  // measure 42
0001
0001
0010
0010
,  // measure 43
0100
0100
1000
0001
,  // measure 44
0100
0010
0100
0010
,  // measure 45
1000
0001
1000
0001
,  // measure 46
0010
0000
0000
0100
0000
0000
1000
0000
,  // measure 47
0001
0100
1000
0100
,  // measure 48
0010
1000
0001
0100
,  // measure 49
0001
0010
0100
1000
,  // measure 50
0001
1000
0010
0100
,  // measure 51
0001
1000
0100
0010
,  // measure 52
0011
0000
0000
0000
,  // measure 53
1100
0000
0000
0000
,  // measure 54
0001
0100
1000
0100
,  // measure 55
0002
0010
0010
0013
,  // measure 56
0001
0100
0010
1000
,  // measure 57
0200
1000
1000
1300
,  // measure 58
0100
1000
0001
1001
,  // measure 59
2000
0010
0010
3010
,  // measure 60
0100
0001
1000
0001
,  // measure 61
0020
0001
0001
0031
,  // measure 62
0010
0100
1000
1001
,  // measure 63
0001
0000
0100
0000
0010
0010
0010
0000
,  // measure 64
0100
0000
0001
0000
1000
1000
1000
0000
,  // measure 65
0100
0000
0010
0000
0100
0100
0100
0000
,  // measure 66
1000
0000
0010
0000
0001
0001
0001
0000
,  // measure 67
1000
0000
0010
0000
0100
0100
0100
0000
,  // measure 68
0010
0000
1000
0000
0001
0001
0001
0000
,  // measure 69
0010
0000
0100
0000
0010
0010
0010
0000
,  // measure 70
0001
0000
0100
0000
1000
1000
1000
0000
,  // measure 71
0100
0000
0010
0000
1000
0001
1000
0000
,  // measure 72
0100
0000
0010
0000
0001
1000
0001
0000
,  // measure 73
0100
0000
0010
0000
1000
0100
1000
0000
,  // measure 74
0010
0000
0100
0000
0001
0010
0001
0000
,  // measure 75
1000
0000
0010
0000
0100
0001
1000
0000
,  // measure 76
0001
0000
0010
0000
0100
1000
0001
0000
,  // measure 77
1000
0000
0000
0010
0000
0000
0100
0000
,  // measure 78
0001
0010
1000
0010
,  // measure 79
2002
3003
0000
0000
,  // measure 80
0000
0000
0000
0000
,  // measure 81
0000
0000
0000
0000
,  // measure 82
0000
0000
0000
0000
,  // measure 83
0000
0000
0000
0000
,  // measure 84
0000
0000
0000
0000
,  // measure 85
0001
0000
0000
0100
0000
0000
1000
0000
,  // measure 86
0100
0010
1000
1001
,  // measure 87
2000
0100
3100
1000
,  // measure 88
0001
0100
1000
0100
,  // measure 89
0002
0010
0013
0001
,  // measure 90
1000
0010
0001
0010
,  // measure 91
1000
0100
0010
0001
,  // measure 92
1000
0010
0100
0001
,  // measure 93
0010
0100
0010
0100
,  // measure 94
1000
0001
1000
0001
,  // measure 95
1001
0000
0000
0000
,  // measure 96
0110
0000
0000
0000
,  // measure 97
0010
1000
0100
0000
0010
0001
0100
0000
,  // measure 98
0010
0100
2002
0000
,  // measure 99
3003
0000
0000
0000
;

//---------------dance-single - ----------------
#NOTEDATA:;
#CHARTNAME:;
#STEPSTYPE:dance-single;
#DESCRIPTION:;
#CHARTSTYLE:;
#DIFFICULTY:Beginner;
#METER:6;
#RADARVALUES:0.289752,0.366584,0.058188,0.066500,0.000000,244.000000,237.000000,7.000000,8.000000,0.000000,0.000000,0.000000,0.000000,0.000000,0.289752,0.366584,0.058188,0.066500,0.000000,244.000000,237.000000,7.000000,8.000000,0.000000,0.000000,0.000000,0.000000,0.000000;
#CREDIT:BlindedVanguard573;
#DISPLAYBPM:200.000000;
#NOTES:
// measure 0
0000
0000
0000
0000
,  // measure 1
0000
0000
0000
0000
,  // measure 2
0000
0000
0000
0000
,  // measure 3
0000
0000
0000
0000
,  // measure 4
0001
0000
0000
0000
,  // measure 5
0100
0000
0000
0000
,  // measure 6
0010
0010
0010
0010
,  // measure 7
0010
0010
0010
0010
,  // measure 8
0010
0000
0100
0000
,  // measure 9
0001
0001
0001
0000
,  // measure 10
0010
0000
0100
0000
,  // measure 11
1000
1000
1000
0000
,  // measure 12
0001
0000
1000
0000
,  // measure 13
0010
0010
0010
0000
,  // measure 14
1000
0000
0001
0000
,  // measure 15
0100
0100
0100
0000
,  // measure 16
0001
0000
0010
0010
,  // measure 17
0010
0000
0100
0100
,  // measure 18
0100
0000
1000
1000
,  // measure 19
1000
0000
0001
0000
,  // measure 20
1000
0000
0010
0010
,  // measure 21
0010
0000
0100
0100
,  // measure 22
0100
0000
0001
0001
,  // measure 23
0001
0001
0001
0001
,  // measure 24
0002
0000
0003
0000
,  // measure 25
0010
0000
0100
0000
,  // measure 26
2000
0000
3000
0000
,  // measure 27
0010
0000
0100
0000
,  // measure 28
0002
0000
0003
0000
,  // measure 29
1000
0000
0100
0000
,  // measure 30
0020
0000
0030
0000
,  // measure 31
0100
0000
1000
0000
,  // measure 32
0001
0000
0100
0100
,  // measure 33
0100
0000
0010
0010
,  // measure 34
0010
0000
1000
1000
,  // measure 35
1000
0000
0001
0000
,  // measure 36
1000
0000
0100
0100
,  // measure 37
0100
0000
0010
0010
,  // measure 38
0010
0010
0010
0010
,  // measure 39
0010
0000
0000
0000
,  // measure 40
0001
0001
0001
0000
,  // measure 41
0100
0000
0010
0000
,  // measure 42
1000
1000
1000
0000
,  // measure 43
0100
0000
0010
0000
,  // measure 44
0001
0001
0001
0000
,  // measure 45
1000
1000
1000
0000
,  // measure 46
0010
0000
0100
0000
,  // measure 47
0001
0000
1001
0000
,  // measure 48
1000
1000
1000
0000
,  // measure 49
0001
0001
0001
0000
,  // measure 50
0100
0100
0100
0000
,  // measure 51
0010
0010
0010
0000
,  // measure 52
1001
0000
0000
0000
,  // measure 53
0110
0000
0000
0000
,  // measure 54
1000
1000
1000
1000
,  // measure 55
1000
0000
0100
0000
,  // measure 56
0010
0010
0010
0000
,  // measure 57
0001
0000
0100
0000
,  // measure 58
0010
0010
0010
0000
,  // measure 59
1000
0000
0001
0000
,  // measure 60
0010
0010
0010
0000
,  // measure 61
0001
0000
1000
0000
,  // measure 62
0100
0100
0100
0000
,  // measure 63
1000
1000
1000
1000
,  // measure 64
1000
1000
1000
0000
,  // measure 65
0001
0001
0001
0001
,  // measure 66
0001
0001
0001
0000
,  // measure 67
0100
0100
0100
0100
,  // measure 68
0100
0100
0100
0000
,  // measure 69
0010
0010
0010
0010
,  // measure 70
0010
0010
0010
0000
,  // measure 71
1000
1000
1000
1000
,  // measure 72
1000
1000
1000
0000
,  // measure 73
0001
0001
0001
0001
,  // measure 74
0001
0001
0001
0000
,  // measure 75
0010
0010
0010
0010
,  // measure 76
0010
0010
0010
0000
,  // measure 77
0100
0100
0100
0100
,  // measure 78
0100
0100
0100
0000
,  // measure 79
2002
3003
0000
0000
,  // measure 80
0000
0000
0000
0000
,  // measure 81
0000
0000
0000
0000
,  // measure 82
0000
0000
0000
0000
,  // measure 83
0000
0000
0000
0000
,  // measure 84
0000
0000
0000
0000
,  // measure 85
1000
1000
1000
0000
,  // measure 86
0001
0001
0001
0001
,  // measure 87
0001
0000
0100
0000
,  // measure 88
0010
0010
0010
0000
,  // measure 89
1000
0000
0100
0000
,  // measure 90
0001
0001
0001
0000
,  // measure 91
0100
0000
0010
0000
,  // measure 92
0001
0000
0100
0000
,  // measure 93
0010
0000
1000
0000
,  // measure 94
0001
0001
0001
0000
,  // measure 95
1001
0000
0110
0000
,  // measure 96
0001
0001
0001
0001
,  // measure 97
0001
0000
2002
0000
,  // measure 98
3003
0000
0000
0000
;
