#TITLE:Euphorianic;
#SUBTITLE:Pump It Up Phoenix (2023);
#ARTIST:SHK;
#TITLETRANSLIT:;
#SUBTITLETRANSLIT:;
#ARTISTTRANSLIT:;
#GENRE:;
#CREDIT:Kommisar;
#BANNER:euphorianic-bn.png;
#BACKGROUND:euphorianic-bg.png;
#LYRICSPATH:;
#CDTITLE:!cdtitle.png;
#MUSIC:euphorianic.ogg;
#OFFSET:-0.118000;
#SAMPLESTART:44.665073;
#SAMPLELENGTH:12.000000;
#SELECTABLE:YES;
#BPMS:0.000000=140.000000
;
#STOPS:
;
#BGCHANGES:-0.115=euphorianic.mp4=1.000=0=0=0=StretchNoLoop====,
99999=-nosongbg-=1.000=0=0=0 // don't automatically add -songbackground-
;
#KEYSOUNDS:;
#ATTACKS:;

//---------------dance-single - FS DS----------------
#NOTES:
     dance-single:
     :
     Challenge:
     16:
     0.834757,0.923351,0.205172,0.369310,0.890446,712.000000,687.000000,25.000000,45.000000,18.000000,0.000000,0.834757,0.923351,0.205172,0.369310,0.890446,712.000000,687.000000,25.000000,45.000000,18.000000,0.000000:
// measure 0
0000
0000
0000
0000
,  // measure 1
0000
0000
0000
0000
,  // measure 2
1100
0000
0001
0000
0001
0000
1000
0100
00M0
0100
0000
0001
0010
0M00
0010
0000
,  // measure 3
1000
0000
0100
0000
0100
0000
1000
0010
0M00
0010
0000
0001
0100
00M0
0100
0000
,  // measure 4
1000
0000
0001
0000
0001
0000
1000
0100
00M0
0100
0000
0001
0010
0M00
0010
0000
,  // measure 5
1000
0000
0100
0000
0100
0000
1000
0010
0M00
0010
0000
0001
0100
00M0
0100
0000
,  // measure 6
1100
0000
0001
0000
0001
0000
1000
0100
00M0
0100
0000
0001
0010
0M00
0010
0000
,  // measure 7
1000
0000
0100
0000
0100
0000
1000
0010
0M00
0010
0000
0001
0100
00M0
0100
0000
,  // measure 8
1000
0000
0010
0000
0010
0000
1000
0100
00M0
0100
0000
0001
0010
0M00
0010
0000
,  // measure 9
1000
0000
0100
0000
0100
0000
1000
0010
1000
0100
0010
0001
1000
0100
0010
0001
,  // measure 10
1000
0010
1000
0001
0010
0001
0010
0100
,  // measure 11
1000
0000
0010
0000
0100
0000
0020
0000
0000
0000
0030
0000
2000
0000
0000
3000
,  // measure 12
0200
0000
0000
0000
0000
0300
0010
0001
1000
0000
0010
0000
0100
0000
0001
0000
,  // measure 13
1000
0000
0100
0000
1000
0000
0020
0000
0000
0000
0130
0000
0002
0000
0000
0003
,  // measure 14
0010
0100
1000
0001
0010
0100
1000
0020
,  // measure 15
0000
0000
0000
0000
0000
0030
0200
0000
0000
0000
0301
0000
1000
0000
0200
0000
,  // measure 16
0000
0300
0010
0000
0001
0000
2000
0000
0000
0000
3010
0000
0100
0000
0002
0000
,  // measure 17
0000
0003
0020
0000
0000
0000
0000
0030
0100
1000
0100
0000
1000
0010
1000
0010
,  // measure 18
1000
0000
0001
0000
1100
0000
0001
0000
1100
0000
0001
0010
0001
0000
0100
0000
,  // measure 19
1010
0000
0100
0000
1010
0000
0100
0000
1010
0000
0001
0100
0001
0000
1000
0000
,  // measure 20
0110
0000
1000
0000
0110
0000
1000
0000
0110
0000
1000
0001
1000
0000
0010
0000
,  // measure 21
0101
0000
0010
0000
0101
0000
0010
0000
0101
0000
1000
0100
1000
0000
0001
0000
,  // measure 22
1001
0000
0100
0000
1001
0000
0100
0000
1001
0000
0001
0010
0001
0000
1000
0000
,  // measure 23
0011
0000
1000
0000
0011
0000
1000
0000
0011
0000
1000
0100
1000
0000
0001
0000
,  // measure 24
0110
0000
0001
0000
0110
0000
0001
0000
0110
0000
0001
0010
0001
0000
1000
0000
,  // measure 25
0100
0010
0001
0000
1000
0000
0010
0100
0010
1000
0001
0100
0001
1000
0100
0010
,  // measure 26
0002
0000
0100
0000
1003
0000
0010
0100
0001
0000
1000
0000
0100
0000
0010
0000
,  // measure 27
0200
0000
0010
0000
1300
0000
0001
0010
0001
0000
1000
0000
0010
0000
0100
0000
,  // measure 28
0002
0000
0010
0000
1003
0000
0001
0010
0100
0000
1000
0000
0010
0000
0100
0000
,  // measure 29
0002
0000
0010
0000
2003
0000
0010
0000
3002
0000
0100
0000
2003
0000
0100
3000
,  // measure 30
0012
0000
0100
0000
1003
0000
0010
0100
0001
0000
0010
0000
0100
0000
1000
0000
,  // measure 31
0020
0000
0100
0030
1000
0000
0100
0010
0001
0000
1000
0000
0100
0000
0010
0000
,  // measure 32
0002
0000
0100
0000
0103
0000
0001
0010
0M00
0010
0000
1000
0100
00M0
0100
0000
,  // measure 33
0001
0000
1000
0000
0010
0000
1000
0100
00M0
0100
0000
0001
0010
0M00
0010
0000
,  // measure 34
2001
0000
0010
0000
3001
0000
0100
0010
1000
0000
0001
0000
0010
0000
0100
0000
,  // measure 35
0020
0000
0100
0000
0031
0000
1000
0100
1000
0000
0001
0000
0100
0000
0010
0000
,  // measure 36
2000
0000
0100
0000
3001
0000
1000
0100
0010
0000
0001
0000
0100
0000
0010
0000
,  // measure 37
2000
0000
0100
0000
3002
0000
0100
0000
2003
0000
0010
0000
3002
0000
0010
0003
,  // measure 38
2100
0000
0010
0000
3001
0000
0100
0010
1000
0000
0100
0000
0010
0000
0001
0000
,  // measure 39
0200
0000
0010
0300
0001
0000
0010
0100
1000
0000
0001
0000
0100
0000
0010
0000
,  // measure 40
2000
0100
0001
0100
0001
0100
3001
1000
,  // measure 41
0010
0000
0100
0000
0001
0000
0100
0000
0010
0000
0100
0000
0002
0000
0000
0003
,  // measure 42
0010
0100
1000
0001
0010
0001
0010
0100
1000
0010
0100
0001
2000
0000
0000
3000
,  // measure 43
0010
1000
0010
0100
0001
0010
0001
1000
,  // measure 44
0100
1000
0010
0200
0000
0300
0000
0000
,  // measure 45
0002
0000
0000
0000
0000
0003
0010
0100
1000
0000
0010
0000
1000
0000
0100
0000
,  // measure 46
0010
0100
0010
0002
0000
0103
0020
0000
,  // measure 47
1030
0001
0010
0100
1000
0010
0100
0002
,  // measure 48
0000
0000
0000
0000
0000
0003
2000
0000
0000
0000
3100
0000
0010
0000
0200
0000
,  // measure 49
0000
0300
1000
0000
0010
0000
0200
0000
0000
0300
0001
0000
0010
0000
0200
0000
,  // measure 50
1300
0010
1000
0000
0001
0000
0100
0010
0100
0010
1000
0001
1000
0100
0010
0001
,  // measure 51
1000
0100
1000
0010
0100
0001
0010
0001
1000
0100
0010
0001
1000
0010
0100
0001
,  // measure 52
0010
0100
1000
0010
0100
0001
0010
0100
1000
0010
0100
0001
1000
0100
0010
0100
,  // measure 53
1000
0010
0100
0001
1000
0100
0010
0001
1000
0010
0100
0001
0010
0100
1000
0010
,  // measure 54
1000
0100
0010
0001
0100
0010
1000
0010
0100
0001
1000
0100
1000
0001
0010
0100
,  // measure 55
2000
3000
0000
0000
0010
0000
0000
0000
0100
0000
0000
0000
0001
0000
0000
0000
1000
0000
0000
0000
0100
0000
0000
0000
0010
0000
0000
0000
0001
0000
0000
0000
0100
0000
0000
0000
0010
0000
0000
0000
1000
0000
0000
0000
0100
0000
0000
0000
1000
0000
0000
0000
0100
0000
0000
0000
0010
0000
0000
0000
0001
0000
0000
0000
,  // measure 56
0100
0001
0010
0100
1000
0010
0100
0001
1000
0100
0010
0001
1000
0100
1000
0010
,  // measure 57
0100
0001
1000
0010
1000
0001
0010
0100
1000
0010
1000
0001
0100
0010
1000
0100
,  // measure 58
0010
0001
0100
0010
1000
0001
0010
0100
0010
0001
1000
0100
0010
0001
1000
0100
,  // measure 59
1000
0010
0100
0010
1000
0001
0100
0001
1000
0100
1000
0100
0010
0001
0100
0010
,  // measure 60
1000
0100
1000
0010
0100
0001
0010
0001
1000
0100
0010
0001
1000
0010
0100
0001
,  // measure 61
0010
0100
1000
0010
0100
0001
0010
0100
1000
0010
0100
0001
1000
0100
0010
0100
,  // measure 62
1000
0010
0100
0001
1000
0100
0010
0001
1000
0010
0100
0001
0010
0100
1000
0010
,  // measure 63
1000
0100
0010
0001
0100
0010
1000
0010
0100
0001
1000
0100
1000
0001
0010
0100
,  // measure 64
2000
3000
0000
0000
0010
0000
0000
0000
0100
0000
0000
0000
0001
0000
0000
0000
1000
0000
0000
0000
0100
0000
0000
0000
0010
0000
0000
0000
0001
0000
0000
0000
0100
0000
0000
0000
0010
0000
0000
0000
1000
0000
0000
0000
0100
0000
0000
0000
1000
0000
0000
0000
0100
0000
0000
0000
0010
0000
0000
0000
0001
0000
0000
0000
,  // measure 65
0100
0001
0010
0100
1000
0010
0100
0001
1000
0100
0010
0001
1000
0100
1000
0010
,  // measure 66
0100
0001
1000
0010
1000
0001
0010
0100
1000
0010
1000
0001
0100
0010
1000
0100
,  // measure 67
1000
0100
0010
0001
1000
0010
0100
0001
0010
0001
1000
0100
0010
0001
1000
0010
,  // measure 68
0200
0000
0000
0300
0000
0000
0000
0000
0000
0000
0000
0000
0000
0000
0000
0000
;

//---------------dance-single - ----------------
#NOTES:
     dance-single:
     :
     Hard:
     14:
     0.651861,0.699508,0.172344,0.361103,0.410344,556.000000,535.000000,21.000000,44.000000,0.000000,0.000000,0.651861,0.699508,0.172344,0.361103,0.410344,556.000000,535.000000,21.000000,44.000000,0.000000,0.000000:
0000
0000
0000
0000
,
0000
0000
0000
0000
,
1000
0000
0001
0000
0001
0000
0100
0010
0000
0010
0000
1000
0100
0000
0100
0000
,
0010
0000
0001
0000
0001
0000
1000
0010
0000
0010
0000
0100
0001
0000
0001
0000
,
0010
0000
0100
0000
0100
0000
1000
0010
0000
0010
0000
1000
0100
0000
0100
0000
,
0010
0000
0001
0000
0001
0000
0100
0010
0000
0010
0000
1000
0100
0000
0100
0000
,
1000
0000
0010
0000
0010
0000
0100
0001
0000
0001
0000
0010
0100
0000
0100
0000
,
1000
0000
0010
0000
0010
0000
1000
0100
0000
0100
0000
0010
0001
0000
0001
0000
,
1000
0000
0010
0000
0010
0000
0100
0001
0000
0001
0000
1000
0100
0000
0100
0000
,
1000
0000
0010
0000
0010
0000
1000
0001
1000
0100
0010
0001
1000
0100
0010
0001
,
1000
0010
1000
0001
0010
0001
0010
0100
,
1000
0000
0010
0000
0100
0000
0020
0000
0000
0000
0030
0000
2000
0000
0000
3000
,
0200
0000
0000
0000
0000
0300
0010
0001
1000
0000
0010
0000
0100
0000
0001
0000
,
1000
0000
0100
0000
1000
0000
0020
0000
0000
0000
0130
0000
0002
0000
0000
0003
,
0010
0100
1000
0001
0010
0100
1000
0020
,
0000
0000
0000
0000
0000
0030
0200
0000
0000
0000
0301
0000
1000
0000
0200
0000
,
0000
0300
0010
0000
0001
0000
2000
0000
0000
0000
3010
0000
0100
0000
0002
0000
,
0000
0003
0020
0000
0000
0000
0000
0030
0100
1000
0100
0000
1000
0010
1000
0010
,
1000
0000
0000
0000
1100
0000
0000
0000
1100
0000
0000
0001
0100
0000
0010
0000
,
1010
0000
0000
0000
1010
0000
0000
0000
1010
0000
0000
1000
0100
0000
0010
0000
,
0110
0000
0000
0000
0110
0000
0000
0000
0110
0000
0000
0001
0100
0000
0010
0000
,
1010
0000
0000
0000
1010
0000
0000
0000
1010
0000
0000
1000
0001
0000
1000
0000
,
1001
0000
0000
0000
1001
0000
0000
0000
1001
0000
0000
0001
1000
0000
0001
0000
,
0011
0000
0000
0000
0011
0000
0000
0000
0011
0000
0000
1000
0010
0000
0100
0000
,
0110
0000
0000
0000
0110
0000
0000
0000
0110
0000
0000
1000
0001
0000
1000
0000
,
0100
0010
0001
0000
1000
0000
0010
0100
0010
1000
0001
0100
0001
1000
0100
0010
,
0002
0000
0000
0000
1003
0000
0010
0100
0001
0000
1000
0000
0100
0000
0010
0000
,
0200
0000
0000
0000
1300
0000
0001
0010
0001
0000
1000
0000
0010
0000
0100
0000
,
0002
0000
0000
0000
1003
0000
0001
0010
0100
0000
1000
0000
0010
0000
0100
0000
,
0002
0000
0000
0000
2003
0000
0000
3000
0200
0000
0000
0300
0020
0000
0000
0030
,
0002
0000
0000
0000
1003
0000
0010
0100
0001
0000
0010
0000
0100
0000
1000
0000
,
0020
0000
0000
0030
1000
0000
0100
0010
0001
0000
1000
0000
0100
0000
0010
0000
,
0002
0000
1000
0000
0000
0000
1003
1000
,
0001
0000
0100
0000
0001
0000
0010
0000
0001
0000
1000
0000
0200
0000
0000
0300
,
2001
0000
0000
0000
3001
0000
0100
0010
1000
0000
0001
0000
0010
0000
0100
0000
,
0020
0000
0000
0000
0031
0000
1000
0100
1000
0000
0001
0000
0100
0000
0010
0000
,
2000
0000
0000
0000
3001
0000
1000
0100
0010
0000
0001
0000
0100
0000
0010
0000
,
2000
0000
0000
3000
0200
0000
0000
0300
0020
0000
0000
0030
0002
0000
0000
0003
,
2000
0000
0000
0000
3001
0000
0100
0010
1000
0000
0100
0000
0010
0000
0001
0000
,
0200
0000
0000
0300
0001
0000
0010
0100
1000
0000
0001
0000
0100
0000
0010
0000
,
2000
0000
0001
0000
0000
0000
3001
1000
,
0010
0000
0100
0000
0001
0000
0100
0000
0010
0000
0100
0000
0002
0000
0000
0003
,
0010
0100
1000
0001
0010
0001
0010
0100
1000
0010
0100
0001
2000
0000
0000
3000
,
0010
1000
0010
0100
0001
0010
0001
1000
,
0100
1000
0010
0200
0000
0300
0000
0000
,
0002
0000
0000
0000
0000
0003
0010
0100
1000
0000
0010
0000
1000
0000
0100
0000
,
0010
0100
0010
0002
0000
0103
0020
0000
,
1030
0001
0010
0100
1000
0010
0100
0002
,
0000
0000
0000
0000
0000
0003
2000
0000
0000
0000
3100
0000
0010
0000
0200
0000
,
0000
0300
1000
0000
0010
0000
0200
0000
0000
0300
0001
0000
0010
0000
0200
0000
,
1300
0010
1000
0000
0001
0000
0100
0010
0100
0010
1000
0001
1000
0100
0010
0001
,
1000
0100
1000
0010
0100
0001
0010
0001
,
1000
0100
1000
0000
0010
0100
0010
0000
0100
0001
0100
0000
0001
0010
0001
0000
,
1000
0100
0010
0001
0100
0010
1000
0100
,
1000
0000
0001
0000
0010
0000
0001
0000
0010
0000
0100
0000
1000
0001
1000
0001
,
1000
0010
0100
0001
0010
0001
1000
0100
,
1000
0010
1000
0000
0001
0100
0001
0000
1000
0100
1000
0000
0001
0010
0001
0000
,
1000
0100
0010
0100
1000
0010
0100
0001
,
1000
0010
1000
0010
1000
0000
0001
0000
0010
0100
0010
0100
0010
0000
0100
0000
,
1000
0000
0010
0000
1000
0000
0001
0000
1000
0100
0010
0001
1000
0100
0010
0001
,
1000
0100
1000
0010
0100
0001
0010
0001
,
1000
0100
1000
0000
0010
0100
0010
0000
0100
0001
0100
0000
0001
0010
0001
0000
,
1000
0100
0010
0001
0100
0010
1000
0100
,
1000
0000
0001
0000
0010
0000
0001
0000
0010
0000
0100
0000
1000
0001
1000
0001
,
1000
0010
0100
0001
0010
0001
1000
0100
,
1000
0010
1000
0000
0001
0100
0001
0000
1000
0100
1000
0000
0001
0010
0001
0000
,
1000
0100
0010
0100
1000
0010
0100
0001
,
1000
0010
1000
0010
1000
0000
0001
0000
0010
0100
0010
0100
0010
0100
0010
0100
,
2000
0000
0000
3000
0000
0000
0000
0000
0000
0000
0000
0000
0000
0000
0000
0000
;

//---------------dance-single - ----------------
#NOTES:
     dance-single:
     :
     Medium:
     13:
     0.525240,0.531626,0.065655,0.377516,0.135413,448.000000,440.000000,8.000000,46.000000,0.000000,0.000000,0.525240,0.531626,0.065655,0.377516,0.135413,448.000000,440.000000,8.000000,46.000000,0.000000,0.000000:
0000
0000
0000
0000
,
0000
0000
0000
0000
,
1000
0000
0001
0000
0001
0000
0000
0100
0000
0100
0000
0000
0010
0000
0010
0000
,
1000
0000
0100
0000
0100
0000
0000
0010
0000
0010
0000
0000
0001
0000
0001
0000
,
1000
0000
0010
0000
0010
0000
0000
0100
0000
0100
0000
0000
0001
0000
0001
0000
,
0010
0000
0100
0000
0100
0000
0000
1000
0000
1000
0000
0000
0010
0000
0010
0000
,
2000
0000
3001
0000
0001
0000
0000
0100
0000
0100
0000
0000
0010
0000
0010
0000
,
1000
0000
0100
0000
0100
0000
0000
0010
0000
0010
0000
0000
0001
0000
0001
0000
,
1000
0000
0010
0000
0010
0000
0000
0100
0000
0100
0000
0000
0001
0000
0001
0000
,
1000
0000
0010
0000
0010
0000
1000
0000
0001
0010
0001
0000
1000
0100
1000
0000
,
0001
0100
0001
0010
0100
0010
0100
1000
,
0010
0000
0100
0000
0001
0000
0020
0000
0000
0000
0030
0000
0200
0000
0000
0300
,
2000
0000
0000
0000
0000
3000
0010
0000
0100
0000
0001
0000
0010
0000
0001
0000
,
1000
0000
0100
0000
1000
0000
0020
0000
0000
0000
0130
0000
0002
0000
0000
0003
,
0010
0100
1000
0001
0010
0100
1000
0020
,
0000
0000
0000
0000
0000
0030
0200
0000
0000
0000
0301
0000
1000
0000
0200
0000
,
0000
0300
0010
0000
0001
0000
2000
0000
0000
0000
3010
0000
0100
0000
0002
0000
,
0000
0003
0020
0000
0000
0000
0000
0030
0100
1000
0100
0000
1000
0010
1000
0000
,
1001
0000
0000
0000
0001
0000
0000
0000
0001
0000
0000
0001
0100
0000
0010
0000
,
1010
0000
0000
0000
1000
0000
0000
0000
1000
0000
0000
1000
0100
0000
0010
0000
,
0110
0000
0000
0000
0010
0000
0000
0000
0010
0000
0000
0001
0100
0000
0010
0000
,
1010
0000
0000
0000
1000
0000
0000
0000
1000
0000
0000
1000
0001
0000
1000
0000
,
1001
0000
0000
0000
0001
0000
0000
0000
0001
0000
0000
0001
1000
0000
0001
0000
,
0011
0000
0000
0000
0010
0000
0000
0000
0010
0000
0000
1000
0010
0000
0100
0000
,
0010
0000
0000
0000
0010
0000
0000
0000
0010
0000
0000
1000
0001
0000
1000
0000
,
0100
0000
0000
0000
0100
0000
0000
0000
0100
0000
0000
0000
1000
0001
1000
0001
,
2000
0000
0000
0000
0000
0000
0000
3000
0010
0000
0100
0000
0010
0000
1000
0000
,
0200
0000
0300
0010
0001
1000
0010
0100
,
0002
0000
0003
0010
0100
1000
0010
0100
,
0002
0000
0000
0000
2003
0000
0000
3000
0200
0000
0000
0300
0020
0000
0000
0030
,
0002
0000
0003
1000
0001
0010
0100
1000
,
0020
0000
0000
0000
0000
0030
0100
0000
0010
0000
1000
0000
0100
0000
1000
0000
,
0002
0000
0000
0000
0000
0000
0003
1000
,
0001
0000
0100
0000
0001
0000
0010
0000
0001
0000
1000
0000
0200
0000
0000
0300
,
2001
0000
3000
0010
0100
0001
0010
0100
,
0020
0000
0030
0001
1000
0001
0100
0010
,
2000
0000
3000
0100
0010
0001
0100
0010
,
2000
0000
0000
3000
0200
0000
0000
0300
0020
0000
0000
0030
0002
0000
0000
0003
,
2000
0000
3000
0001
0100
0001
1000
0010
,
0200
0000
0000
0300
0000
0000
0001
0000
0010
0000
0100
0000
0010
0000
0001
0000
,
2000
0000
0000
0000
0000
0000
3000
0010
,
0100
0000
0001
0000
1000
0000
0010
0000
1000
0000
0001
0000
0020
0000
0000
0030
,
0100
0000
1000
0000
0001
0000
0010
0000
0100
0000
1000
0000
0020
0000
0000
0030
,
1010
1000
0010
0100
0001
0010
0001
1000
,
0100
1000
0010
0200
0000
0300
0000
0000
,
0002
0000
0000
0000
0000
0003
0010
0000
0100
0000
1000
0000
0010
0000
1000
0000
,
0001
0000
0100
0000
0001
0000
0020
0000
0000
0030
0100
0000
2000
0000
0000
3000
,
0001
0010
0100
0010
0100
1000
0010
0200
,
0000
0000
0300
0002
0000
1003
0100
0020
,
0000
0030
0001
0000
1000
0000
0020
0000
0000
0030
0100
0000
0001
0000
0020
0000
,
0000
0030
0200
0000
0000
0000
0000
0300
1000
0001
1000
0001
1000
0000
0010
0000
,
1000
0100
1000
0010
0100
0001
0010
0001
,
0010
0100
1000
0010
0100
0001
1000
0010
,
1000
0100
0010
0001
0100
0010
1000
0100
,
1000
0001
0010
0001
0010
0100
1000
0001
,
1000
0010
0100
0001
0010
0001
1000
0100
,
1000
0010
0100
0001
1000
0100
0010
0001
,
1000
0100
0010
0100
1000
0010
0100
0001
,
1000
0100
1000
0001
0010
0100
0010
0100
,
1000
0000
0010
0000
1000
0000
0001
0000
1000
0000
0010
0000
1000
0001
1000
0001
,
1000
0100
1000
0010
0100
0001
0010
0001
,
1000
0100
0010
0100
1000
0001
0100
0001
,
1000
0100
0010
0001
0100
0010
1000
0100
,
1000
0001
0010
0001
0010
0100
1000
0010
,
1000
0010
0100
0001
0010
0001
1000
0100
,
1000
0010
0100
0001
1000
0001
0010
0100
,
1000
0100
0010
0100
1000
0010
0100
0001
,
1000
0000
0010
0000
1000
0000
0001
0000
0010
0000
0100
0000
1000
0001
1000
0001
,
2000
0000
0000
3000
0000
0000
0000
0000
0000
0000
0000
0000
0000
0000
0000
0000
;
