#TITLE:End of the Moonlight;
#SUBTITLE:;
#ARTIST:Forte Escape;
#TITLETRANSLIT:;
#SUBTITLETRANSLIT:;
#ARTISTTRANSLIT:;
#GENRE:Techno POP;
#CREDIT:;
#MUSIC:End of the Moonlight.ogg;
#BANNER:End of the Moonlight.png;
#BACKGROUND:End of the Moonlight-bg.png;
#CDTITLE:cdtitle.png;
#SAMPLESTART:54.387;
#SAMPLELENGTH:15.000;
#SELECTABLE:YES;
#OFFSET:-0.003;
#BPMS:0.000=155.000;
#STOPS:35.500=2.710;
#BGCHANGES:0.000=End of the Moonlight.avi=1.000=1=0=0=StretchNoLoop==CrossFade==;
#FGCHANGES:;

//--------------- dance-single - KAYSTAR ----------------
#NOTES:
     dance-single:
     KAYSTAR:
     Beginner:
     3:
     0,0,0,0,0:
0000
0000
0000
0000
,
0000
0000
0000
0000
,
0000
0000
0000
0000
,
0000
0000
0000
0000
,
0000
0000
0000
0000
,
1000
0000
1000
0000
,
0001
0000
0001
0000
,
0200
0000
0300
0000
,
0020
0000
0030
0000
,
0000
1000
0000
0001
,
0000
0010
0000
0010
,
0000
0100
0000
1000
,
1000
1000
0000
0000
,
0000
0001
0000
1000
,
0000
0010
0000
0010
,
0000
0100
0000
0001
,
0001
0001
0000
0000
,
0000
1000
0000
0000
,
0000
0100
0000
0000
,
0000
0010
0000
0000
,
0000
0001
0000
0000
,
0000
1000
0000
0000
,
0000
0010
0000
0000
,
0000
0100
0000
0000
,
0000
0001
0000
0000
,
0000
1000
0000
0100
,
0000
0010
0000
0010
,
0000
0001
0000
0100
,
0000
0010
0000
0010
,
0000
2000
0000
3000
,
0000
0200
0000
0300
,
0000
0020
0000
0030
,
0000
0002
0000
0000
,
0000
0003
0000
0000
,
0000
1000
0000
0010
,
0000
0100
0000
0100
,
0000
0001
0001
0001
,
0000
1000
1000
1000
,
0000
0100
0000
0010
,
0000
0001
0000
0001
,
0000
0100
0100
0100
,
0000
0020
0000
0030
,
0000
1000
0000
0100
,
0000
0010
0000
0010
,
0000
0001
0001
0001
,
0000
1000
1000
1000
,
0000
0010
0000
0100
,
0000
0001
0000
0001
,
0000
1000
1000
1000
,
0000
0200
0000
0000
,
0000
0300
0000
0000
,
0000
1000
1000
0000
,
0000
0010
0000
0100
,
0000
0001
0001
0000
,
0000
0000
0000
0000
,
0000
1000
1000
0000
,
0000
0100
0000
0010
,
0000
0001
0000
0100
,
0000
0010
0000
0000
,
0000
1000
0000
0100
,
0000
0001
0000
0100
,
0000
1000
0000
0010
,
0000
0100
0100
0100
,
0000
0001
0000
0100
,
0000
1000
0000
0100
,
0000
0001
0000
0010
,
0000
0100
0100
0100
,
0000
2002
0000
0000
,
0000
3003
0000
0000
;

//--------------- dance-single - KAYSTAR ----------------
#NOTES:
     dance-single:
     KAYSTAR:
     Easy:
     6:
     0,0,0,0,0:
0000
0000
0000
0000
,
0000
0000
0000
0000
,
0000
0000
0000
0000
,
0000
0000
0000
0000
,
0000
0000
0000
0000
,
1000
1000
1000
0000
,
0001
0001
0001
0000
,
1000
0001
0100
0010
,
1000
0100
0010
0001
,
0000
1000
0010
0001
,
0010
2000
0000
3001
,
0000
1001
0000
1000
,
0010
0100
0000
0100
,
0000
0001
0010
1000
,
0010
0002
0000
1003
,
0000
1001
0000
0001
,
0010
0200
0000
0300
,
0000
1000
0000
1000
,
0000
0010
0000
0010
,
0000
0100
0000
0100
,
0000
0001
0000
0001
,
0000
0010
0000
0010
,
0000
0100
0000
0100
,
0000
2000
0000
3000
,
0000
0002
0000
0003
,
0000
1000
0010
0100
,
0000
0001
0010
0100
,
0000
1000
1000
1000
,
0000
0001
0001
0001
,
0000
0100
0010
1000
,
0000
0100
0010
0001
,
0000
0200
0000
0300
,
0000
0020
0000
0000
,
0000
0030
0000
0000
,
0000
1000
0100
0010
,
0010
0001
0100
0010
,
0000
1000
0100
0001
,
0100
1000
0010
0001
,
0010
1000
0100
0010
,
0010
0001
0100
0010
,
0000
1000
1000
1000
,
0000
0002
0023
0230
,
2300
3001
0100
0010
,
0010
1000
0100
0010
,
0000
0001
0100
1000
,
0100
0001
0010
1000
,
0010
0001
0100
0010
,
0010
1000
0100
0010
,
0000
0001
0001
0001
,
0000
2000
3020
0230
,
0302
2003
0000
0000
,
0000
3001
0000
0010
,
0000
0100
0000
1000
,
0000
0001
0100
0010
,
0000
1000
1000
1000
,
0000
0001
0000
0010
,
0000
0100
0000
1000
,
0010
0100
0000
0001
,
0000
0001
0000
1001
,
0000
1000
0100
0001
,
0100
0001
0100
1000
,
0100
1000
0100
0010
,
0001
0100
0010
2000
,
0000
3001
0010
1000
,
0010
1000
0010
0001
,
0010
0001
0010
0100
,
1000
0010
0100
0001
,
1000
2002
0000
0000
,
0000
3003
0000
0000
;

//--------------- dance-single - KAYSTAR ----------------
#NOTES:
     dance-single:
     KAYSTAR:
     Medium:
     9:
     0,0,0,0,0:
0000
0000
0000
0000
,
0000
0000
0000
0000
,
0000
0000
0000
0000
,
0000
0000
0000
0000
,
0000
0000
0000
0000
,
0001
0001
0100
0100
,
0010
0010
1000
1000
,
0001
0010
0100
0000
1000
0010
0100
0000
,
0001
1000
0001
1000
0001
1000
0001
2000
,
3000
0000
0001
0000
0010
0100
1000
0000
,
1000
0002
0000
1003
,
0010
0100
0001
0000
1000
0000
0100
0010
,
0001
1000
0010
0100
,
0001
0000
1000
0000
0100
0010
0001
0000
,
0001
2000
3020
0230
,
0302
0000
1003
0000
0100
0010
0100
0010
,
0100
0010
0002
0000
0000
0000
0000
0000
,
0000
1003
0010
0100
,
0100
0001
1000
0100
,
0100
0000
1000
0100
0010
0000
0100
0010
,
0001
0101
0110
1010
,
0000
0001
0010
0100
,
0100
1000
0001
0100
,
0100
0000
0001
1000
0001
1000
0001
0000
,
1000
0100
0020
0000
0000
0000
0031
0000
,
1001
0000
1000
0000
0010
0100
0001
0000
,
0001
0000
1000
0000
0100
0010
0001
0000
,
1000
0000
0001
0000
0100
0010
1000
0000
,
1000
0000
0001
0000
0010
0100
1000
0000
,
0001
2002
0000
3003
,
0000
0220
0000
0330
,
0000
1000
1000
0001
,
0001
0000
1000
0100
0010
0001
1000
0100
,
0010
0001
0000
1000
0001
1000
0001
0000
,
1001
1000
0010
0100
,
0100
0000
0001
0000
1000
0000
0100
0010
,
0001
0000
1000
0010
0100
0010
1000
0010
,
0100
0010
2000
0000
3200
0000
0320
0000
,
0032
1003
0010
0100
,
0100
0000
0001
0000
1000
0100
0010
0001
,
1000
0010
0010
0100
,
0100
0000
0001
1000
0001
1000
0001
1000
,
0001
1000
0001
0000
0010
0000
0100
0000
,
0100
0000
1000
0000
0001
0000
0100
0010
,
1000
0000
0001
0010
0100
0010
0001
0010
,
0100
0010
0002
0000
0203
0000
0320
0000
,
2030
3001
0010
0100
,
0100
0000
1000
0000
0001
0100
0010
1000
,
0001
0010
0010
0100
,
0100
0000
1000
0001
1000
0001
1000
0001
,
1000
2002
0000
0000
,
3003
0001
0100
0020
,
0000
1030
0100
0020
,
0000
0000
0031
0001
0001
0000
2000
0000
,
0000
3010
0100
0002
,
0000
1003
0100
0020
,
0000
0031
0100
0020
,
1000
1000
1030
0000
0000
0000
0001
0000
,
0000
2002
0000
0000
,
3003
0000
1000
0000
1000
0000
0100
0010
,
0100
0010
0001
0000
0001
0000
0100
0010
,
0100
0010
1000
0000
1000
0000
0100
0010
,
0100
0010
0001
0000
0001
0000
2002
0000
,
3003
0000
1000
0000
1000
0000
0001
0100
,
0010
0100
0001
0000
0001
0000
1000
0100
,
0010
0100
1000
0000
1000
0000
0001
0100
,
0001
0100
0010
1000
0010
1000
0001
0010
,
0100
1000
0002
0000
0000
0000
0000
0000
,
0000
0003
0000
0000
;

//--------------- dance-single - KAYSTAR ----------------
#NOTES:
     dance-single:
     KAYSTAR:
     Hard:
     13:
     0,0,0,0,0:
0000
0000
0000
0000
,
0000
0000
0000
0000
,
0000
0000
0000
0000
,
0000
0000
0000
0000
,
0000
0000
0000
0000
,
2001
0001
0010
0010
,
3002
1000
0010
0010
,
1003
0010
0100
0001
0010
0100
1000
0001
,
0100
0001
0100
0000
0010
1000
0010
0000
1000
0001
1000
0001
1000
0001
2000
0000
,
3000
0000
0001
0010
0210
0000
2300
0000
,
3002
0000
0203
0000
0310
1000
0001
0001
,
0001
0000
1000
0100
0020
0000
0000
0000
0031
0000
1000
0000
0010
0000
0001
0000
,
0010
2000
0000
3001
0010
0100
1000
1000
,
1000
0000
0001
0010
0200
0000
0000
0000
1300
0000
0010
0000
0100
0000
0001
0000
,
0010
0210
0000
2300
0000
3002
0000
0103
,
0100
0100
0020
0000
1030
0001
0010
1000
,
0010
0001
2000
0000
0000
0000
0000
0000
,
0000
0000
3001
0000
0010
0100
1000
0000
,
0002
0100
0000
1000
0000
0013
0000
0100
,
1000
0002
0000
0103
0010
0000
2000
0000
,
3100
0002
0000
0203
0000
2300
0000
3001
,
1001
0000
1000
0001
0100
0010
0100
0001
,
2000
0100
0000
0001
0000
3010
0000
0100
,
0001
1002
0010
2003
,
0010
0000
3001
0001
0010
0010
0100
0100
,
2000
0000
3001
0100
1000
0100
0001
0001
,
0001
0000
1000
0100
0001
0100
1000
1000
,
1000
0000
0001
0100
0010
1000
0100
0100
,
0100
0000
1000
0100
0010
0001
0100
0100
,
0100
1002
0023
0230
,
1300
2001
3020
0230
,
0301
0000
1000
1000
0100
0100
0010
0010
,
0002
0000
1003
0010
0001
0010
1000
0010
,
0001
0020
0000
1030
1000
0001
0001
0000
,
0110
0000
1001
1000
0100
0001
0100
1000
,
0010
0001
0010
1000
0100
0010
0001
0001
,
0001
0000
0000
0000
1000
0010
1000
0000
0001
0000
1000
0100
1000
0000
0001
0000
,
0100
1000
0100
0001
0100
1000
0100
0001
,
0010
0100
2000
0000
3001
0100
0001
0010
,
0100
0000
1000
0000
0010
0000
1000
0001
1000
0000
0100
0000
0010
0000
0010
0000
,
0010
0000
0000
0000
0001
0000
0100
0000
0010
0000
1000
0001
0000
0001
1000
0000
,
0100
0000
0010
0000
0001
1000
0001
0000
0100
0010
0100
0000
0001
1000
0001
0000
,
0020
0230
1300
0001
0100
1000
0100
0001
,
0010
1000
0010
0001
0100
0010
1000
1000
,
1000
0000
0000
0000
0001
0010
0001
0000
1000
0000
0001
0100
0001
0000
1000
0000
,
0100
0001
0100
1000
0100
0001
0100
1000
,
0010
0100
0002
0000
1003
0100
1000
0010
,
0100
0000
0001
0000
0010
0000
0001
1000
0001
0000
0100
0000
0010
0000
0010
0000
,
0010
0000
0000
0000
1000
0000
0100
0000
0010
0000
0001
1000
0000
1000
0001
0000
,
0100
0000
0010
0000
1000
0001
1000
0000
0100
0010
0100
0000
1000
0001
1000
0000
,
0010
0100
0001
0000
2000
0000
0000
0000
0000
0000
0000
0000
0000
0000
0000
0000
,
0000
0000
3001
0010
0100
0000
2000
0000
,
3010
0001
0010
0000
1000
0100
0020
0000
,
0032
0000
1003
0010
0100
0000
0102
0000
,
0000
1000
1000
0010
,
0000
0000
1003
0010
0100
0000
0002
0000
,
0013
1000
0010
0000
0001
0100
0020
0000
,
1030
0001
1000
0000
0001
0010
0100
0000
,
1000
0010
0100
0000
0001
0000
2002
0000
,
3003
0000
0000
0000
1000
0000
0100
0000
0010
0000
0001
0000
0100
0001
0100
0000
,
0010
0100
0010
0000
1000
0000
0100
0000
0010
0000
0001
0000
0100
0001
0100
0000
,
0010
0100
0010
0000
1000
0000
0001
0000
0010
0000
0100
0000
1000
0001
1000
0000
,
0001
1000
0001
0000
0100
0000
1000
0000
0100
0000
0001
0000
2000
0000
0000
0000
,
0000
0000
0000
0000
3001
0000
0100
0000
0010
0000
1000
0000
0100
1000
0100
0000
,
0010
0100
0010
0000
0001
0000
0100
0000
0010
0000
1000
0000
0100
1000
0100
0000
,
0010
0100
0010
0000
0001
0000
1000
0000
0010
0000
0100
0000
0001
1000
0001
0000
,
1000
0001
1000
0000
0100
0000
0001
0000
0100
0000
1000
0000
0001
0100
0001
0100
,
0010
1000
0010
1000
0002
0000
0000
0000
0000
0000
0000
0000
0000
0000
0000
0000
,
0000
0003
0000
0000
;

//--------------- dance-single - KAYSTAR ----------------
#NOTES:
     dance-single:
     KAYSTAR:
     Challenge:
     17:
     0,0,0,0,0:
0000
0000
0000
0000
,
0000
0000
0000
0000
,
0000
0000
0000
0000
,
0000
0000
0000
0000
,
0000
0000
0000
0000
,
1000
0100
0010
0002
0000
0103
0010
2000
,
0000
0000
3001
0010
0100
0000
0010
0100
1000
0000
0001
1000
0001
0000
1000
0010
,
0100
0001
0100
0001
1000
0100
1000
0100
0010
0001
0010
0001
1000
0010
1000
0010
,
0100
0001
1000
0100
0010
0001
0010
0100
1000
0001
0100
0010
1000
0100
0020
0000
,
0030
0000
0000
0000
0001
0000
1000
0000
0010
1000
0010
0000
0100
0010
0100
0000
,
0001
0100
0001
0000
1002
0000
0000
0000
0013
0100
1000
0100
0010
0000
0001
0000
,
0001
0000
0100
0010
0001
0000
0010
0000
1000
0000
2001
0000
0000
0000
3002
0000
,
0023
0000
0230
0000
1300
0001
0000
0100
0010
0100
0010
1000
0001
0000
1000
0000
,
1000
0000
0100
0010
1000
0000
0010
0000
0001
0000
1002
0000
0000
0000
2003
0000
,
3020
0000
0230
0000
0301
0000
0010
0001
0010
0000
0100
0010
0100
0000
1000
0100
,
1000
0000
2001
0000
0000
0000
3010
0100
0001
0100
0010
0000
2000
0000
3200
0000
,
0320
0000
0032
0000
2003
0000
0000
0000
0000
0000
3010
0100
0001
0000
1000
0001
,
1000
0001
1000
0000
0001
0000
0010
0000
0001
0000
0100
0000
0010
0000
1000
0000
,
0100
1000
0001
0100
0010
0100
1000
0100
,
0010
0100
0001
1000
0100
0010
0001
1000
,
0010
0100
0001
0010
0100
1000
0001
0000
,
1001
0000
1000
0010
1000
0100
0010
0001
,
0100
0001
1000
0100
0010
1000
0001
0100
,
0010
0001
2000
0000
0010
0000
3002
0000
,
0100
0000
0000
0000
1003
0000
1000
0000
0001
0000
0001
0000
1000
0100
0010
0001
,
1000
0000
0001
0100
0001
0100
0000
1000
0100
0000
0001
0100
0010
0000
1000
0000
,
0001
0000
0001
0000
1000
0100
0000
0001
0100
0000
1000
0100
0010
0000
0001
0000
,
1000
0000
1000
0000
0001
0010
0000
0100
1000
0000
0010
0100
0001
0000
0010
0000
,
0100
0000
0100
0000
1000
0010
0000
0100
0001
0000
0010
0100
0000
1000
0010
1000
,
0010
0000
0100
0000
0001
0010
0000
1000
0010
0000
0001
0010
0100
0000
1000
0000
,
0002
0000
0000
0000
1003
0010
0000
0001
0010
0000
1000
0010
0100
0000
0001
0000
,
2000
0000
0000
0000
3001
0010
0100
0000
0010
0100
1000
0000
0001
0100
0010
1000
,
0001
0000
0001
0000
1000
0100
1000
0100
1000
0100
1000
0100
0010
0001
0010
0001
,
0010
0001
0010
0001
0000
0000
1001
0000
1010
0000
1000
0001
0010
0000
0012
0000
,
0000
0000
1003
0000
1001
0000
0001
0100
0020
0000
1030
0000
0001
0000
0010
0100
,
1000
0000
0010
0000
0100
0000
0001
1000
0001
0000
0010
0000
0110
0000
0001
0000
,
1001
0000
0000
0000
1000
0010
0100
0001
1000
0100
0010
0100
1000
0001
0100
0010
,
1000
0001
0010
0100
0001
0100
0001
0100
0010
0001
1000
0010
0100
0001
0100
0010
,
1000
0001
0010
0100
1000
0000
0001
0100
0010
0000
1010
0000
1000
0000
0001
0010
,
0100
0000
1100
0000
1000
0000
0001
0100
1000
0000
0100
0000
0110
0000
0001
0000
,
1001
0000
0000
0000
1000
0100
0010
0000
0001
0000
1000
0010
0000
0001
0010
0000
,
1000
0000
1000
0000
0001
0010
0100
0010
1000
0010
0100
0010
0001
0010
0100
0010
,
1000
0010
0100
0010
0001
0000
1000
0010
0200
0000
0301
0000
1000
0000
0100
0010
,
0001
0000
0100
0000
0010
0000
1000
0001
1000
0000
0100
0000
0110
0000
1000
0000
,
1001
0000
0000
0000
0001
0010
0100
1000
0001
0100
0010
0100
0001
1000
0100
0010
,
0001
1000
0010
0100
1000
0100
0010
0100
1000
0100
0010
1000
0001
0010
0100
1000
,
0010
0100
0001
1000
0001
0000
1000
0100
0001
0000
0100
0010
0001
0000
1000
0010
,
0100
0000
0101
0000
0001
0000
1000
0100
0010
0000
0011
0000
1001
0000
1001
0000
,
1001
0000
0000
0000
0001
0100
0010
0000
1000
0000
0001
0010
0000
1000
0010
0000
,
0001
0000
0001
0000
1000
0010
0100
0010
0001
0010
0100
0010
1000
0010
0100
0010
,
0001
0010
0100
0010
1000
0001
0000
1000
0001
0000
1000
0001
0000
1000
0001
0000
,
0001
0000
0001
0000
1000
0100
1000
0100
0000
0010
0001
0000
0200
0000
0000
0000
,
0310
0000
1000
0001
1000
0000
0000
0000
0001
0000
1000
0100
0020
0000
0000
0000
,
0031
0000
0000
0000
1000
0001
0100
0010
1000
0000
0000
0000
1002
0000
0000
0000
,
0000
0000
0013
0100
1000
0000
2001
0000
,
0000
0000
0000
0000
3001
0100
0001
0100
0000
0010
1000
0000
0001
0000
0010
0100
,
1000
0000
0001
0100
0020
0000
0000
0000
1030
0000
0000
0000
1002
0000
0000
0000
,
0013
0000
0100
1000
0200
0000
0000
0000
1300
0000
0001
0100
0002
0000
0000
0000
,
1003
0000
0100
1000
0100
0000
0010
0000
0001
0000
0000
0000
2002
0000
0000
0000
,
3003
0000
0000
0000
1000
0000
0001
0100
0010
0000
1000
0000
0100
0010
0001
1000
,
0001
0100
0010
0100
0001
0000
1000
0100
0010
0000
0001
0000
0100
0010
1000
0001
,
1000
0100
0010
0100
1000
0000
0001
0100
0010
0000
1000
0000
0100
0010
0001
1000
,
0001
0100
0010
0100
0001
0000
1000
0100
0010
0000
0001
0000
0200
0000
0000
0000
,
0310
0000
0000
0000
1000
0000
0001
0010
0100
0000
1000
0000
0010
0100
1000
0100
,
0010
0100
1000
0100
0010
0000
1000
0010
0100
0000
0001
0000
0010
0100
0001
0100
,
0010
0100
0001
0100
0010
0000
0001
0010
0100
0000
1000
0001
0100
0010
0100
0010
,
1000
0001
1000
0001
0010
0100
1000
0100
0010
0001
1000
0010
0100
0010
0001
0010
,
0100
0010
1000
0001
0020
0000
0000
0000
0000
0000
0000
0000
0000
0000
0000
0000
,
0000
0030
0000
0000
;

//--------------- dance-double - KAYSTAR ----------------
#NOTES:
     dance-double:
     KAYSTAR:
     Easy:
     6:
     0,0,0,0,0:
00000000
00000000
00000000
00000000
,
00000000
00000000
00000000
00000000
,
00000000
00000000
00000000
00000000
,
00000000
00000000
00000000
00000000
,
00000000
00000000
00000000
00000000
,
10000000
10000000
10000000
00000000
,
00010000
00010000
00010000
00000000
,
10000000
01000000
00100000
00001000
,
00010000
00000100
00000010
00000001
,
00000000
00001000
00001000
00000100
,
00000100
00000020
00000000
00000031
,
00000000
00000001
00000100
00001000
,
00000000
00010000
01000000
10000000
,
00000000
00010000
00010000
01000000
,
01000000
00200000
00000000
10300000
,
00000000
10000000
01000000
00100000
,
00001000
00022000
00000000
00000000
,
00033000
00010000
00000000
00000100
,
00000000
00001000
00000000
00000001
,
00000000
00000100
00000000
00001000
,
00000000
00010000
00010000
00010000
,
00000000
00001000
00000000
01000000
,
00000000
00010000
00000000
10000000
,
00000000
02000000
00000000
03000000
,
00000000
00200000
00000000
00300000
,
00000000
00010000
01000000
00100000
,
00000000
10000000
01000000
00100000
,
00000000
01000000
00010000
00001000
,
00000000
00010000
00001000
00000010
,
00000000
00000001
00000100
00000010
,
00000000
00001000
00000100
00000010
,
00000000
00000002
00000000
00000003
,
00000000
00002000
00000000
00000000
,
00000000
00003000
00000000
00000000
,
00000000
00000001
00000100
00001000
,
00000100
00000001
00001000
00000100
,
00000000
00010000
00010000
00001000
,
00001000
00010000
00100000
10000000
,
00010000
10000000
01000000
00010000
,
01000000
10000000
00010000
01000000
,
00000000
00001000
00001000
00001000
,
00000000
00020000
00032000
00003200
,
00000000
00000301
00000010
00001000
,
00000010
00000001
00001000
00000010
,
00000000
00010000
00010000
00001000
,
00001000
00010000
01000000
10000000
,
00010000
10000000
00100000
00010000
,
00100000
10000000
00010000
00100000
,
00000000
00001000
00001000
00001000
,
00000000
00020000
00032000
00003020
,
00000032
00002003
00000000
00000000
,
00000000
00003001
00000000
00000100
,
00000000
00000010
00000000
00010000
,
00000000
00001000
00001000
00001000
,
00000000
00010000
00100000
10000000
,
00000000
10000000
00000000
01000000
,
00000000
00100000
00000000
00001000
,
00001000
00001000
00000000
00000010
,
00000000
00000001
00000000
00001001
,
00000000
00001000
00000010
00010000
,
00001000
00010000
00000100
00001000
,
00000100
00010000
00001000
00010000
,
00000010
00001000
00010000
02000000
,
00000000
03010000
00100000
00001000
,
00010000
00001000
01000000
00010000
,
01000000
00001000
00010000
00001000
,
00100000
00010000
00001000
00000200
,
00000000
00000020
00000000
00000000
,
00000000
00000330
00000000
00000000
;

//--------------- dance-double - KAYSTAR ----------------
#NOTES:
     dance-double:
     KAYSTAR:
     Medium:
     9:
     0,0,0,0,0:
00000000
00000000
00000000
00000000
,
00000000
00000000
00000000
00000000
,
00000000
00000000
00000000
00000000
,
00000000
00000000
00000000
00000000
,
00000000
00000000
00000000
00000000
,
10000000
10000000
00100000
00100000
,
01000000
01000000
00010000
00010000
,
10000000
01000000
00100000
00000000
00010000
00100000
00001000
00000000
,
00010000
00000100
00001000
00000100
00000010
00000100
00000010
00000002
,
00000003
00000000
00001000
00000000
00000001
00000100
00000010
00000000
,
00001000
00000200
00000000
00000310
,
00000001
00001000
00000010
00000000
00010000
00000000
00001000
00010000
,
00001000
01000000
00100000
10000000
,
00010000
10000000
01000000
00000000
00100000
00000000
00010000
10000000
,
00010000
20000000
30200000
02300000
,
03020000
00000000
10030000
00000000
01000000
00100000
01000000
00100000
,
00010000
00100000
00002000
00000000
00000000
00000000
00000000
00000000
,
00000000
00013000
00000100
00001000
,
00001000
00000001
00000100
00000010
,
00001000
00000000
00000100
00001000
00000100
00000000
00000010
00000001
,
00000010
00000002
00000203
00002300
,
00013000
00001000
01000000
00010000
,
00010000
20000000
32000000
03020000
,
00031000
00000000
00010000
00001000
00010000
00001000
00010000
00000000
,
00000100
00001000
00000002
00000000
00000000
00000000
00001003
00000000
,
00001001
00000000
00000001
00000000
00001000
00000010
00010000
00000000
,
00010000
00000000
00001000
00000000
01000000
00010000
01000000
00000000
,
00100000
00000000
10000000
00000000
00010000
00100000
00001000
00000000
,
00001000
00000000
00010000
00000000
00000100
00001000
00000100
00000000
,
00000010
00002002
00000000
00003003
,
00000000
00000220
00000000
00000330
,
00000000
00000001
00000100
00000010
,
00001000
00000200
00000000
00000000
,
00000000
00000000
00000000
00010300
00001000
00010000
00001000
00000000
,
00011000
00010000
00001000
01000000
,
01000000
00000000
00010000
00000000
10000000
00000000
01000000
00100000
,
00010000
00000000
00100000
00001000
00010000
00001000
00100000
00001000
,
00010000
00000100
00002000
00000000
00003020
00000000
00000230
00000000
,
00000302
00001003
00000100
00000010
,
00000010
00000000
00000001
00000000
00001000
00000010
00001000
00000010
,
00010000
00021000
00230000
20300000
,
30010000
00000000
10000000
01000000
00100000
01000000
00100000
00010000
,
00100000
00001000
00010000
00000100
,
00000100
00000000
00001000
00000000
00000001
00000000
00000100
00000010
,
00001000
00000000
00000010
00010000
00001000
00010000
00000010
00010000
,
00001000
01000000
00020000
00000000
00230000
00000000
02300000
00000000
,
23000000
30010000
01000000
00100000
,
00100000
00000000
10000000
00000000
00010000
00100000
00010000
00100000
,
00001000
00012000
00003020
00000032
,
00001003
00000000
00000001
00000100
00000010
00000100
00000010
00001000
,
00000010
00010000
00002000
00000000
00000000
00000000
00000000
00000000
,
00000000
01003000
00010000
20000000
,
00000000
31000000
00100000
00020000
,
00000000
00000000
10030000
10000000
10000000
00000000
00200000
00000000
,
00000000
01300000
00001000
00020000
,
00000000
00030100
00001000
00000002
,
00000000
00000103
00000010
00002000
,
00000001
00000001
00003001
00000000
00000000
00000000
00000110
00000000
,
00000000
00002002
00000000
00000000
,
00003003
00000000
00000001
00000000
00000001
00000000
00000010
00000100
,
00000010
00000100
00001000
00000000
00001000
00000000
00000001
00000100
,
00000001
00000100
00001000
00000000
00001000
00000000
00010000
00100000
,
00010000
00100000
10000000
00000000
00010000
00000000
20020000
00000000
,
30030000
00000000
10000000
00000000
10000000
00000000
00100000
01000000
,
00100000
01000000
00010000
00000000
00010000
00000000
10000000
01000000
,
10000000
01000000
00010000
00000000
00010000
00000000
00001000
00000010
,
00001000
00000010
00000001
00001000
00000001
00001000
00000010
00000100
,
00000010
00000100
00000002
00000000
00000000
00000000
00000000
00000000
,
00000000
00000003
00000000
00000000
;

//--------------- dance-double - KAYSTAR ----------------
#NOTES:
     dance-double:
     KAYSTAR:
     Hard:
     13:
     0,0,0,0,0:
00000000
00000000
00000000
00000000
,
00000000
00000000
00000000
00000000
,
00000000
00000000
00000000
00000000
,
00000000
00000000
00000000
00000000
,
00000000
00000000
00000000
00000000
,
00021000
00000010
00000010
00031000
,
00012000
00100000
00100000
00013000
,
00001000
01000000
00010000
10000000
01000000
00100000
00001000
00010000
,
00000100
00001000
00000100
00000000
00000010
00000001
00000010
00000000
00000001
00001000
00000001
00001000
00000001
00001000
00000002
00000000
,
00000003
00000000
00001000
00000010
00000200
00000000
00002300
00000000
,
00023000
00000000
00230000
00000000
01300000
00010000
10000000
10000000
,
10000000
00000000
01000000
10000000
02000000
00000000
00000000
00000000
03100000
00000000
00001000
00000000
00010000
00000000
00100000
00000000
,
00010000
00002000
00000000
00013000
00000100
00000010
00000001
00000001
,
00000001
00000000
00000100
00000001
00000200
00000000
00000000
00000000
00000310
00000000
00010000
00000000
00001000
00000000
00000010
00000000
,
00001000
00020000
00000000
00230000
00000000
02300000
00000000
03010000
,
00010000
00010000
10000000
00000000
01000000
00100000
00010000
01000000
,
00001000
00010000
00022000
00000000
00000000
00000000
00000000
00000000
,
00033000
00000000
00010000
00000000
00000100
00001000
00000001
00000000
,
00000100
00002000
00000000
00010000
00000000
00010000
00000000
00013000
,
00000100
00000010
00000000
00000001
00000100
00000000
00000020
00000000
,
00001030
00000002
00000000
00000023
00000000
00000230
00000000
00010300
,
00011000
00000000
00001000
01000000
00010000
10000000
01000000
00020000
,
00000000
00001000
00000000
00001000
00000000
00031000
01000000
00100000
,
10000000
20010000
32000000
03200000
,
00301000
00000000
00010000
00010000
00000100
00000100
00001000
00001000
,
00000002
00000000
00000103
00001000
00000100
00000001
00001000
00001000
,
00001000
00000000
00000100
00000010
00000100
00010000
00001000
00001000
,
00001000
00000000
01000000
00100000
01000000
00001000
00010000
00010000
,
00010000
00000000
01000000
00010000
01000000
10000000
00010000
00010000
,
00010000
20010000
30200000
02300000
,
03020000
00230000
00302000
00023000
,
00030200
00000320
00000000
00000000
,
00001030
00000001
00000200
00000000
00000000
00000000
00000000
00000000
,
00000000
00000000
00000300
00001000
00000001
00000100
00001000
00000000
,
00011000
00000000
00011000
00010000
00100000
10000000
01000000
00100000
,
00010000
00000000
10000000
00000000
00100000
00000000
01000000
00010000
01000000
00000000
00010000
00000000
10000000
00000000
10000000
00000000
,
10000000
00000000
00010000
00100000
00001000
00010000
00100000
00010000
,
00001000
00100000
00010000
00001000
00000100
00010000
00001000
00000100
,
00000001
00000010
00000200
00000000
00001300
00000001
00000100
00000010
,
00001000
00000000
00000200
00000000
00000000
00000000
00010300
00001000
00010000
00000000
00001000
00000000
00010000
00000000
00010000
00000000
,
00010000
00000000
00000000
00000000
00001000
00000000
01000000
00000000
00010000
00000000
10000000
01000000
00000000
01000000
00100000
00000000
,
00001000
00010000
00002000
00023000
00230000
20300000
30020000
20030000
,
32000000
03010000
00011000
00001000
00000010
00000001
00000100
00000010
,
00001000
00000000
00000001
00000000
00000010
00000000
00000100
00001000
00000100
00000000
00001000
00000000
00000001
00000000
00000001
00000000
,
00000001
00000000
00001000
00000010
00010000
00001000
00000010
00001000
,
00010000
00000010
00001000
00010000
01000000
00001000
00010000
01000000
,
10000000
00100000
02000000
00000000
03010000
10000000
01000000
00100000
,
00010000
00000000
02000000
00000000
00000000
00000000
03001000
00010000
00001000
00000000
00010000
00000000
00001000
00000000
00001000
00000000
,
00001000
00000000
00000000
00000000
00010000
00000000
00000100
00000000
00001000
00000000
00000001
00000100
00000000
00000100
00000010
00000000
,
00010000
00001000
00020000
00032000
00003020
00000032
00002003
00003002
,
00000203
00002300
00020000
00000000
00000000
00000000
00000000
00000000
,
00033000
00000000
00001000
01000000
00010000
00000000
20010000
00000000
,
31000000
00010000
01000000
00000000
10000000
00100000
02000000
00000000
,
03010000
00000000
10000000
01000000
00100000
00000000
00201000
00000000
,
00000000
00010000
00010000
00301000
,
00000000
00000000
00010000
00000100
00001000
00000000
00001002
00000000
,
00000103
00001000
00000100
00000000
00000001
00000010
00000200
00000000
,
00001300
00000001
00000100
00000000
00000001
00000100
00001000
00000000
,
00010000
00000020
00001000
00000000
00001000
00000000
00010030
00000000
,
00000000
00000000
00000000
00000000
00001000
00000000
01000000
00000000
00010000
00000000
10000000
00000000
01000000
10000000
01000000
00000000
,
00100000
00010000
00100000
00000000
00001000
00000000
00010000
00000000
00100000
00000000
00010000
00000000
00001000
00010000
00001000
00000000
,
00010000
00001000
00010000
00000000
00000100
00000000
00000010
00000000
00000001
00000000
00001000
00000000
00000010
00001000
00000010
00000000
,
00000100
00000001
00000100
00000000
00000001
00000000
00001000
00000000
00000100
00000000
00000000
00000000
00020000
00000000
00000000
00000000
,
00031000
00000000
00000000
00000000
00010000
00000000
00000010
00000000
00001000
00000000
00000001
00000000
00000010
00000001
00000010
00000000
,
00000100
00001000
00000100
00000000
00010000
00000000
00001000
00000000
00000100
00000000
00001000
00000000
00010000
00001000
00010000
00000000
,
00001000
00010000
00001000
00000000
00100000
00000000
01000000
00000000
10000000
00000000
00010000
00000000
01000000
00010000
01000000
00000000
,
00100000
10000000
00100000
00000000
20000000
00000000
32000000
00000000
03200000
00000000
00320000
00000000
00032000
00000000
00003200
00000000
,
00000320
00000031
00002002
00000000
00000000
00000000
00000000
00000000
,
00000000
00003003
00000000
00000000
;

//--------------- dance-double - KAYSTAR ----------------
#NOTES:
     dance-double:
     KAYSTAR:
     Challenge:
     17:
     0,0,0,0,0:
00000000
00000000
00000000
00000000
,
00000000
00000000
00000000
00000000
,
00000000
00000000
00000000
00000000
,
00000000
00000000
00000000
00000000
,
00000000
00000000
00000000
00000000
,
00001000
01000000
00010000
20000000
00000000
31000000
00100000
00020000
,
00000000
10030000
00100000
00020000
00000000
00031000
00000010
00000001
,
00001000
00000010
00001000
00000010
00000100
00000001
00000100
00000001
00001000
00000100
00001000
00000100
00000010
00000001
00000010
00000001
,
00001000
00000010
00010000
00001000
00010000
00001000
01000000
00010000
10000000
01000000
00100000
00010000
00100000
01000000
20000000
00000000
,
30000000
00000000
00000000
00000000
00010000
00000000
10000000
00100000
10000000
00000000
00100000
01000000
00100000
00000000
01000000
00010000
,
01000000
00000000
00010000
00000000
10020000
00000000
00000000
00000000
00130000
01000000
00010000
01000000
00100000
00000000
00001000
00000000
,
00001000
00000000
00010000
00001000
00000100
00000000
00000010
00000000
00001000
00000000
00001002
00000000
00000000
00000000
00002003
00000000
,
00003200
00000000
00000320
00000000
00000031
00001000
00000000
00000010
00000100
00001000
00000100
00000010
00010000
00000000
00010000
00000000
,
00010000
00000000
00001000
00010000
01000000
00000000
00100000
00000000
00010000
00000000
20010000
00000000
00000000
00000000
30020000
00000000
,
02030000
00000000
03200000
00000000
10300000
00000000
01000000
10000000
01000000
00000000
00100000
01000000
00100000
00000000
00010000
00100000
,
00010000
00000000
20010000
00000000
00000000
00000000
30100000
01000000
00010000
01000000
00100000
00000000
20000000
00000000
32000000
00000000
,
03020000
00000000
00031000
00000000
00022000
00000000
00000000
00000000
00033000
00000000
00010000
00001000
00010000
00000000
00001000
00000000
,
00010000
00000100
00001000
00000000
00000001
00000000
00000100
00000000
00000010
00000000
00001000
00000000
00000100
00000000
00000010
00000000
,
00000001
00000100
00000001
00000010
00000100
00001000
00000010
00000100
,
00000001
00000001
00001000
00000100
00010000
00001000
00000100
00001000
,
00010000
01000000
00010000
00001000
01000000
00010000
20000000
00000000
,
30010000
00000000
10000000
01000000
00100000
00010000
01000000
00100000
,
10000000
01000000
00100000
10000000
00010000
01000000
00100000
00010000
,
10000000
20010000
30200000
00320000
,
00031000
00000000
00000000
00000000
00001000
00000000
00001000
00000000
00000010
00000000
00000010
00000000
00000001
00001000
00000001
00001000
,
00000010
00000000
00000100
00000000
00000001
00000010
00000000
00000010
00000100
00000000
00010000
00001000
00010000
00000000
00001000
00000000
,
00000100
00000000
00000100
00000000
00000010
00010000
00000000
00010000
00001000
00000000
00010000
00001000
00010000
00000000
01000000
00000000
,
00100000
00000000
00010000
00000000
10000000
00100000
00000000
00100000
01000000
00000000
00001000
00010000
00001000
00000000
00010000
00000000
,
01000000
00000000
01000000
00000000
00100000
00001000
00000000
00001000
00010000
00000000
00001000
00010000
00001000
00000000
00000100
00000000
,
00000010
00001000
00001002
00000000
00000023
00000000
00002030
00000000
,
00013000
00020000
00230000
20300000
,
30010000
00000000
10000000
01000000
00010000
01000000
10000000
00100000
,
00010000
00000000
00200000
00000000
00000000
00000000
10300000
01000000
10000000
01000000
00100000
00010000
00100000
00010000
00100000
00001000
,
00010000
00001000
00010000
00001000
00000000
00000000
00011000
00000000
00011000
00000000
00010000
00001000
00010000
00000000
00012000
00000000
,
00000000
00000000
00003010
00000000
00001001
00000000
00001000
00000010
00000200
00000000
00000301
00000000
00001000
00000000
00000100
00000010
,
00000001
00000000
00001000
00000000
00000010
00000000
00010000
00001000
01000000
00000000
00010000
00000000
01010000
00000000
10000000
00000000
,
10010000
00000000
00000000
00000000
00010000
00100000
00001000
00100000
00010000
00100000
00001000
01000000
00010000
01000000
00001000
01000000
,
00010000
10000000
01000000
00100000
00010000
00100000
00001000
00010000
00001000
00010000
00000010
00000100
00001000
00000100
00000010
00000100
,
00001000
00000100
00000010
00001000
00000001
00000000
00000010
00000100
00001000
00000000
00000001
00000000
00000100
00000000
00001000
00010000
,
00001000
00000000
00000010
00000000
00001000
00000000
00010000
00001000
00010000
00000000
00100000
00000000
01100000
00000000
01100000
00000000
,
01100000
00000000
00000000
00000000
10000000
01000000
00100000
00000000
00001000
00000000
00010000
00001000
00000000
00001000
00000010
00000000
,
00000001
00000000
00000001
00000000
00001000
00000010
00000100
00001000
00010000
00001000
00010000
00100000
01000000
00010000
10000000
01000000
,
00100000
00010000
00100000
01000000
10000000
00000000
00010000
01000000
00200000
00000000
10300000
00000000
00010000
00000000
00100000
01000000
,
10000000
00000000
00010000
00000000
01000000
00000000
00001000
00010000
00000010
00000000
00001000
00000000
00001010
00000000
00000001
00000000
,
00001001
00000000
00000000
00000000
00001000
00000100
00010000
00000100
00001000
00000100
00010000
00000010
00001000
00000010
00010000
00000010
,
00001000
00000001
00000010
00000100
00001000
00000100
00010000
00001000
00010000
00001000
01000000
00100000
00010000
00100000
01000000
00100000
,
00010000
00100000
01000000
00010000
10000000
00000000
01000000
00100000
10000000
00000000
00100000
00000000
00010000
00000000
10000000
00100000
,
00010000
00000000
00001000
00000000
00010000
00000000
00001000
00000010
00000001
00000000
00001000
00000000
00001001
00000000
00000110
00000000
,
00001001
00000000
00000000
00000000
00000001
00000100
00000010
00000000
00010000
00000000
00001000
00010000
00000000
00010000
00100000
00000000
,
10000000
00000000
10000000
00000000
00010000
00100000
01000000
00010000
00001000
00010000
00001000
00000010
00000100
00001000
00000001
00000100
,
00000010
00000100
00001000
00010000
00001000
00010000
00000000
00001000
00010000
00000000
00001000
00010000
00000000
00001000
00010000
00000000
,
00001000
00000000
00001000
00000000
00010000
00100000
00010000
00100000
00000000
10000000
00010000
00000000
20010000
00000000
00000000
00000000
,
31000000
00000000
00100000
00010000
00200000
00000000
00000000
00000000
00310000
00000000
10000000
00100000
20000000
00000000
00000000
00000000
,
30010000
00000000
00000000
00000000
10000000
01000000
00100000
00010000
00100000
00000000
00001000
00000000
00021000
00000000
00000000
00000000
,
00000000
00100000
00130000
00022000
,
00033000
00000000
00000000
00000000
00001000
00000010
00001000
00000010
00000000
00000001
00001000
00000000
00001001
00000000
00000001
00000100
,
00000001
00000000
00001000
00000100
00002000
00000000
00000000
00000000
00003001
00000000
00000100
00000000
00000210
00000000
00000000
00000000
,
00001300
00000000
00010000
00001000
00020000
00000000
00000000
00000000
00031000
00000000
00000010
00001000
00000020
00000000
00000000
00000000
,
00001030
00000000
00010000
00001000
00020000
00000000
00000000
00000000
00031000
00000000
00000000
00000000
00022000
00000000
00000000
00000000
,
00033000
00000000
00000000
00000000
00001000
00000000
01000000
00000000
00100000
00000000
10000000
00000000
00010000
00100000
01000000
10000000
,
00010000
00100000
01000000
10000000
00010000
00000000
01000000
00000000
00100000
00000000
10000000
00000000
00010000
00100000
00010000
00100000
,
00001000
00010000
00001000
00010000
00000100
00000000
00001000
00000000
00000010
00000000
00000100
00000000
00000001
00000010
00000100
00001000
,
00000001
00000010
00000100
00001000
00000001
00000000
00000100
00000000
00001000
00000000
00010000
00000000
00022000
00000000
00000000
00000000
,
00033000
00000000
00000000
00000000
00001000
00000000
00100000
00000000
01000000
00000000
10000000
00000000
00010000
01000000
00100000
01000000
,
10000000
01000000
00100000
01000000
00010000
00000000
00100000
00000000
01000000
00000000
10000000
00000000
00010000
01000000
00010000
01000000
,
00001000
00010000
00001000
00010000
00000010
00000000
00001000
00000000
00000100
00000000
00000010
00000000
00000001
00000100
00000010
00000100
,
00001000
00000100
00000010
00000100
00000001
00001000
00000100
00000010
00001000
00010000
00001000
00010000
01000000
00100000
00010000
10000000
,
00100000
01000000
00010000
10000000
00020000
00000000
00000000
00000000
00000000
00000000
00000000
00000000
00000000
00000000
00000000
00000000
,
00000000
00030000
00000000
00000000
;
