#VERSION:0.83;
#TITLE:Defining Future;
#SUBTITLE:;
#ARTIST:!すでのな;
#TITLETRANSLIT:Defining Future;
#SUBTITLETRANSLIT:;
#ARTISTTRANSLIT:!sudenona;
#GENRE:;
#ORIGIN:;
#CREDIT:;
#BANNER:banner.png;
#BACKGROUND:bg.png;
#PREVIEWVID:;
#JACKET:jacket.png;
#CDIMAGE:;
#DISCIMAGE:;
#LYRICSPATH:;
#CDTITLE:;
#MUSIC:Defining Future.ogg;
#OFFSET:-0.721000;
#SAMPLESTART:1.321000;
#SAMPLELENGTH:12.000000;
#SELECTABLE:YES;
#DISPLAYBPM:50.000000:200.000000;
#BPMS:0.000=200.000,
108.000=100.000,
124.000=200.000,
125.000=800.000,
145.000=200.000,
147.000=800.000,
171.000=200.000,
213.000=50.000,
214.000=200.000,
218.000=100.000,
234.000=200.000;
#STOPS:;
#DELAYS:;
#WARPS:;
#TIMESIGNATURES:0.000=4=4;
#TICKCOUNTS:0.000=4;
#COMBOS:0.000=1;
#SPEEDS:0.000=1.000=0.000=0;
#SCROLLS:0.000=1.000;
#FAKES:;
#LABELS:0.000=Song Start;
#BGCHANGES:;
#KEYSOUNDS:;
#ATTACKS:
;

//---------------dance-single - ----------------
#NOTEDATA:;
#CHARTNAME:;
#STEPSTYPE:dance-single;
#DESCRIPTION:;
#CHARTSTYLE:;
#DIFFICULTY:Hard;
#METER:16;
#RADARVALUES:0.828106,1.287374,0.346738,0.497880,0.609013,652.000000,613.000000,39.000000,56.000000,0.000000,0.000000,0.000000,0.000000,0.000000,0.828106,1.287374,0.346738,0.497880,0.609013,652.000000,613.000000,39.000000,56.000000,0.000000,0.000000,0.000000,0.000000,0.000000;
#CREDIT:;
#DISPLAYBPM:50.000000:200.000000;
#NOTES:
// measure 0
0000
0000
0000
0000
,  // measure 1
0000
0000
0000
0000
,  // measure 2
0000
0000
0000
0000
,  // measure 3
0000
0000
0000
0000
,  // measure 4
0000
0000
0000
0000
0000
0000
0000
0000
2000
0000
3000
0200
0000
0300
0010
0000
,  // measure 5
0012
0000
0100
1003
,  // measure 6
1100
0000
0000
0001
1000
0100
0000
1000
,  // measure 7
0001
0000
0200
0000
0000
0300
0001
0000
1000
0100
0000
1000
0000
0001
0100
0010
,  // measure 8
0000
0000
0020
0000
0100
1000
0130
0000
,  // measure 9
0010
1000
0010
1000
0100
0001
0100
0001
,  // measure 10
0100
0000
1000
0010
1000
0000
0001
0010
0001
0000
1000
0010
1000
0000
0100
0000
,  // measure 11
0010
0001
0010
0001
0100
1000
0100
1000
,  // measure 12
0001
0010
0001
0010
0100
0001
0010
0000
,  // measure 13
0001
0001
0010
0100
1000
1000
0010
0100
,  // measure 14
0001
0001
0100
0010
1000
1000
0100
0010
,  // measure 15
0001
1000
0010
0000
1000
0001
0010
0000
0001
1000
0100
0000
1000
0001
0100
0001
,  // measure 16
2000
0000
0001
0000
0001
0100
3001
0000
,  // measure 17
1001
0000
0002
0103
0020
0130
0002
0103
,  // measure 18
0010
1000
0010
1000
0200
0000
1300
0000
0002
0000
1003
0010
1000
0100
0010
0001
,  // measure 19
1000
0100
1000
0000
0010
0100
0010
0000
0200
0000
0301
0000
0010
0100
0010
0100
,  // measure 20
0000
0000
1000
0100
0000
0000
1000
0010
0200
0000
0000
0000
0301
0000
0000
0000
,  // measure 21
1001
0000
2000
3001
0020
0031
2000
3010
,  // measure 22
0100
0001
0100
0001
0020
0000
0130
0000
2000
0000
3100
0010
0100
0010
0001
1000
,  // measure 23
0010
0100
0010
0001
0010
0100
0010
1000
,  // measure 24
1010
0000
0000
1001
0000
0000
0011
0000
1001
0000
0000
0000
0100
0000
0000
0000
,  // measure 25
1001
0000
0000
0001
0010
0100
2000
0000
0010
0000
0001
0000
,  // measure 26
3002
0000
0010
0000
1000
0000
1003
0000
0000
0000
0000
0000
,  // measure 27
1100
0000
0000
0000
0101
0000
0000
0000
1000
0000
0000
0000
0001
0100
0001
0000
0100
0000
0000
0000
0010
0000
0000
0000
1010
0000
0000
0000
1100
0000
0000
0000
,  // measure 28
0011
0000
0000
0000
1010
0000
0000
0000
0001
0000
1000
0001
0100
0000
0100
0000
0001
0000
0100
0001
0010
0000
0010
0000
1000
0000
0010
0000
0001
0000
0000
0000
,  // measure 29
0001
0011
0100
0110
1000
1010
0100
0110
,  // measure 30
0011
0000
0000
0101
0000
0000
1100
0000
0001
0000
1000
0000
0100
1000
0010
0000
,  // measure 31
1000
0022
0000
0000
,  // measure 32
0000
0000
0000
0000
,  // measure 33
0000
0000
0000
0000
,  // measure 34
0000
0000
0000
0000
,  // measure 35
0000
0000
0000
0000
,  // measure 36
0000
0033
0000
2020
,  // measure 37
0000
0000
0000
0000
,  // measure 38
0000
0000
0000
0000
,  // measure 39
0000
0000
0000
0000
,  // measure 40
0000
0000
0000
0000
,  // measure 41
0000
0000
0000
0000
,  // measure 42
0000
0000
0000
3030
,  // measure 43
0000
0000
0000
0000
0001
0100
0001
0000
0100
0001
0100
0000
0001
0100
0001
0000
,  // measure 44
1000
0000
0001
0000
1000
0100
1000
0000
0100
1000
0100
0000
1000
0100
1000
0000
,  // measure 45
0001
0000
1000
0000
0001
0010
0001
0000
0010
0000
0100
0000
1000
0010
1000
0000
,  // measure 46
0010
0100
0011
0000
0110
0000
1100
0000
,  // measure 47
0002
0000
1003
0000
0001
0001
1000
1000
,  // measure 48
0001
0000
1000
0001
1000
0000
1000
0000
0001
0000
0001
0000
1000
0001
1000
0000
,  // measure 49
0001
1000
0001
1000
0001
0000
0001
0000
1000
0000
0002
0003
1000
0000
0001
1000
,  // measure 50
0001
0000
0001
0000
1001
0000
0000
0000
0001
0100
0010
0000
1000
0100
0010
0000
,  // measure 51
0001
0000
0000
0000
0020
0000
0130
1000
0000
0100
1000
0000
0020
0000
0130
0001
,  // measure 52
0000
0100
0001
0000
0020
0000
0130
1000
0000
0100
1000
0000
0020
0000
0130
0001
,  // measure 53
0000
0100
0001
0000
2000
0000
0000
0000
3001
0000
0001
0010
0000
0100
1000
0100
,  // measure 54
0000
1000
0010
1000
0020
0000
0000
0000
0230
0000
0001
0000
0001
0000
0001
0000
,  // measure 55
0010
0010
1000
0310
0020
1000
1000
1000
,  // measure 56
0100
0100
0001
0130
1000
1000
1000
0101
,  // measure 57
1001
0000
0001
0000
1000
0100
1000
0100
0001
0100
1000
0000
0001
0000
0001
1000
,  // measure 58
0010
0000
0100
0000
0001
0000
0000
0000
0002
0000
0003
0020
0000
0030
0100
0000
2100
0000
0000
0000
0000
0000
0000
0000
0000
0000
0000
0000
0000
0000
0000
0000
,  // measure 59
0010
0000
3001
0000
0011
0000
0000
1000
,  // measure 60
0001
0010
0000
0001
1000
0020
0000
0000
,  // measure 61
0030
0000
0010
0000
0010
0100
0010
0100
0010
0000
0100
0000
0100
0000
0000
0000
,  // measure 62
0002
0000
0003
0200
0000
0300
0010
0000
2010
0000
0000
0000
0000
0000
0000
0000
,  // measure 63
0100
0000
3001
0000
0101
0000
0000
0001
,  // measure 64
1000
0000
0100
0000
0000
0000
1000
0000
0001
0000
0200
0000
0000
0300
0010
0000
,  // measure 65
0100
0010
0000
1000
0000
0100
1000
0001
0000
0000
0000
0000
0020
0000
0000
0000
,  // measure 66
0001
0100
0031
0000
1000
0001
1000
0001
,  // measure 67
0010
0000
1000
0000
0010
0000
1000
0000
0001
0000
0100
1000
0100
0000
1000
0001
,  // measure 68
1000
0000
0001
0100
0001
0000
0100
0000
0001
0000
1000
0000
0001
0000
1000
0000
,  // measure 69
0010
0001
0010
0001
1000
0001
1000
0001
,  // measure 70
1000
0100
0001
0000
1000
1000
0010
0100
,  // measure 71
0001
0001
0010
0100
1000
1000
0100
0010
,  // measure 72
0001
0000
0001
0000
0100
0000
0010
0000
1000
0100
0010
0000
0001
0100
0010
0000
,  // measure 73
1000
0001
0010
0000
0001
0010
0100
1000
0020
0000
0000
0000
1000
0000
0000
0000
,  // measure 74
0100
1000
0130
0000
1200
0000
0301
0100
,  // measure 75
0000
1000
0010
0000
0100
0000
0001
0000
0010
0000
0000
0010
0100
0000
0000
0100
,  // measure 76
1000
0000
0100
0000
1000
0000
0010
0000
0100
0000
0000
0100
0001
0000
0000
0001
,  // measure 77
1000
0000
0010
0000
0100
0000
0001
0000
1000
0000
1000
0100
0000
0100
0010
0100
,  // measure 78
1000
0001
0010
0001
0201
0000
1300
0100
,  // measure 79
0000
0001
0010
0000
0100
0000
1000
0000
0001
0000
0000
0001
0010
0000
0000
0010
,  // measure 80
0100
0000
1000
0000
0001
0000
0100
0000
0020
0000
0030
2000
0000
3000
0002
0000
,  // measure 81
0003
0020
0000
0030
0200
0000
0302
0000
0203
0000
0300
2000
0000
3000
0010
0100
,  // measure 82
0010
0000
1000
0000
0100
0000
0010
0000
0001
0000
0000
0001
0100
0000
1000
0100
,  // measure 83
0010
0000
1000
0000
0010
0000
0100
0000
0001
0000
0000
0001
0010
0000
1000
0010
,  // measure 84
0100
0000
1000
0000
0100
0000
0010
0000
0012
0000
0000
1000
0000
0000
0103
0000
,  // measure 85
2010
0000
0000
0000
0000
0000
0000
0000
0000
0001
0000
0000
0000
0000
0000
0000
0000
0000
3100
0000
0000
0000
0000
0000
0001
0000
0000
0000
0010
0000
0000
0000
0100
0000
0000
0000
1000
0000
0000
0000
0010
0000
0000
0000
0100
0000
0000
0000
,  // measure 86
0001
0000
0100
0000
1000
0000
0100
0000
0010
0000
0010
0000
1000
0000
0100
1000
,  // measure 87
0010
0000
0010
0000
0100
0000
0100
0001
0010
0000
0010
0000
0001
0000
0100
0001
,  // measure 88
0010
0000
0010
0000
0100
0000
0100
1000
0001
0010
0001
0010
0001
0000
1000
0010
,  // measure 89
1000
0010
1000
0010
1000
0000
0001
1000
0010
0000
0100
0001
1000
0100
0010
0001
,  // measure 90
1000
0001
0100
0010
1000
0000
0010
0000
0110
0000
0000
0000
0000
0000
0000
0000
;

//---------------dance-single - ----------------
#NOTEDATA:;
#CHARTNAME:;
#STEPSTYPE:dance-single;
#DESCRIPTION:;
#CHARTSTYLE:;
#DIFFICULTY:Medium;
#METER:13;
#RADARVALUES:0.599488,0.724148,0.346738,0.186705,0.133361,472.000000,433.000000,39.000000,21.000000,0.000000,0.000000,0.000000,0.000000,0.000000,0.599488,0.724148,0.346738,0.186705,0.133361,472.000000,433.000000,39.000000,21.000000,0.000000,0.000000,0.000000,0.000000,0.000000;
#CREDIT:;
#DISPLAYBPM:50.000000:200.000000;
#NOTES:
0000
0000
0000
0000
,
0000
0000
0000
0000
,
0000
0000
0000
0000
,
0000
0000
0000
0000
,
0000
0000
0000
0000
0000
0000
0000
0000
1000
0000
0000
0100
0000
0000
1000
0000
,
0020
0000
0130
0000
,
0102
0000
0003
1001
0000
0000
0010
0000
,
2100
0000
3000
1001
0000
0000
0110
0000
,
1000
0000
0100
0000
0010
0001
0100
0000
,
0001
1000
0001
1000
0010
0100
0001
0000
,
1000
0001
1000
0001
0010
0100
1000
0000
,
0010
0100
0010
0100
0001
0010
0100
0000
,
0010
0100
0010
0100
1000
0010
0100
0000
,
0001
0010
0001
0010
0100
1000
0100
1000
,
0001
0100
0001
0100
0010
1000
0010
1000
,
0001
0100
0010
1000
0100
0010
0001
1000
,
0020
0000
0000
0030
,
1001
1100
0101
1001
,
0001
1000
0010
0000
1010
0000
1000
0000
,
0001
0100
0001
1000
0100
0000
0100
0000
,
1000
0010
1000
0001
0010
0000
0010
0000
,
0001
0011
0110
0011
,
1000
0010
0100
0000
0110
0000
1010
0000
,
0010
0000
1000
0010
0100
0010
1000
0100
,
0010
0000
0000
0001
0000
0000
0010
0000
0001
0000
0000
0000
1000
0000
0000
0000
,
0100
0000
0000
0110
0000
0000
1000
0000
0010
0000
1000
0000
,
0001
0000
0010
0000
0001
0000
1000
0000
0000
0000
0000
0000
,
0002
0013
2000
3010
0002
0013
0001
1000
,
2000
3010
0002
0013
2000
3100
0010
0010
,
0001
0101
0000
1100
0000
1010
0000
0011
,
1000
0000
0000
1000
0000
0000
1000
0000
0001
0000
0100
0000
0001
0000
0000
0000
,
1000
2020
0000
0000
,
0000
0000
0000
0000
,
0000
0000
0000
0000
,
0000
0000
0000
0000
,
0000
0000
0000
0000
,
0000
3030
0000
0022
,
0000
0000
0000
0000
,
0000
0000
0000
0000
,
0000
0000
0000
0000
,
0000
0000
0000
0000
,
0000
0000
0000
0000
,
0000
0000
0000
0033
,
0000
0000
1000
0001
1000
0001
1000
0001
,
0000
0000
0010
0100
0010
0100
0010
0100
,
0000
0000
1000
0010
1000
0010
0100
0001
,
0100
0001
0010
0000
0010
0000
0010
0000
,
0110
0000
1001
0000
0001
0100
1000
0100
,
0001
0100
0001
0100
1000
0100
0001
0100
,
1000
0100
0001
0001
0100
0100
1000
1000
,
0100
0100
0001
0000
1000
0000
0010
1000
,
0100
1000
1010
0001
,
0011
1000
1100
0001
,
0101
0000
0000
0000
2000
0000
0000
0000
3001
0000
0000
0010
0000
0000
0001
0000
,
0000
1000
0000
0000
0100
0000
0000
0000
1000
0000
0000
0000
0000
0000
0001
0000
,
0100
0000
0000
0000
0001
0010
0000
0100
0000
1000
0000
0000
0000
0000
0000
0100
,
0000
0001
0000
0000
0000
0100
1000
0000
0010
0000
0100
0000
0001
0000
0010
0000
,
0010
0100
1000
0010
0100
0001
0010
0100
,
0100
0000
0000
0000
1000
0000
0000
0000
0010
0000
0000
0100
0000
0000
0010
0000
2000
0000
0000
0000
0000
0000
0000
0000
0000
0000
0000
0000
0000
0000
0000
0000
,
3010
0000
0000
0000
0012
0000
0003
1001
,
0000
0000
0100
0000
2010
0000
3000
1001
,
0000
0000
0110
0000
0000
0000
0000
1000
,
0001
0000
0000
0100
0000
0000
0010
0000
0200
0000
0000
0000
0000
0000
0000
0000
,
0301
0000
1000
0000
2100
0000
3000
1001
,
0000
0000
0010
0000
0102
0000
0003
1001
,
0000
0110
1000
0001
,
0010
0001
0100
0000
0010
1000
0010
1000
,
0100
1000
0100
0000
0010
0001
0010
0001
,
0100
0001
0100
0000
0001
1000
0100
1000
,
0010
1000
0001
0000
1000
0001
0100
0001
,
0010
0001
1000
0000
0010
1000
0010
1000
,
0001
0010
0001
0010
0100
1000
0100
1000
,
0001
0100
0001
0100
0001
0010
0100
1000
,
0010
0100
0001
0010
0100
0000
0000
0000
,
0000
0000
0000
0000
1000
0000
0010
0100
,
0000
0000
0001
0000
0010
0000
1000
0000
0010
0000
0000
0000
0001
0000
0000
1000
,
0100
1000
0001
0010
0001
0000
0100
0000
,
0010
0000
1000
0000
0010
0000
0100
0000
0010
0000
0000
0010
0000
0000
0010
0000
,
1000
0100
0010
0001
1000
0000
0001
0010
,
0000
0000
1000
0000
0010
0000
0001
0000
0010
0000
0000
0000
0100
0000
0000
0100
,
1000
0000
0010
0000
0100
0000
0001
0000
0010
0000
0000
0001
0000
0000
0010
0000
,
0000
0100
0000
0000
0010
0000
0001
0000
0100
0000
0000
1000
0000
0000
0100
0000
,
0010
0000
1000
0000
0100
0000
0010
0000
0001
0000
0000
0100
0000
0000
0001
0000
,
0010
0000
0100
0000
0001
0000
0100
0000
1000
0000
0000
0100
0000
0000
1000
0000
,
0010
0000
0100
0000
1000
0000
0100
0000
0001
0000
0000
0100
0000
0000
0001
0000
,
1000
0000
0000
0000
0000
0000
0000
0000
0000
0100
0000
0000
0000
0000
0000
0000
0000
0000
1000
0000
0000
0000
0000
0000
0001
0000
0000
0000
0000
0000
0000
0000
0100
0000
0000
0000
0001
0000
0000
0000
0000
0000
0000
0000
1000
0000
0000
0000
,
0100
1000
0010
0100
0001
0010
0001
0010
,
0100
1000
0010
0000
1000
0010
1000
0010
,
0100
0001
0010
0000
0001
0100
1000
0100
,
0001
0010
0100
1000
0010
0001
0010
1000
,
0100
0010
0001
0000
0110
0000
0000
0000
;

//---------------dance-double - ----------------
#NOTEDATA:;
#CHARTNAME:;
#STEPSTYPE:dance-double;
#DESCRIPTION:;
#CHARTSTYLE:;
#DIFFICULTY:Hard;
#METER:16;
#RADARVALUES:0.782382,1.086222,0.382300,0.426754,0.506770,616.000000,573.000000,43.000000,48.000000,0.000000,0.000000,0.000000,0.000000,0.000000,0.782382,1.086222,0.382300,0.426754,0.506770,616.000000,573.000000,43.000000,48.000000,0.000000,0.000000,0.000000,0.000000,0.000000;
#CREDIT:;
#DISPLAYBPM:50.000000:200.000000;
#NOTES:
00000000
00000000
00000000
00000000
,
00000000
00000000
00000000
00000000
,
00000000
00000000
00000000
00000000
,
00000000
00000000
00000000
00000000
,
00000000
00000000
00000000
00000000
00000000
00000000
00000000
00000000
00002000
00000000
00003000
00020000
00000000
00030000
00100000
00000000
,
20100000
00000000
00010000
31000000
,
10000000
00000000
00000000
01000000
00010000
00001000
00000000
00000010
,
00000000
00000000
00000011
00000000
00000000
00000000
00000001
00000000
00001000
00000100
00000000
00001000
00000000
00000010
00000100
00000001
,
00000020
00000000
00000000
00000030
,
00000001
00000100
00000001
00000100
00001000
00010000
00001000
00010000
,
00100000
10000000
00100000
10000000
01000000
00010000
01000000
00010000
,
00001000
00010000
00001000
00010000
00001000
00000010
00001000
00000010
,
00000001
00000100
00000010
00001000
00000100
00020000
00002000
00033000
,
00010000
00000000
00001000
00000000
00100000
00000000
00010000
01000000
00010000
00000000
10000000
00000000
00100000
00000000
01000000
00001000
,
01000000
00000000
00001000
00000000
00100000
00000000
00001000
00010000
00001000
00000000
00010000
00000000
00000010
00000000
00001000
00000100
,
00001000
00000010
00001000
00000000
00000001
00000100
00000001
00000000
00001000
00000100
00000010
00000000
00000001
00000100
00000010
00000000
,
00000000
00000000
00000000
00000000
,
00011000
00000000
00002000
01003000
20000000
31000000
00020000
00030000
,
00100000
00010000
00100000
00010000
20000000
00000000
31000000
00000000
00020000
00000000
01030000
00100000
01000000
00100000
01000000
00000000
,
10000000
00100000
01000000
00000000
00010000
01000000
00100000
00000000
01000000
00001000
00010000
00000000
00001000
00010000
00000100
00000000
,
00001000
00000010
00000001
00000010
00002000
00003000
00001000
00000000
,
00011000
00000000
00020000
00030100
00000002
00000103
00002000
00003000
,
00000001
00000100
00000001
00000100
00000020
00000000
00001030
00000000
00000200
00000000
00010300
00000000
00001000
00010000
00001000
00000000
,
00100000
00010000
01000000
10000000
01000000
00010000
00100000
01000000
,
00010000
00000000
00000000
00001000
00000000
00000000
00010000
00000000
00011000
00000000
00000000
00000000
00001100
00000000
00000000
00000000
,
00000110
00000000
00000000
00000001
00000010
00000100
00001000
00000000
00010000
00000000
00100000
00000000
,
01000000
00000000
10000000
00000000
00010000
00000000
01100000
00000000
00000000
00000000
00000000
00000000
,
10000000
00000000
01000000
00000000
11000000
00000000
10010000
00000000
00010000
01000000
00001000
00000000
00010000
00000000
00011000
00000000
,
00000100
00000000
00001000
00000000
00001010
00000000
00000101
00000100
00000001
00000010
00000100
00001000
00000010
00000000
00001000
00000000
,
00000100
00010100
00010000
00011000
00001000
00101000
00100000
00110000
,
10010000
00000000
00000000
00011000
00000000
00000000
00001001
00000000
00000001
00000000
00000100
00000000
00000010
00000100
00000001
00000010
,
00000100
00020200
00000000
00000000
,
00000000
00000000
00000000
00000000
,
00000000
00000000
00000000
00000000
,
00000000
00000000
00000000
00000000
,
00000000
00000000
00000000
00000000
,
00000000
00030300
00000000
02002000
,
00000000
00000000
00000000
00000000
,
00000000
00000000
00000000
00000000
,
00000000
00000000
00000000
00000000
,
00000000
00000000
00000000
00000000
,
00000000
00000000
00000000
00000000
,
00000000
00000000
00000000
03003000
,
00000000
00000000
00001000
00010000
00100000
00010000
00001000
00000010
,
00001000
00000000
00010000
01000000
00010000
00001000
00000100
00001000
,
00010000
00000000
00000000
00000000
00001000
00100000
00001000
00000000
01000000
00010000
01000000
00000000
00100000
10000000
00100000
00000000
,
10000000
00010000
10000000
00000000
01000000
00000000
00000000
00000000
00100000
00000000
00000000
00000000
00001000
00000000
00000000
00000000
,
00010000
00000000
00011000
00000000
00010000
00010000
00001000
00001000
,
00010000
00000000
00001000
00010000
00001000
00000000
00001000
00000000
00010000
00000000
00010000
00000000
00001000
00010000
00001000
00000000
,
00010000
00001000
00010000
00001000
00010000
00000000
00010000
00000000
00001000
00000000
00020000
00030000
00001000
00010000
00001000
00000000
,
00010000
00000000
00010000
00000000
00011000
00000000
00000000
00000000
00010000
00000100
00010000
00000000
00000100
00001000
00000100
00000000
,
00001000
00000000
00000000
00000000
00000001
00000000
00000001
00000100
00000000
00000100
00001000
00000000
00010000
00000000
00010000
01000000
,
00000000
01000000
10000000
00000000
00010000
00000000
10000000
00100000
00000000
00100000
00010000
00000000
00001000
00000000
00001000
00000010
,
00000000
00000010
00000001
00000000
00002000
00000000
00000000
00000000
00003010
00000000
00001000
00000100
00000000
00010000
00001000
00010000
,
00000000
00001000
01000000
00001000
01000000
00000000
00000000
00000000
02100000
00000000
00100000
00000000
00010000
00000000
00010000
00000000
,
00100000
00100000
00010000
03010000
01020000
01000000
00100000
00100000
,
00001000
00001000
00100000
00130000
00012000
00010000
00000100
00000100
,
00010000
00010000
00000010
00003010
00000120
00000100
00001000
00001000
,
00000100
00000000
00000000
00000000
00000100
00000000
00000000
00000000
00000032
00000000
00000003
00000020
00000000
00000030
00001000
00000000
00012000
00000000
00000000
00000000
00000000
00000000
00000000
00000000
00000000
00000000
00000000
00000000
00000000
00000000
00000000
00000000
,
00100000
00000000
01003000
00000000
10100000
00000000
00000000
10000000
,
01000000
00010000
00000000
00001000
00000010
00000200
00000000
00001300
,
00000000
00000000
00001000
00000000
00000010
00000100
00000010
00000100
00000001
00000000
00000100
00000000
00000001
00000000
00000000
00000000
,
00002000
00000000
00003000
00000200
00000000
00000300
00010000
00000000
00021000
00000000
00000000
00000000
00000000
00000000
00000000
00000000
,
00000100
00000000
00030010
00000000
00000011
00000000
00000000
00000001
,
00000100
00001000
00000000
00010000
00100000
02000000
00000000
03010000
,
10000000
01000000
00000000
10000000
00000000
00010000
00100000
01000000
20000000
00000000
00000000
00000000
00000000
00000000
00000000
00000000
,
00000000
00000000
30000000
00000000
10000000
00100000
01000000
00100000
,
00010000
00100000
01000000
00010000
00100000
01000000
00010000
00001000
,
00000100
00000010
00001000
00000001
00000001
00000010
00000100
00000010
,
00001000
00000010
00000100
00001000
00000010
00000100
00001000
00010000
,
00000100
00000000
00001000
00000000
02000000
00000000
00000000
00000000
13000000
00000000
00010000
00000000
00100000
00000000
00010000
01000000
,
00010000
00000000
00100000
00000000
00001000
00000000
00010000
00001000
00010000
00000000
00000010
00000000
00001000
00000000
00000100
00001000
,
00000100
00000000
00001000
00000000
00000010
00000000
00000100
00000001
00001000
00000100
00000010
00000000
00000001
00000100
00000010
00000000
,
00001000
00000100
00010000
00000000
00001000
00010000
00000100
00000000
00020000
00000000
00000000
00000000
00000000
00000000
00000000
00000000
,
00000000
00000000
00030000
00000000
00011000
00000000
00001000
01000000
,
00100000
00000000
01000000
00000000
00010000
00000000
10000000
00000000
11000000
00000000
00000000
10000000
01000000
00000000
00000000
01000000
,
00010000
00000000
00001000
00000000
00000010
00000000
00000001
00000000
00001000
00000000
00000000
00001000
00000010
00000000
00000000
00000010
,
00010000
00000000
00001000
00000000
01000000
00000000
00100000
00000000
10000000
00000000
10000000
01000000
00000000
10000000
00100000
01000000
,
00010000
00100000
00001000
00010000
00011000
00000000
00010000
00000010
,
00001000
00000000
00000010
00000000
00000100
00000000
00000001
00000000
00000011
00000000
00000000
00000010
00000001
00000000
00000000
00000001
,
00000100
00000000
00001000
00000000
00010000
00000000
00100000
00000000
20000000
00000000
30000000
00020000
00000000
00030000
02000000
00000000
,
03000000
00002000
00000000
00003000
00020000
00000000
00030020
00000000
00002030
00000000
00003000
00020000
00000000
00030000
01000000
00100000
,
01000000
00000000
00010000
00000000
00100000
00000000
00010000
00000000
00210000
00000000
00000000
00301000
00000000
00000000
00010000
00000010
,
00001000
00000000
00000100
00000000
00010000
00000000
00001000
00000000
00010020
00000000
00000000
00001030
00000000
00000000
00000100
00010000
,
00001000
00000000
00100000
00000000
00001000
00000000
01000000
00000000
11000000
00000000
00000000
01010000
00000000
00000000
01000000
00000000
,
00011000
00000000
00000000
00000000
00000000
00000000
00000000
00000000
00000000
00010100
00000000
00000000
00000000
00000000
00000000
00000000
00000000
00000000
00010000
00000000
00000000
00000000
00000000
00000000
00001000
00000000
00000000
00000000
00010000
00000000
00000000
00000000
00000100
00000000
00000000
00000000
00001000
00000000
00000000
00000000
00000010
00000000
00000000
00000000
00000100
00000000
00000000
00000000
,
00001000
00000000
00010000
00000000
00001000
00000000
01000000
00000000
00100000
00000000
10000000
00000000
00100000
00000000
01000000
00010000
,
01000000
00000000
00010000
00000000
00100000
00000000
00010000
00100000
00010000
00000000
00100000
00000000
00001000
00000000
00010000
00001000
,
00010000
00000000
00000100
00000000
00001000
00000000
00000010
00000100
00000001
00001000
00000100
00000000
00001000
00000100
00010000
00000000
,
00001000
00100000
00010000
00000000
01000000
00010000
00100000
00000000
01000000
10000000
00100000
10000000
00010000
00000000
00100000
00000000
,
00001000
00010000
00001000
00100000
00001000
00000000
00010000
00000000
00001100
00000000
00000000
00000000
00000000
00000000
00000000
00000000
;
