#TITLE:Dear Deer;
#SUBTITLE:;
#ARTIST:Hylen;
#TITLETRANSLIT:;
#SUBTITLETRANSLIT:;
#ARTISTTRANSLIT:;
#GENRE:;
#CREDIT:;
#MUSIC:dear deer.ogg;
#BANNER:;
#BACKGROUND:;
#CDTITLE:;
#SAMPLESTART:0.000;
#SAMPLELENGTH:0.000;
#SELECTABLE:YES;
#OFFSET:-0.689;
#BPMS:0.000=185.000;
#STOPS:;
#BGCHANGES:;
#FGCHANGES:;

//--------------- dance-single - kaya ----------------
#NOTES:
     dance-single:
     kaya:
     Easy:
     10:
     0,0,0,0,0:
0000
0000
0000
0000
,
0000
0000
0000
0000
,
0000
0000
0000
0000
,
0000
0000
0000
0000
,
0000
0000
0000
0000
,
0000
0000
0000
0000
,
0000
0000
0000
0000
,
0000
0000
0000
0000
,
0000
0000
0000
0000
,
1000
1000
1000
0000
,
0100
0000
0100
0000
,
0001
0001
0001
0000
,
0010
0000
0010
0000
,
1000
1000
1000
0000
,
0001
0001
0001
0000
,
0010
0010
0010
0010
,
0100
0100
0100
0000
,
1000
0100
0001
0100
,
1000
0100
0001
0000
,
0100
0100
1000
0000
,
0001
0001
0100
0000
,
0001
0010
1000
0010
,
0001
0010
1000
0000
,
0010
0010
1000
0000
,
0001
0001
0100
0000
,
1000
2000
0000
3000
,
0010
0010
0010
0000
,
0100
1000
0100
0001
,
0100
1000
0100
0001
,
0010
0020
0000
0100
,
0000
0100
0000
0130
,
0010
0001
0010
1000
,
0010
0001
0010
0000
,
0110
0000
0000
0000
,
0000
0000
0000
0000
,
0000
0000
0000
0000
,
0000
0000
0000
0000
,
1001
0000
1000
0000
,
1001
0000
0001
0000
,
1001
0000
1000
0000
,
0001
1000
0001
0000
,
0001
0100
0010
0100
,
1000
0100
0001
0000
,
0000
0100
1000
0100
,
0001
0001
0001
0000
,
1000
0100
0010
0100
,
0001
0100
1000
0000
,
0000
0100
0001
0100
,
1000
1000
1000
0000
,
0010
0100
0010
0001
,
0010
1000
0010
0000
,
0000
0000
0010
0100
,
0010
0010
0010
0000
,
0100
1000
0100
0001
,
0100
0010
0100
0000
,
0000
0000
0100
0010
,
0100
0100
0100
0000
,
0001
0001
0001
0000
,
1000
1000
1000
0000
,
0010
0010
0010
0000
,
0100
0100
0100
0000
,
0001
1000
0001
0000
,
1000
0001
1000
0000
,
0010
0100
0010
0100
,
0001
0000
0000
0000
,
1000
1100
1100
1100
,
1100
1100
1100
0000
,
0001
0101
0101
0101
,
0101
0101
0101
0000
,
0001
0100
1000
0100
,
0001
0100
1000
0100
,
0001
0010
1000
0010
,
0001
0010
1000
0010
,
0000
0001
0011
0011
,
0011
0011
0011
0000
,
1000
1010
1010
1010
,
1010
1010
1010
0000
,
1000
0010
0001
0010
,
1000
0100
0001
0100
,
1000
0010
0001
0010
,
1000
0100
0001
0100
,
2000
0000
0000
0000
,
0000
0000
0000
0000
,
0000
0000
0000
0000
,
0000
0000
0000
0000
,
0002
0000
0000
0000
,
0000
0000
0000
0000
,
0000
0000
0000
0000
,
0000
0000
0000
0000
,
0000
0000
0000
0000
,
3003
0000
0000
0000
;

//--------------- dance-single - kaya ----------------
#NOTES:
     dance-single:
     kaya:
     Medium:
     13:
     0,0,0,0,0:
0000
0000
0000
0000
,
0000
0000
0000
0000
,
0000
0000
0000
0000
,
0000
0000
0000
0000
,
0000
0000
0000
0000
,
1000
0000
0000
0010
0000
0000
0100
0000
0000
0000
0000
0000
0100
0000
0010
0000
,
1000
0000
0000
0001
0000
0000
1000
0000
0000
0000
0000
0000
0000
0000
0000
0000
,
0001
0000
0000
0010
0000
0000
0100
0000
0000
0000
0000
0000
0000
0000
0010
0000
,
0001
0000
0000
1000
0000
0000
0001
0000
0000
0000
0100
0000
0020
0000
0000
0000
,
1030
1100
1000
1001
,
1000
1010
1000
1001
,
0001
0101
0001
1001
,
0001
0011
0001
1001
,
0001
0100
0010
0100
0001
0100
0010
0000
,
1000
0100
0010
0100
1000
0100
0010
0000
,
0001
1000
0010
0100
0001
1000
0100
0010
,
0001
1000
0001
1000
0020
0030
0200
0300
,
0110
0000
1001
0000
1000
0200
0001
0000
,
1000
0000
0000
0000
0301
0100
1000
0000
,
0010
0000
0000
0010
0000
0000
0100
0000
0000
0100
0000
0000
0001
0000
1000
0000
,
0100
0000
0000
0100
0000
0000
0010
0000
0000
0010
0000
0000
0001
0000
1000
0000
,
0110
0000
1001
0000
0001
0200
1000
0000
,
0001
0000
0000
0000
1300
0100
0001
0000
,
1000
0000
0000
1000
0000
0000
0100
0000
0000
0100
0000
0000
0010
0000
0001
0000
,
1000
0000
0000
1000
0000
0000
0010
0000
0000
0010
0000
0000
0100
0000
0001
0000
,
1000
2000
0000
3000
,
1010
1100
1010
0000
,
0001
0000
0000
0010
0100
0000
1000
0000
0001
0010
0000
0000
0100
0000
1000
0000
,
0001
0000
0100
0010
0000
0000
1000
0000
0001
0100
0000
0000
0010
0000
1000
0000
,
0001
0000
0002
0000
0000
1003
0001
0000
,
0101
0011
0101
0011
,
1000
0000
0000
0100
0010
0000
0001
0000
1000
0010
0000
0000
0100
0000
0001
0000
,
1000
0000
0100
0010
0000
0000
0001
0000
1000
0010
0000
0000
0100
0000
0001
0000
,
2002
0000
0000
0000
,
0000
0000
0000
0000
,
3003
0000
0000
0000
,
0000
0000
0000
0000
,
1000
0010
1000
0000
1000
0100
1000
0000
,
0001
0010
0001
0000
0001
0100
0001
0000
,
1000
0100
0010
0000
0001
0100
0010
0000
,
2002
0000
0000
3003
,
1000
2000
3000
0100
0200
0300
0001
0002
,
0003
0100
0200
0300
1000
0000
2002
0000
,
3003
0000
0000
0000
1000
0000
0001
0000
1000
0000
0000
0000
1000
0000
0000
0010
,
0000
0000
0001
0000
0000
1000
0000
0000
0100
0000
0001
0000
1000
0000
0000
0000
,
0001
0001
0000
0010
0010
0000
1000
1000
,
0000
0010
0010
0000
0001
0000
2002
0000
,
3003
0000
0000
0000
0001
0000
1000
0000
0001
0000
0000
0000
0001
0000
0000
0010
,
0000
0000
1000
0000
0000
0001
0000
0000
0100
0000
1000
0000
0001
0000
0000
0000
,
0010
0010
0000
0001
0001
0000
0100
0100
,
0000
1000
1000
0000
0010
0000
0220
0000
,
0330
0000
0010
0000
0001
0000
0100
0000
1000
0000
0000
0000
1000
0000
0000
1000
,
0000
0000
0100
0000
0000
0100
0000
0000
0001
0000
0010
0000
0100
0000
0000
0000
,
0100
0100
0000
1000
1000
0000
0010
0010
,
0000
0001
0001
0000
0100
0000
0220
0000
,
0330
0000
0100
0000
1000
0000
0010
0000
0001
0000
0000
0000
0001
0000
0000
0001
,
0000
0000
0010
0000
0000
0010
0000
0000
1000
0000
0100
0000
0010
0000
0001
0000
,
1000
0000
0000
1000
0000
0000
1000
0000
0000
1000
0000
0000
0100
0000
0010
0000
,
1000
0000
0000
1000
0000
0000
1000
0000
0000
1000
0000
0000
1000
0000
0010
0000
,
0001
0000
0000
0001
0000
0000
0001
0000
0000
0001
0000
0000
0100
0000
0010
0000
,
0001
0000
0000
0001
0000
0000
0001
0000
0010
0000
0010
0000
1000
0000
0001
0000
,
1000
0100
1000
0001
1000
0100
1000
0001
,
1000
0010
1000
0001
1000
0010
1000
0001
,
1000
0100
0010
0001
1000
0100
0010
0001
,
0000
0000
0000
0000
,
1001
0000
1000
0100
0001
0100
1000
0100
,
0001
0100
1000
0100
0001
0100
1000
0000
,
1001
0000
0001
0100
1000
0100
0001
0100
,
1000
0100
0001
0100
1000
0100
0001
0000
,
1001
0000
0001
0010
0100
0001
0100
1000
,
0001
0000
1000
0010
0100
1000
0100
0001
,
1000
0000
0001
0010
0100
0001
0100
1000
,
0001
0000
0010
0010
0100
0001
0100
1000
,
0001
0000
0110
0000
1000
0010
0001
0010
,
1000
0100
0001
0100
1000
0001
1000
0000
,
1001
0000
0001
0010
1000
0010
0001
0100
,
1000
0100
0001
0010
1000
0010
0001
1000
,
0001
0000
1000
0100
0010
1000
0010
0001
,
1000
0000
0001
0100
0010
0001
0010
1000
,
0001
0000
1000
0100
0010
1000
0010
0001
,
1000
0000
0001
0100
0010
0001
0010
1000
,
0001
1000
0001
1000
,
0001
1000
0001
1000
,
0010
0100
0010
0100
,
0010
0100
0010
0100
,
1000
0001
1000
0001
,
1000
0001
1000
0001
,
0100
0010
0100
0010
,
0100
0020
0200
0000
,
0000
0000
0000
0000
,
0330
0000
0000
0000
;

//--------------- dance-single - kaya ----------------
#NOTES:
     dance-single:
     kaya:
     Hard:
     16:
     0,0,0,0,0:
0000
0000
0000
0000
,
0000
0000
0000
0000
,
0000
0000
0000
0000
,
0000
0000
0000
0000
,
0000
0000
0000
0000
,
1000
0000
0000
0001
0000
0000
0010
0000
0000
0000
0000
0000
0100
0000
0010
0000
,
0100
0000
0000
0010
0000
0000
0001
0000
0000
0000
0000
0000
0000
0000
0000
0000
,
1000
0000
0001
1000
0000
0000
0010
0000
0000
0000
0000
0000
0000
0000
0100
0010
,
0100
0000
0000
0010
0000
0000
1000
0000
0000
0000
0001
0000
1000
0010
0100
0001
,
1000
0000
0000
0100
0010
0000
2000
0000
0000
0000
0000
0000
3010
0000
0100
0000
,
1000
0000
0000
0100
0010
0000
0002
0000
0000
0000
0000
0000
1003
0000
0000
0000
,
0001
0000
0000
0100
0010
0000
0002
0000
0000
0000
0000
0000
0013
0000
0100
0000
,
0001
0000
0000
0100
0010
0000
2000
0000
0000
0000
0000
0000
3001
0000
0000
0000
,
0010
0001
1000
0000
0010
1000
0001
0000
,
0100
0001
1000
0000
0100
1000
0001
0000
,
1000
0010
1000
0001
1000
0010
0100
0001
,
1000
0000
1000
0000
0001
0000
0001
0000
0022
0033
0000
0000
0220
0330
0000
0000
,
1100
0000
0001
0000
1000
0200
0301
0000
,
2000
3000
0001
0000
1000
0020
0031
0001
,
1000
0000
0000
0100
1000
0000
0001
0000
1000
0010
0100
0000
0001
0000
1000
0000
,
0001
0000
0010
0001
0000
0000
1000
0000
0001
0100
0010
0000
1000
0000
0001
0000
,
0101
0000
1000
0000
0001
0200
1300
0000
,
0002
0003
1000
0000
0001
0020
1030
0000
,
0001
0000
0000
0100
0001
0000
1000
0000
0001
0010
0100
0000
1000
0000
0001
0000
,
1000
0000
0100
1000
0000
0000
0001
0000
1000
0010
0100
0000
0001
0000
1000
0000
,
1020
0001
0000
0000
,
1000
0001
1030
MMMM
,
0001
0000
0100
0001
0100
0000
0010
0000
1000
0010
1000
0000
0001
0000
0100
0000
,
0010
0000
1000
0001
1000
0000
0100
0000
0010
0100
0010
0000
0001
0000
1000
0000
,
1200
0000
0001
0000
0310
0002
1003
0000
,
0020
0030
0001
0000
1000
0100
0010
0000
,
1000
0000
0010
1000
0010
0000
1000
0000
0100
1000
0100
0000
0010
0000
0001
0000
,
1000
0000
0001
0100
0001
0000
0100
0000
0010
1000
0001
0000
0010
0000
0100
0000
,
2002
0000
0000
0000
,
0000
0000
0000
0000
,
0000
0000
0000
0000
,
0000
0000
3003
0000
,
1000
0100
0010
1000
0010
0100
1000
0000
,
0001
0100
0010
0001
0010
0100
0001
0000
,
1000
0100
0010
0001
0100
0010
1000
0001
,
0020
0000
0200
0330
,
1000
0100
1000
0000
0000
0000
0100
0001
0100
0000
0000
0000
1000
0100
1000
0000
,
0000
0000
0100
0001
0100
0000
0000
0000
0110
0000
0000
0000
2002
0000
0000
0000
,
3003
0000
0000
0000
1000
0001
1000
0001
1000
0000
0000
0000
0001
0100
0000
0001
,
0100
0000
1000
0100
0000
1000
0100
0000
0001
1000
0000
0001
1000
0000
0000
0000
,
0001
0010
0001
0010
0000
0000
1000
0010
1000
0010
0000
0000
0001
0010
0001
0010
,
0000
0000
1000
0010
1000
0010
0000
0000
0110
0000
0000
0000
2002
0000
0000
0000
,
3003
0000
0000
0000
0001
1000
0001
1000
0001
0000
0000
0000
1000
0100
0000
1000
,
0100
0000
0001
0100
0000
0001
0100
0000
1000
0001
0000
1000
0001
0000
0000
0000
,
0100
0010
0100
0000
0000
0000
1000
0001
1000
0000
0000
0000
0100
0010
0100
0000
,
0000
0000
0001
1000
0001
0000
0000
0000
0110
0000
0000
0000
2002
0000
0000
0000
,
3003
0000
0001
0100
0010
0100
0010
0100
1000
0000
0000
0000
1000
0100
0000
1000
,
0100
0000
0010
0000
0100
0001
0000
0100
0001
0000
0010
0000
0100
0010
0100
0000
,
1000
0001
1000
0001
0000
0000
0010
0100
0010
0100
0000
0000
0001
1000
0001
1000
,
0000
0000
0010
0100
0010
0100
0000
0000
0110
0000
0000
0000
2002
0000
0000
0000
,
3003
0000
1000
0010
0100
0010
0100
0010
0001
0000
0000
0000
0001
0010
0000
0001
,
0010
0000
0100
0000
0010
1000
0000
0010
1000
0000
0001
0000
1000
0000
0100
0000
,
0020
0100
0000
0000
0100
0000
0000
0100
0000
0000
0130
0000
1000
0000
0001
0000
,
0100
0010
0000
0100
0010
0000
0100
0010
0000
0100
0010
0000
1000
0000
0001
1000
,
0200
0010
0000
0000
0010
0000
0000
0010
0000
0000
0310
0000
0001
0000
1000
0000
,
0010
0100
0000
0010
0100
0000
0010
0100
0002
0000
2003
0000
3002
0000
0003
0000
,
0100
0000
0001
1000
0100
0000
1000
0001
0100
0000
0001
1000
0100
0000
0000
0000
,
0010
0000
0001
1000
0010
0000
1000
0001
0010
0000
0001
1000
0010
0000
0000
0000
,
0100
0010
1000
0000
0100
0010
0001
0000
1000
0010
0100
0000
0001
0010
0100
0000
,
0002
0003
0200
0300
2000
3000
0020
0030
0002
0003
2000
3000
0200
0300
0002
0003
,
0020
0000
1030
0001
0100
0001
1000
0001
,
0100
0001
1000
0001
0100
0010
0100
1000
,
0020
0000
0031
1000
0100
1000
0001
1000
,
0100
0000
1000
0000
0001
0000
1000
0000
0100
0000
0010
0000
0100
0010
0100
0000
,
0002
0000
0000
0000
0013
0000
0100
0000
0001
0100
0000
0001
0100
0000
0010
0000
,
0002
0000
0000
0000
0013
0000
1000
0000
0001
0100
0000
0001
0100
0000
1000
0000
,
0002
0000
0000
0000
0103
0000
0010
0000
0001
0010
0000
0001
0010
0000
0100
0000
,
0002
0000
0000
0000
0000
0000
0000
0000
0103
0000
0000
0010
0000
0000
0100
0000
0001
0000
0100
0000
0010
0000
1000
0000
0001
0000
0010
0000
0100
0000
0000
0000
,
1000
0000
0200
0000
0301
1000
0010
1000
,
0001
1000
0010
1000
0001
1000
0010
0001
,
0200
0000
0310
0001
1000
0001
0010
0001
,
1000
0000
0001
0000
0010
0000
0001
0000
1000
0000
0001
0000
0010
0000
1000
0010
,
2000
0000
3000
0100
0010
0000
0010
0000
1000
0000
0010
0100
0010
0000
0100
0000
,
2000
0000
0000
3100
0010
0000
0010
0000
1000
0000
0010
0100
0010
0000
0001
0000
,
2000
0000
0000
3010
0100
0000
0100
0000
1000
0000
0100
0010
0100
0000
0001
0000
,
2000
0000
0000
3010
0100
0000
0100
0000
1000
0000
0100
0010
0100
0010
0100
0000
,
0120
1000
1000
1000
,
1000
1030
0100
0100
,
0002
1000
1000
1000
,
1000
1003
0010
0010
,
0002
0100
0100
0100
,
0100
0103
0010
0010
,
0002
1000
1000
1000
,
1000
1000
2000
0000
,
0000
0000
0000
3003
,
MMMM
MMMM
0000
0000
0000
0000
0000
0000
;

//--------------- dance-double - kaya ----------------
#NOTES:
     dance-double:
     kaya:
     Hard:
     17:
     0,0,0,0,0:
00000000
00000000
00000000
00000000
,
00000000
00000000
00000000
00000000
,
00000000
00000000
00000000
00000000
,
00000000
00000000
00000000
00000000
,
00000000
00000000
00000000
00000000
,
00010000
00000000
00000000
00001000
00000000
00000000
01000000
00000000
00000000
00000000
00000000
00000000
00100000
00000000
00010000
00000000
,
00001000
00000000
00000000
00010000
00000000
00000000
00000100
00000000
00000000
00000000
00000000
00000000
00000000
00000000
00000000
00000000
,
00010000
00000000
00000000
00001000
00010000
00000000
00000010
00000000
00000000
00000000
00000000
00000000
00000000
00000000
00010000
00001000
,
00010000
00000000
00000000
00001000
00000000
00000000
01000000
00000000
00000000
00000000
00010000
00000000
00100000
01000000
00100000
00010000
,
10000000
00000000
00000000
00100000
00000000
00000000
00020000
00000000
00000000
00000000
00030000
00000000
00001000
00000000
00010000
00000000
,
00001000
00000000
00000000
00000010
00000000
00000000
00000002
00000000
00000000
00000000
00000003
00000000
00001000
00000000
00000000
00000000
,
00000001
00000000
00000000
00000100
00000000
00000000
00002000
00000000
00000000
00000000
00003000
00000000
00010000
00000000
00001000
00000000
,
00010000
00000000
00000000
00100000
00000000
00000000
20000000
00000000
00000000
00000000
30000000
00000000
00010000
00000000
00000000
00000000
,
00100000
00010000
00100000
00010000
00001000
00000010
00001000
00000010
,
00000100
00001000
00000100
00001000
00010000
01000000
00010000
01000000
,
00100000
00010000
00100000
00001000
00010000
00000010
00001000
00000010
,
00000200
00000300
00000000
00000000
00000200
00000300
00000000
00000000
00000200
00000300
00000000
00000000
00000200
00000300
00000000
00000000
00000000
00000000
00000000
00000000
00000000
00000000
00000000
00000000
00000000
00000000
00000000
00000000
00000000
00000000
00000000
00000000
,
00012000
00000000
00003010
00000000
00000010
00002000
00010000
00000000
,
00000100
00000000
00010000
00000000
00003010
00001000
00010000
00001000
,
00000100
00000000
00000000
00000010
00001000
00000000
00000010
00000000
00010000
00001000
00010000
00000000
00001000
00000000
00100000
00000000
,
01000000
00000000
00100000
00010000
00000000
00000000
00100000
00000000
00001000
00010000
00001000
00000000
00010000
00000000
00000000
00000000
,
00021000
00000000
00130000
00000000
00100000
00020000
00001000
00000000
,
01000000
00000000
00001000
00000000
00130000
00010000
00001000
00000000
,
01000000
00000000
00000000
00010000
00100000
00000000
00001000
00000000
00010000
00001000
00010000
00000000
00000010
00000000
00001000
00000000
,
00000100
00000000
00001000
00000010
00000000
00000000
00010000
00000000
00001000
00010000
00001000
00000000
00100000
00000000
00000000
00000000
,
00011000
00022000
00000000
00033000
,
00110000
00011000
00002020
00003030
,
00000010
00000000
00000000
00000100
00001000
00000000
00000100
00000000
00001000
00010000
00001000
00000000
00010000
00000000
01000000
00000000
,
00100000
00000000
01000000
00010000
00000000
00000000
01000000
00000000
00010000
00001000
00010000
00000000
00001000
00000000
00000000
00000000
,
00011000
00000000
00011000
00000000
00010000
00002000
00000100
00000000
,
00010000
00000000
00000010
00000000
00013000
00001000
00000010
00000000
,
00000100
00000000
00000000
00010000
00001000
00000000
00010000
00000000
00000100
00010000
00001000
00000000
01000000
00000000
00010000
00000000
,
01000000
00000000
00001000
00010000
00000000
00000000
00001000
00000000
01000000
00001000
00010000
00000000
00001000
00000000
00010000
00000000
,
00022000
00000000
00000000
00000000
,
00000000
00000000
00000000
00000000
,
00033000
00000000
00000000
00000000
,
00000000
00000000
00000000
00000000
,
00001000
00010000
01000000
00000000
00010000
00001000
00000000
00000000
,
00010000
00001000
00000100
00000000
00001000
00010000
00000000
00000000
,
00001000
00010000
00100000
00010000
00001000
00000010
00001000
00010000
,
00022000
00000000
00000000
00033000
,
00010000
01000000
00010000
01000000
00000000
00000000
00001000
00000100
00001000
00000100
00000000
00000000
00010000
01000000
00010000
01000000
,
00000000
00000000
00001000
00000100
00001000
00000100
00000000
00000000
00011000
00000000
00000000
00000000
00022000
00000000
00000000
00000000
,
00033000
00000000
00000000
00000000
00010000
00001000
01000000
00010000
01000000
00000000
00000000
00000000
00001000
00010000
00000000
00000100
,
00001000
00000000
00000100
00000010
00000000
00000100
00001000
00000000
00000100
00000000
00010000
00001000
00010000
00000000
00000000
00000000
,
00010000
00100000
00010000
00100000
00000000
00000000
00001000
00000010
00001000
00000010
00000000
00000000
00010000
00100000
00010000
00100000
,
00000000
00000000
00001000
00000010
00001000
00000010
00000000
00000000
00011000
00000000
00000000
00000000
00022000
00000000
00000000
00000000
,
00033000
00000000
00000000
00000000
00010000
00001000
00100000
00010000
00100000
00000000
00000000
00000000
00001000
00010000
00000000
00000010
,
00001000
00000000
00000010
00000100
00000000
00000010
00001000
00000000
00000010
00000000
00010000
00001000
00010000
00000000
00000000
00000000
,
00000100
00010000
00000100
00010000
00000000
00000000
01000000
00010000
01000000
00010000
00000000
00000000
00000100
00010000
00000100
00010000
,
00000000
00000000
01000000
00010000
01000000
00010000
00000000
00000000
00011000
00000000
00000000
00000000
00022000
00000000
00000000
00000000
,
00033000
00000000
00010000
00001000
00010000
00000100
00001000
00000100
00000010
00000000
00000000
00000000
00000100
00010000
00000000
00001000
,
00010000
00000000
00001000
00000000
01000000
00010000
00000000
01000000
00001000
00000000
00010000
00000000
00001000
00010000
00001000
00000000
,
00100000
00001000
00100000
00001000
00000000
00000000
00000010
00001000
00000010
00001000
00000000
00000000
00100000
00001000
00100000
00001000
,
00000000
00000000
00000010
00001000
00000010
00001000
00000000
00000000
00011000
00000000
00000000
00000000
00022000
00000000
00000000
00000000
,
00033000
00000000
00001000
00010000
00001000
00100000
00010000
00100000
01000000
00000000
00000000
00000000
00100000
00010000
00000000
00100000
,
00010000
00000000
01000000
00000000
00001000
00010000
00000000
00001000
00010000
00000000
00000010
00000000
00000100
00000000
00000001
00000000
,
00000002
00001000
00000000
00000000
00001000
00000000
00000000
00001000
00000000
00000000
00001003
00000000
00000001
00000100
00000010
00010000
,
00001000
00010000
00000000
00001000
00010000
00000000
00001000
00010000
00000000
00001000
00010000
00000000
00100000
00000000
10000000
00000000
,
20000000
00010000
00000000
00000000
00010000
00000000
00000000
00010000
00000000
00000000
30010000
00000000
10000000
01000000
00100000
00001000
,
00010000
00001000
00000000
00010000
00001000
00000000
00010000
00001000
00200000
00300000
00002000
00003000
00020000
00030000
00002000
00003000
,
00000100
00001000
00010000
00001000
00000100
00001000
00010000
00000000
,
00100000
00010000
00001000
00010000
00100000
00010000
00001000
00000000
,
01000000
00001000
00010000
00000000
00000100
00010000
00001000
00000000
01000000
00001000
00010000
00000000
00000100
00010000
00001000
00000000
,
01000000
00010000
00001000
00000100
00000010
00001000
00010000
00100000
,
00002000
00003000
00000010
00001000
00100000
00001000
00000010
00001000
,
00100000
00001000
00000010
00001000
00100000
00001000
00000010
00010000
,
00001000
00000000
00000100
00010000
01000000
00010000
00000100
00010000
,
01000000
00000000
00010000
00000000
00000100
00000000
00010000
00000000
01000000
00000000
00001000
00000000
00010000
00000000
00001000
00010000
,
00001000
00000000
00000000
00000000
00010000
00000000
00100000
01000000
00010000
00000000
00100000
00001000
00010000
00000000
00001000
00000000
,
00010000
00000000
00000000
00000000
00001000
00000000
00000010
00000100
00001000
00000000
00000010
00010000
00001000
00000000
00010000
00000000
,
00001000
00000000
00000000
00000000
00010000
00000000
00100000
01000000
00010000
00000000
00100000
00001000
00010000
00000000
00001000
00000000
,
00010000
00000000
00000000
00000000
00001000
00000000
00000010
00000100
00001000
00000000
00000010
00000000
00010000
00000000
00001000
00000000
,
00011000
00000000
00010000
00001000
00000010
00010000
00000010
00001000
,
00000010
00010000
00000010
00001000
00000010
00010000
00000010
00001000
,
00010000
00000000
00001000
00010000
01000000
00001000
01000000
00010000
,
01000000
00000000
00001000
00000000
01000000
00000000
00010000
00000000
01000000
00000000
00100000
00000000
00001000
00000000
00010000
00001000
,
00010000
00000000
00000000
00001000
00000100
00000000
00000010
00000000
00000100
00000010
00001000
00000000
00000010
00010000
00001000
00000000
,
00010000
00000000
00000000
00010000
01000000
00000000
00100000
00000000
01000000
00100000
00010000
00000000
00100000
00001000
00010000
00000000
,
00001000
00000000
00000000
00001000
00000100
00000000
00000010
00000000
00000100
00000010
00001000
00000000
00000010
00010000
00001000
00000000
,
00010000
00000000
00000000
00010000
01000000
00000000
00100000
00000000
01000000
00100000
00010000
00100000
00001000
00010000
00001000
00000000
,
00020000
01000000
01000000
01000000
,
01000000
01000000
01000000
01030000
,
00002000
00000100
00000100
00000100
,
00000100
00000100
00000100
00003100
,
00020000
00100000
00100000
00100000
,
00100000
00100000
00100000
00130000
,
00002000
00000010
00000010
00000010
,
00000010
00000010
00000020
00000000
,
00000000
00000000
00000030
00000000
,
00013000
00000000
00000000
00000000
;
