#TITLE:Dark Sheep;
#SUBTITLE:;
#ARTIST:黒魔;
#TITLETRANSLIT:;
#SUBTITLETRANSLIT:;
#ARTISTTRANSLIT:Chroma;
#GENRE:EPIC CHIPTUNE;
#CREDIT:;
#MUSIC:Dark Sheep.ogg;
#BANNER:Dark Sheep.png;
#BACKGROUND:Dark Sheep-bg.png;
#CDTITLE:;
#SAMPLESTART:89.488;
#SAMPLELENGTH:15.000;
#SELECTABLE:YES;
#OFFSET:0.004;
#BPMS:0.000=177.000
,167.000=88.500
,183.000=177.000
,211.000=88.500
,212.000=177.000
;
#STOPS:38.000=0.339
,212.000=0.339
,243.000=0.339
;
#BGCHANGES:23.800=Dark Sheep.avi=1.000=0=0=1===CrossFade_Fastest==,
352.000=Dark Sheep-bg.png=1.000=0=0=1,
99999.000=-nosongbg-=1.000=0=0=0=StretchNoLoop====
;
#FGCHANGES:;

//--------------- dance-single - KAYSTAR ----------------
#NOTES:
     dance-single:
     KAYSTAR:
     Beginner:
     4:
     0,0,0,0,0:
0000
0000
0000
0000
,
0000
0000
0000
0000
,
0000
0000
0000
0000
,
0000
0000
0000
0000
,
0000
0000
0000
0000
,
0000
0000
0000
0000
,
1000
0000
1000
0000
,
1000
0000
0000
0000
,
0001
0000
0001
0000
,
0001
0000
0000
1000
,
0000
0100
0000
1000
,
0000
0100
0000
0010
,
0000
0001
0000
0010
,
0000
0001
0000
1000
,
0000
0000
0000
0010
,
0000
0100
0000
0001
,
0000
0000
0000
0010
,
0000
0100
0000
1000
,
0000
0001
0000
0100
,
0000
0001
0000
0100
,
0000
0010
0000
1000
,
0000
0010
0000
1000
,
0000
0000
0000
0100
,
0000
0010
0000
0001
,
0000
1000
0000
2002
,
0000
3003
0000
0001
,
0000
0000
0000
1000
,
0000
0000
0000
0020
,
0000
0000
0000
0030
,
0000
0000
0000
1000
,
0000
0000
0000
0001
,
0000
0000
0000
0020
,
0000
0000
0000
0030
,
0000
0000
0000
0001
,
0000
0000
0000
0100
,
0000
0000
0000
0010
,
0000
0000
0000
1000
,
0000
0000
0000
0100
,
0000
0000
0000
0010
,
0000
0000
0000
0001
,
0000
1000
0000
2002
,
0000
3003
0000
0001
,
0000
1000
0000
0100
,
0100
0200
0300
1000
,
0000
0001
0000
0100
,
0100
0200
0300
0001
,
0000
0000
0000
0001
,
0000
0000
0000
1000
,
0000
0000
0000
1000
,
0000
0000
0000
0001
,
0000
0010
0000
0100
,
0000
1000
0000
0010
,
0000
0100
0000
0001
,
0000
2002
0000
0000
,
0000
0000
0000
0000
,
0000
0000
0000
0000
,
0000
0000
0000
3003
,
0000
1000
0000
1000
,
0000
1000
0000
0000
,
0000
0001
0000
0001
,
0000
0001
0000
0000
,
1000
0000
0100
0000
,
0010
0000
0001
0000
,
1000
0000
0010
0000
,
0100
0000
0001
0000
,
1000
0000
0000
0000
,
0100
0000
0010
0000
,
0001
0000
0000
0000
,
0100
0000
0010
0000
,
1000
0000
0001
0000
,
0010
0000
0100
0000
,
1000
0000
0001
0000
,
0100
0000
0010
0000
,
1000
0000
0000
0000
,
0100
0000
0010
0000
,
0001
0000
1000
0000
,
2002
0000
3003
0000
,
0001
0000
0000
0000
,
0000
0000
0000
1000
,
0000
0000
0000
0000
,
0001
0000
0100
0000
,
0010
0000
1000
0000
,
0100
0000
0010
0000
,
0001
0000
1000
0000
,
2002
0000
3003
0000
,
0220
0000
0330
0000
,
1000
0000
0010
0000
,
0100
0000
0001
0000
,
2002
0000
0000
0000
,
0000
0000
0000
0000
,
3003
0000
0000
0000
;

//--------------- dance-single - KAYSTAR ----------------
#NOTES:
     dance-single:
     KAYSTAR:
     Easy:
     9:
     0,0,0,0,0:
0000
0000
0000
0000
,
0000
0000
0000
0000
,
0000
0000
0000
0000
,
0000
0000
0000
0000
,
0000
0000
0000
0000
,
0000
0000
0000
0000
,
1000
0100
0001
0100
,
1000
0100
0010
0000
,
0001
0100
1000
0100
,
0001
0100
0020
1030
,
0001
0000
0010
0001
0010
0000
0100
0000
,
1000
0000
0010
1000
0010
0000
0100
0000
,
0001
0000
0010
0001
0010
0000
0100
0000
,
1000
0000
0010
1000
0010
0100
0001
0000
,
1000
0100
0000
0120
,
0000
0031
0000
1000
,
0001
0100
0000
0120
,
0000
1030
0000
0001
,
1000
0000
0100
1000
0100
0000
0010
0000
,
0001
0000
0100
0001
0100
0000
0010
0000
,
1000
0000
0100
1000
0100
0000
0010
0000
,
0001
0000
0100
0001
0100
0010
1000
0000
,
0000
0000
0000
0000
0000
0001
0000
1000
,
0001
0000
0010
0000
0100
0000
1000
1000
,
0000
0000
0001
0001
0000
0000
2002
0000
,
0000
0000
3003
1000
,
0010
0200
0000
0000
,
0301
1000
0100
0010
,
0000
0020
0000
0000
,
0000
0030
0000
0001
,
0010
0200
0000
0000
,
1300
0001
0100
0020
,
0000
0000
0000
0000
,
0000
0030
0000
1000
,
0010
1000
0001
0100
,
0001
2000
0000
3001
,
0010
0001
1000
0100
,
1000
0002
0000
1003
,
0001
0100
0000
0010
,
0001
1000
0000
0010
,
0010
0100
0100
0002
,
0000
1003
0000
0002
,
0000
0013
0100
1000
,
0001
0100
0020
0000
0030
0000
2000
0000
,
0000
3100
0010
0001
,
1000
0010
0200
0000
0300
0000
0001
0000
,
0000
1000
0000
0100
,
0000
0100
0000
1000
,
0000
0001
0000
0100
,
0000
0100
0000
0010
,
1000
0010
1000
0001
,
0010
0001
0010
0100
,
1000
0010
0100
0002
,
0003
1000
0000
1000
,
0000
1000
0000
0000
,
0000
0001
0000
0001
,
0000
0001
0000
0000
,
0000
1000
0100
0001
,
0100
1000
0010
0100
,
0000
0001
0100
1000
,
0100
0001
0010
0200
,
1300
0000
0001
0000
0100
0010
1000
0000
,
0001
0000
1000
0000
0100
0010
0001
0000
,
1000
0000
0001
0000
0100
0010
1000
0000
,
0001
0000
0010
0000
0100
1000
0001
0100
,
0010
1000
0100
0000
,
0120
0000
0031
0000
,
0010
0001
0100
0000
,
0120
0000
1030
0000
,
0001
0000
0010
0000
0100
1000
0001
0000
,
1000
0000
0010
0000
0100
0001
1000
0000
,
0001
0000
0010
0000
0100
1000
0001
0000
,
1000
0000
0010
0000
0100
0001
1000
0100
,
0010
0000
0000
0000
0000
0000
0000
0001
,
0000
1000
0001
0000
0100
0000
0010
0000
,
1000
1000
0000
0000
0001
0001
0000
0000
,
2002
0000
0000
3003
,
1001
0000
0000
0000
,
0000
0000
0000
1001
,
0000
0000
0000
0000
,
1000
1000
0100
0100
,
0010
0010
0001
0001
,
0100
0001
0100
0000
0010
1000
0010
0000
,
1000
0001
1000
0001
1000
0001
1000
0000
,
2002
0000
3003
0000
,
0220
0000
0330
0000
,
0001
0000
1000
0100
0000
1000
0100
0000
0010
0100
0000
0010
,
0100
0000
0010
0001
0000
0010
0001
0000
0000
1000
0000
0000
,
2002
0000
0000
0000
,
0000
0000
0000
0000
,
3003
0000
0000
0000
;

//--------------- dance-single - KAYSTAR ----------------
#NOTES:
     dance-single:
     KAYSTAR:
     Medium:
     14:
     0,0,0,0,0:
0000
0000
0000
0000
,
0000
0000
0000
0000
,
0000
0000
0000
0000
,
0000
0000
0000
0000
,
0000
0000
0000
0000
,
0000
0000
0000
0000
,
2001
0000
0000
3100
0000
0010
0002
0000
0000
0103
0000
0010
,
2000
0000
0000
3100
0000
0010
0001
0000
1000
0001
1000
0001
,
2000
0000
0000
3010
0000
0100
0002
0000
0000
0013
0000
0100
,
2000
0000
0000
0000
3001
0000
0000
0000
1001
0000
0000
0000
1000
0000
0000
1000
,
0010
0000
0100
0000
0001
0000
0000
0001
1000
0000
0100
0000
0010
0000
0000
0010
,
0001
0000
1000
0000
0010
0000
0100
0000
0010
0000
1000
0000
0001
0000
0000
0001
,
0010
0000
0100
0000
1000
0000
0000
1000
0001
0000
0100
0000
0010
0000
0000
0010
,
1000
0001
0010
0100
1000
0001
0100
0101
,
0000
0010
1000
1010
0000
0002
0000
0013
,
0100
0000
1000
0000
0001
0000
0100
0010
0100
0000
0001
0000
1000
0000
1100
0000
,
0000
0010
0001
0011
0000
2000
0000
3010
,
0001
0000
0010
0000
1000
0000
0001
0000
1001
0000
0000
0000
1000
0000
0000
1000
,
0100
0000
0010
0000
0001
0000
0000
0001
1000
0000
0010
0000
0100
0000
0000
0100
,
0001
0000
1000
0000
0100
0000
0010
0000
0100
0000
1000
0000
0001
0000
0000
0001
,
0100
0000
0010
0000
1000
0000
0000
1000
0001
0000
0010
0000
0100
0000
0000
0100
,
1000
0001
0100
0010
1000
0001
0020
0230
,
0320
0230
0320
0230
1300
0002
0000
0103
,
0010
0000
1000
0001
1000
0000
0001
0000
1001
0000
0000
0000
1000
0000
0100
0000
,
0110
0000
0001
0100
0110
0000
2002
0000
,
0000
0000
3003
0002
,
0103
0010
2000
0000
0001
0000
0001
0000
,
3100
0001
0100
0000
0110
0000
2000
0000
,
3010
0100
0002
0000
0000
0000
0000
0000
,
0000
0000
0000
0000
0103
0010
2000
0000
,
3100
0010
0002
0000
1000
0000
1000
0000
,
0103
1000
0100
0000
0110
0000
2002
0000
,
0000
0000
0000
0000
,
3003
0000
0220
0000
0330
0000
0001
1000
,
0100
1000
0001
1000
0010
0000
0100
0001
,
1000
0100
0010
0000
0110
0000
1000
0001
,
0100
0001
1000
0001
0010
0000
0100
1000
,
0001
0100
0010
0000
0110
0000
1000
0001
,
0010
0001
0100
0010
1000
0000
0001
1000
,
0010
1000
0100
0010
0001
0000
2000
0000
,
3010
0100
0002
0000
0013
0100
2000
0000
,
3001
2002
3003
1002
,
0203
0320
2030
3100
,
1000
0100
0001
0100
2000
0000
0000
0000
3001
0000
0000
0000
2001
0000
0000
0000
,
3200
0320
0032
0103
,
0001
0100
1000
0100
0002
0000
0000
0000
1003
0000
0000
0000
1001
0000
0000
0000
,
0001
0000
1000
0000
1000
0000
0001
0010
,
0100
0000
0010
0100
1000
0000
0010
0000
,
0010
0000
0100
0000
0100
0000
0001
1000
,
0100
0000
1000
0001
0100
0000
0001
0100
,
0010
1000
0001
0100
0010
1000
0100
0010
,
0001
1000
0100
0010
0001
0100
1000
0100
,
0001
1000
0100
0001
0100
1000
0002
0000
,
0003
0000
0000
2001
0000
0000
3010
0000
0100
0002
0000
0000
,
0013
0000
0100
2000
0000
0000
3010
0000
0100
0001
0000
1000
,
0001
1000
0001
2000
0000
0000
3100
0000
0010
0002
0000
0000
,
0103
0000
0010
2000
0000
0000
3100
0000
0010
0001
0000
0100
,
0010
0100
0010
1000
0001
0010
0100
0000
0010
0001
1000
0100
,
0010
0000
0100
1000
0001
0010
0100
0000
1000
0001
0000
0010
,
0100
0010
0100
1000
0001
0100
0010
0000
0100
0001
1000
0010
,
0100
0000
0010
1000
0001
0100
0010
0000
0000
1001
0000
0000
,
1000
0000
0000
1000
0100
0000
0001
0000
0100
0000
0000
0100
0010
0000
0001
0000
,
1000
0000
0000
1000
0100
0000
0001
0000
0100
0000
1000
0000
0100
0000
0010
0000
,
0001
0000
0000
0001
0100
0000
1000
0000
0100
0000
0000
0100
0010
0000
1000
0000
,
0001
0000
0000
0001
0100
0000
1000
0000
0001
0000
0010
0000
0100
0000
0010
0000
,
1000
1100
0000
0010
0001
0011
0000
2000
,
0000
0000
3010
0000
0100
0000
0001
0000
1000
0000
0100
0010
0100
0000
1000
0000
,
0001
0101
0000
0010
1000
1010
0000
0002
,
0000
0013
1000
0010
0001
1000
1001
0000
,
0001
0000
0000
0001
0100
0000
1000
0000
0100
0000
0000
0100
0010
0000
1000
0000
,
0001
0000
0000
0001
0010
0000
1000
0000
0010
0000
0001
0000
0010
0000
0100
0000
,
1000
0000
0000
1000
0010
0000
0001
0000
0010
0000
0000
0010
0100
0000
0001
0000
,
1000
0000
0000
1000
0100
0000
0001
0000
1000
0000
0010
0000
0100
0000
0010
0000
,
0002
0203
0320
2030
3200
0320
0031
2000
,
0000
0000
3010
0000
0100
0000
0001
1000
0001
0000
1000
0000
1001
0000
0000
0000
,
0001
0010
0110
0000
1000
0010
0110
0000
,
2002
0000
0000
3003
,
1001
0000
0000
0000
,
0000
0000
0000
0000
0000
1000
1001
0000
,
0000
0000
0000
0000
0000
0001
0010
0100
,
1000
1000
0001
0001
,
1000
1000
0001
0001
,
1000
0010
1000
0010
0100
0001
0100
0001
,
1000
1000
0100
0100
0010
0010
0001
0000
,
1001
0000
0000
1000
0010
0100
0002
0000
0000
1003
0000
0000
,
1001
0000
0000
0001
0010
0100
2000
0000
0000
3001
0000
0000
,
1001
0000
0000
1000
0010
1000
0010
0100
0010
0100
0001
0100
,
0001
1000
0100
0010
0001
1000
0010
0100
0001
0010
0000
0000
,
2002
0000
0000
0000
,
0000
0000
0000
0000
,
3003
0000
0000
0000
;

//--------------- dance-single - KAYSTAR ----------------
#NOTES:
     dance-single:
     KAYSTAR:
     Hard:
     17:
     0,0,0,0,0:
0000
0000
0000
0000
,
0000
0000
0000
0000
,
0000
0000
0000
0000
,
0000
0000
0000
0000
,
0000
0000
0000
0000
,
0000
0000
0000
0000
,
1001
0000
0001
0010
0100
1000
0010
0000
1000
0010
0100
0001
,
0010
0000
0001
0010
0100
1000
0002
0000
0000
1003
0000
0000
,
1001
0000
0001
0100
0010
1000
0100
0000
1000
0100
0010
0001
,
0100
0000
0000
0000
0000
0000
0000
0000
0000
0000
0000
0000
0000
0000
0000
0000
0001
0000
0000
0000
0000
0000
0000
0000
1000
0000
0000
0000
0000
0000
0000
0000
0001
0000
0000
0000
0000
0000
0000
0000
1000
0000
0000
0000
0000
0000
0000
0000
1001
0000
0000
0000
0000
0000
0000
0000
0000
0000
0000
0000
0000
0000
0000
0000
0000
0000
0000
0000
0000
0000
0000
0000
0001
0000
0000
0000
0000
0000
0200
0000
0000
0300
0000
0000
0000
0000
0000
0000
0000
0000
0200
0000
0000
0300
0000
0000
,
1000
0000
0000
0000
0001
0000
0000
0000
1000
0000
0200
0300
0000
0000
0200
0300
0001
0000
0000
0000
1000
0000
0000
0000
0001
0000
0200
0300
0000
0000
0200
0300
,
1000
0000
0000
0000
0001
0000
0000
0000
1000
0000
0200
0300
0000
0000
0200
0300
0001
0000
0000
0000
1000
0000
0000
0000
0001
0000
0020
0030
0000
0000
0020
0030
,
1000
0000
0000
0000
0001
0000
0000
0000
1000
0000
0020
0030
0000
0000
0020
0030
0001
0000
0000
0000
1000
0000
0000
0000
0001
0000
0020
0030
0000
0000
0020
0030
,
1000
0000
0001
0000
1000
0010
0100
0001
1000
0100
0010
0001
0010
0000
0011
0000
,
0000
0000
0001
0100
0010
0000
1010
0000
0000
0000
1000
0001
0010
0001
1000
0000
,
0010
0000
0100
0001
1000
0000
0100
0001
0100
0000
1000
0000
0001
0000
0011
0000
,
0000
0000
0010
0100
1000
0000
1010
0000
0000
0000
0010
0001
0010
0001
0010
0000
,
0100
0000
0000
0000
0010
0000
1000
0000
0001
0000
0000
0000
0010
0000
0000
0000
0110
0000
0000
0000
0000
0000
0000
0000
1000
0000
0200
0300
0000
0000
0200
0300
,
0001
0000
0000
0000
1000
0000
0000
0000
0001
0000
0200
0300
0000
0000
0200
0300
1000
0000
0000
0000
0001
0000
0000
0000
1000
0000
0200
0300
0000
0000
0200
0300
,
0001
0000
0000
0000
1000
0000
0000
0000
0001
0000
0200
0300
0000
0000
0200
0300
1000
0000
0000
0000
0001
0000
0000
0000
1000
0000
0020
0030
0000
0000
0020
0030
,
0001
0000
0000
0000
1000
0000
0000
0000
0001
0000
0020
0030
0000
0000
0020
0030
1000
0000
0000
0000
0001
0000
0000
0000
1000
0000
0020
0030
0000
0000
0020
0030
,
0001
0000
1000
0000
0001
0010
0100
1000
0001
0100
0010
1000
0010
0000
1010
0000
,
2000
3200
0320
0032
0103
0110
0000
1000
,
1001
0000
0001
0010
1000
0000
0010
0000
0002
0000
0000
0000
1003
0000
0010
0000
,
0110
0000
0100
0001
1000
0000
0100
0000
0110
0000
0010
0001
2000
0000
0000
0000
,
0000
0000
0000
0000
3001
0100
0010
1000
0001
1000
0001
0010
0200
0000
0000
0000
,
1300
0001
0200
0000
0310
0000
1000
0000
,
0001
0000
0010
0000
0100
0000
0000
0100
1000
0000
0000
0000
0002
0000
0000
0000
,
0103
0010
2000
0000
0010
0000
0001
0000
,
0001
0000
3100
0000
1000
0100
0020
0000
,
0031
1000
0020
0000
0130
0000
0001
1000
,
0001
0000
1000
0000
0100
0000
0000
0000
0010
0000
0000
0010
0002
0000
0000
0000
,
0010
1000
1000
0103
,
0010
0000
1000
0001
1000
0000
0001
0010
,
1000
0010
0001
0010
1000
0010
0001
0010
,
1000
0010
0002
0000
1003
0000
0001
1000
,
0010
0001
0010
1000
0010
0001
0010
1000
,
0100
0010
0002
0000
1003
0000
0001
0100
,
0010
1000
0100
0010
0001
0100
1000
0100
,
0001
0100
0010
1000
0100
0001
0100
1000
,
0100
0010
0001
0100
0010
1000
0200
0000
,
0310
0000
0001
1000
0001
0000
1000
0000
0001
0000
0000
0000
1002
0000
0010
0000
,
0023
0100
0230
1000
2300
0001
3020
0000
,
0130
0000
0000
0001
0000
0000
1000
0000
0000
0100
0000
0000
0010
0000
0001
0000
0010
0000
0001
0000
0010
0000
0001
0000
0010
0000
0001
0000
0010
0000
0001
0000
0000
0000
0000
0000
2001
0000
0000
0000
0000
0000
0010
0000
0000
0000
0000
0000
,
3020
0100
0230
0001
0302
1000
0023
0000
,
0130
0000
0000
1000
0000
0000
0001
0000
0000
0100
0000
0000
0010
0000
1000
0000
0010
0000
1000
0000
0010
0000
1000
0000
0010
0000
1000
0000
0010
0000
1000
0000
0000
0000
0000
0000
0002
0000
0000
0000
0000
0000
0000
0000
0000
0000
0000
0000
,
0013
0100
2000
0000
3010
0100
0001
1000
,
0100
0010
1000
0010
0100
0010
0002
0000
,
0103
0010
2000
0000
3100
0010
0001
0000
,
0101
0000
0000
0000
0110
0000
0000
0000
1010
0000
0000
0000
1000
0100
0010
0000
,
0001
0000
1000
0000
0001
0100
0010
0000
1000
0000
0001
0000
1000
0001
0010
0000
,
0001
0010
0100
0000
0010
0100
1000
0000
0001
1000
0010
0000
1000
0001
1000
0001
,
0100
0010
1000
0000
0001
1000
0001
1000
0100
0010
0001
0000
0200
0000
0000
0000
,
0300
0000
0000
1001
0000
1000
0010
0100
0001
0010
0000
0001
,
0010
0100
1000
0010
0000
1000
0010
0100
0001
2000
0000
0000
,
3001
0000
0000
1001
0000
2000
3200
2300
3200
0320
0032
0203
,
0302
0203
0320
2030
3200
2300
3200
0320
0032
0203
0000
0000
,
0310
0000
0000
1001
0000
1000
0100
0001
0100
1000
0000
0001
,
0010
1000
0010
0001
0000
1000
0100
0001
0100
2000
0000
0000
,
3001
0000
0000
1001
0000
1000
0010
0001
0010
1000
0000
0001
,
0100
1000
0100
0001
0000
1000
0010
0100
0001
1001
0000
0000
,
1000
0000
0020
0030
0000
0000
0020
0030
0100
0000
0000
0000
1000
0000
0000
0000
0001
0000
0200
0300
0000
0000
0200
0300
0010
0000
0000
0000
0001
0000
0000
0000
,
1000
0000
0020
0030
0000
0000
0020
0030
0100
0000
0000
0000
1000
0000
0000
0000
0001
0000
0200
0300
0000
0000
0200
0300
0010
0000
0000
0000
0001
0000
0000
0000
,
1000
0000
0200
0300
0000
0000
0200
0300
0010
0000
0000
0000
1000
0000
0000
0000
0001
0000
0020
0030
0000
0000
0020
0030
0100
0000
0000
0000
0001
0000
0000
0000
,
1000
0000
0200
0300
0000
0000
0200
0300
0010
0000
0000
0000
1000
0000
0000
0000
0001
0000
0010
0000
0100
0000
1000
0000
0001
0000
0100
0000
0010
0000
1000
0000
,
0010
0000
1010
0000
0000
0000
1000
0100
0010
0000
0011
0000
0000
0000
0001
1000
,
0010
1000
0001
0000
0010
0000
0100
1000
0001
0000
0100
1000
0100
0000
0001
0000
,
1000
0000
1010
0000
0000
0000
0010
0100
0001
0000
0011
0000
0000
0000
0010
1000
,
0010
1000
0010
0000
0100
0000
0010
0001
1000
0000
0010
0000
0110
0000
0000
0000
,
0001
0000
0200
0300
0000
0000
0200
0300
0010
0000
0000
0000
0001
0000
0000
0000
0100
0000
0020
0030
0000
0000
0020
0030
0100
0000
0000
0000
1000
0000
0000
0000
,
0010
0000
0200
0300
0000
0000
0200
0300
1000
0000
0000
0000
0001
0000
0000
0000
0010
0000
0200
0300
0000
0000
0200
0300
0010
0000
0000
0000
1000
0000
0000
0000
,
0001
0000
0200
0300
0000
0000
0200
0300
0010
0000
0000
0000
0001
0000
0000
0000
0100
0000
0020
0030
0000
0000
0020
0030
0100
0000
0000
0000
1000
0000
0000
0000
,
0010
0000
0200
0300
0000
0000
0200
0300
1000
0000
0000
0000
0001
0000
0000
0000
1000
0000
0010
0000
0100
0000
0001
0000
1000
0000
0100
0000
0010
0000
0001
0000
,
0010
0011
0002
0203
0320
2030
3100
0110
,
0000
0000
0001
0000
1001
0000
1000
0010
0001
0000
0010
0000
2000
0000
0000
0000
,
3001
0000
0010
0000
0110
0000
0100
1000
0001
0000
0100
0000
0110
0000
0010
1000
,
0002
0000
0000
0000
0000
0000
0000
0000
1003
0100
0010
0001
1000
0001
1000
0010
,
0100
0000
0000
0000
,
0000
0000
0000
0000
0000
0001
1001
0000
,
0000
0000
0000
0000
0000
0000
0000
0000
0000
0000
1000
0100
0020
0000
0000
0000
,
0031
1000
0010
1000
0001
0010
0001
1000
,
0010
1000
0001
0010
0001
1000
0010
0100
,
0001
1000
0100
0000
1000
0100
0010
0000
0100
0010
0001
0000
1000
0001
0100
0000
,
0001
0100
0001
0100
0010
1000
0010
1000
0001
0010
0100
1000
0001
0000
0000
0000
,
2001
0000
0000
0000
0000
0000
0000
0000
0000
0000
0000
0000
3010
0000
0000
0000
0100
0000
0000
0000
0001
0000
0000
0000
1000
0000
0000
0100
0000
0000
0010
0000
0000
0100
0000
0000
0010
0000
0000
0100
0000
0000
1000
0000
0000
0000
0000
0000
,
1002
0000
0000
0000
0000
0000
0000
0000
0000
0000
0000
0000
0013
0000
0000
0000
0100
0000
0000
0000
1000
0000
0000
0000
0001
0000
0000
0100
0000
0000
0010
0000
0000
0100
0000
0000
0010
0000
0000
0100
0000
0000
0001
0000
0000
0000
0000
0000
,
2001
0000
0000
3010
0100
0001
0010
0100
1000
0001
0100
0010
,
1000
0000
0100
0000
0010
0000
1000
0000
0001
0000
0100
0000
0010
0000
0001
0000
1000
0000
2002
0000
0000
3003
0000
0000
,
0001
1000
0001
1000
0001
1000
0001
1000
0001
1000
0001
1000
0001
1000
0001
1000
,
0001
1000
0001
1000
0001
1000
0001
1000
0001
1000
0001
1000
0001
1000
0001
1000
;

//--------------- dance-single - KAYSTAR ----------------
#NOTES:
     dance-single:
     KAYSTAR:
     Challenge:
     18:
     0,0,0,0,0:
0000
0000
0000
0000
,
0000
0000
0000
0000
,
0000
0000
0000
0000
,
0000
0000
0000
0000
,
0000
0000
0000
0000
,
0000
0000
0000
0000
,
2000
3100
0010
0001
0100
0001
2000
3100
0010
0001
0100
0001
,
2000
0000
3100
0000
0001
0000
0100
0000
1000
0000
0100
0000
0110
0000
0000
0000
1000
0001
1000
0000
0001
0000
1000
0000
,
0002
0103
0010
1000
0100
1000
0002
0103
0010
1000
0100
1000
,
0002
0000
0000
0000
0103
0000
0000
0000
1000
0000
0000
0000
0001
0000
0000
0000
0010
0000
0000
0000
1000
0000
0000
0000
1001
0000
0000
0000
0000
0000
0000
0000
0000
0000
0000
0000
0001
0000
0000
0100
0000
0000
0100
0000
0000
1000
0000
0000
,
0100
0010
0001
0000
1000
0100
0100
0001
0100
0010
1000
0000
0001
0100
0100
1000
,
0100
0010
0001
0000
1000
0100
0100
0001
0100
0010
1000
0000
0001
0010
0010
1000
,
0010
0100
0001
0000
1000
0010
0010
0001
0010
0100
1000
0000
0001
0010
0010
1000
,
0010
0100
0001
0000
1000
0100
0010
0100
1000
0001
0100
0010
1000
0000
2100
0000
,
3001
0000
0100
0010
1000
0000
2100
0000
3001
0000
1000
0010
1000
0010
0100
0000
,
0010
0000
0000
0000
0000
0000
0100
0000
0000
0001
0000
0000
0010
0000
0000
0000
0000
0000
0100
0000
1000
0000
0001
0000
0100
0000
0000
0000
0000
0000
0010
0000
0000
0000
0000
0000
1000
0000
0000
0000
0000
0000
2100
0000
0000
0000
0000
0000
,
3001
0000
0100
0010
1000
0000
2100
0000
3001
0000
1000
0010
0001
0010
1000
0000
,
0001
0000
0010
0100
1000
0000
0010
0000
0100
0001
1000
0001
1000
0100
0100
0001
,
1000
0100
0010
0000
0001
0100
0100
1000
0001
0100
0010
0000
1000
0100
0100
0001
,
1000
0100
0010
0000
0001
0100
0100
1000
0001
0100
0010
0000
1000
0010
0010
0001
,
1000
0100
0010
0000
0001
0010
0010
1000
0001
0100
0010
0000
1000
0010
0010
0001
,
1000
0100
0010
0000
0001
1000
0010
1000
0001
0010
0100
1000
0010
0000
0110
0000
,
1000
0001
1000
0001
1000
0001
1000
0001
0010
0000
0011
0000
0001
1000
0010
0000
,
1010
0000
0000
1000
0010
0100
0001
0000
0000
1000
0000
0000
2002
0000
0000
3003
0000
0000
0001
0000
0000
1100
0000
0000
,
0011
0000
1000
0001
1000
0000
0101
0000
1010
0000
0001
1000
0200
0000
0000
0000
,
0000
0000
0000
0000
0310
0001
1000
0001
1000
0010
0100
0001
0020
0000
0000
0000
,
0130
1000
0020
0000
0130
0001
1000
0100
,
0001
0000
0100
0000
1000
0000
0001
0100
0010
0000
0000
0000
2000
0000
0000
0000
,
3100
0010
0002
0000
0103
0010
1000
0100
,
0010
0000
0001
1000
0001
1000
0001
0000
1000
0000
0010
0000
0200
0000
0000
0000
,
0301
0000
0010
0000
0200
0000
0000
0000
1300
0000
0001
0000
0100
0010
1000
0000
,
0100
0010
0001
0100
1000
0100
0002
0000
,
0023
0230
2300
3001
,
1000
0001
1000
0001
1000
0000
1001
0000
1001
0000
0000
0000
0001
0000
0100
0000
,
1010
0000
0001
0010
1100
0000
0001
0100
,
1010
0000
0001
0000
1001
0000
1000
0100
,
0011
0000
1000
0010
0101
0000
1000
0100
,
0011
0000
0000
0000
1000
0000
0000
0000
0001
1000
0001
1000
0001
0000
0100
0000
,
1010
0000
1000
0100
0011
0000
0001
0010
,
1100
0000
0000
0000
0000
0000
1000
0000
0000
0010
0000
0000
0101
0000
0000
0000
0000
0000
2000
0000
0000
0000
3200
0000
,
0000
0000
0000
0000
0302
0000
0000
0000
0000
0000
0000
0000
2003
0000
0000
0000
0000
0000
0000
0000
3020
0000
0000
0000
0000
0000
0000
0000
0032
0000
0000
0000
0000
0000
0000
0000
1003
0000
0000
0100
0000
0000
0010
0000
0000
0001
0000
0000
,
1000
0000
0001
0100
0010
0000
0110
0000
1001
0000
0000
0000
1002
0000
0010
0000
,
2003
0010
0000
0010
0000
3100
0010
0001
0200
0000
0310
0000
0120
0000
1030
0000
,
0001
0000
0010
0000
0100
0000
1000
0000
0001
0100
0001
0100
0001
0100
0001
0100
0001
0100
0001
0100
0001
0000
0000
0000
2001
0000
0000
0000
0100
0000
0000
0000
,
3002
0100
0000
0100
0000
0013
0100
1000
0020
0000
0130
0000
0210
0000
0301
0000
,
1000
0000
0100
0000
0010
0000
0001
0000
1000
0010
1000
0010
1000
0010
1000
0010
1000
0010
1000
0010
1000
0000
0000
0000
0001
0000
0000
0000
1000
0000
0000
0000
,
0100
0000
0010
0001
0010
0000
0001
0000
0100
0000
0010
1000
0010
0000
1000
0000
,
0100
0000
0010
0100
0001
0000
0100
0000
0010
0000
0100
0000
1000
0000
0001
0000
,
0100
0000
0010
1000
0010
0000
1000
0000
0100
0000
0010
0001
0010
0000
0001
0000
,
1000
0010
0100
0000
0010
0100
0001
0000
0020
0000
0000
0000
0130
1000
0001
1000
,
0010
0100
0001
0000
0100
0001
1000
0001
0010
0100
1000
0000
0100
1000
0001
1000
,
0010
0100
0001
0000
0100
0001
1000
0001
0010
0100
1000
0000
0001
0100
0001
0100
,
0010
1000
0010
1000
0001
0010
0100
1000
0001
0100
0010
1000
0200
0000
0000
0000
,
0310
0000
0000
0002
0103
0010
1000
0100
1000
0002
0103
0010
,
1000
0000
0100
0000
1000
0000
0002
0000
0103
0000
1000
0000
0100
0000
0001
0000
0100
0000
0110
0000
0000
0000
0001
1000
,
0001
1000
0001
2000
3200
0302
0203
2300
3002
2003
3020
0032
,
0023
2030
3002
2003
3200
0302
2003
3020
0032
2003
0000
0000
,
3001
0000
0000
0000
0000
0000
2000
0000
3010
0000
0100
0000
0001
0000
0000
1000
0001
1000
0002
0000
0013
0000
0100
0000
,
1000
0000
0000
0001
1000
0001
2000
0000
3010
0000
0100
0000
0001
0000
0000
1000
0100
0010
0001
0000
0000
0000
1000
0001
,
1000
0000
0001
0000
1000
0000
0020
0000
0130
0000
0001
0000
1000
0000
0000
0001
1000
0001
0020
0000
0130
0000
1000
0000
,
0001
0000
0000
1000
0001
1000
0020
0000
0130
0000
0001
0000
0010
0000
0100
0000
1000
0000
1001
0000
0000
0000
0000
0000
,
1000
0100
0100
0010
1000
0001
1000
0000
0001
0100
0100
0010
0001
1000
0001
0000
,
1000
0100
0100
0010
1000
0001
1000
0000
0001
0100
0100
0010
0001
1000
0001
0000
,
1000
0010
0010
0100
0010
0001
1000
0000
0001
0010
0010
0100
0010
1000
0001
0000
,
1000
0010
0010
0100
0010
0001
1000
0000
0001
0100
0010
0100
0001
1000
0100
0010
,
0001
0000
0102
0000
1003
0000
0100
0010
0001
0000
0102
0000
1003
0000
0001
0010
,
0001
0000
0000
0010
0000
0000
0100
0000
0000
0000
0000
0000
0010
0000
0000
0000
0000
0000
0100
0000
0000
1000
0000
0000
0010
0000
0000
0000
0000
0000
0100
0000
0001
0000
1000
0000
0100
0000
0000
0000
0000
0000
0010
0000
0000
0000
0000
0000
,
0001
0000
0102
0000
1003
0000
0100
0010
0001
0000
0102
0000
1003
0000
0001
0010
,
1000
0010
0001
0000
1000
0000
0010
0100
0001
0000
0010
0000
0100
1000
0001
1000
,
0001
0100
0100
0010
0001
1000
0100
0000
1000
0100
0100
0010
1000
0001
0010
0000
,
0001
0010
0010
0100
0001
1000
0010
0000
1000
0010
0010
0100
1000
0001
0100
0000
,
0010
0100
0100
0010
0100
1000
0001
0000
0010
0100
0100
0010
0100
0001
1000
0000
,
0010
0100
0100
0010
0100
1000
0001
0000
1000
0001
0010
0001
1000
0010
0100
0001
,
0010
0000
0110
0000
0001
1000
0001
1000
0001
1000
0001
1000
0010
0000
1010
0000
,
1000
0000
0000
0001
0000
0000
0010
0000
0000
0000
0000
0000
0011
0000
0000
0000
0000
0000
0001
0000
0010
0000
0100
0000
1000
0000
0000
0000
0000
0000
0001
0000
0000
0000
0000
0000
2002
0000
0000
0000
0000
0000
3003
0000
0000
0000
0000
0000
,
1000
0000
0101
0000
1010
0000
0001
1000
0001
0000
1100
0000
0011
0000
1000
0001
,
0200
0000
0000
0000
0000
0000
0000
0000
0310
1000
0001
1000
0001
0010
0100
1000
,
0010
0000
0000
0000
,
0000
0000
0000
0000
0000
1000
1001
0000
,
0000
0000
0000
0000
0000
0000
0000
0000
0000
0000
0000
0000
0000
0000
0000
0001
1000
0001
0010
0000
0000
0100
0000
0000
,
1000
0010
0100
0001
1000
0010
0100
0000
0001
0010
0100
1000
0001
0010
0100
0000
,
1000
0100
0010
0001
1000
0100
0010
0000
0001
0100
0010
1000
0001
0100
0010
0000
,
1000
0001
0010
0001
1000
0001
0010
0001
1000
0010
1000
0001
1000
0010
1000
0001
,
1000
0100
1000
0100
0010
0001
0010
0001
1000
0010
0100
0001
0010
0000
0000
0000
,
1001
0000
0000
0000
0000
0000
0000
0000
0001
0000
0000
0000
0100
0000
0000
0000
0010
0000
0000
0000
1000
0000
0000
0000
0001
0000
0000
0010
0000
0000
0100
0000
0000
0010
0000
0000
1000
0000
0000
0010
0000
0000
1000
0000
0000
0010
0000
0000
,
0001
0000
0000
0000
0000
0000
0000
0000
1000
0000
0000
0000
0100
0000
0000
0000
0010
0000
0000
0000
0001
0000
0000
0000
1000
0000
0000
0010
0000
0000
0100
0000
0000
0010
0000
0000
0001
0000
0000
0010
0000
0000
0001
0000
0000
0010
0000
0000
,
1000
0000
0001
0100
0010
1000
0001
0010
0010
1000
0100
0100
,
0001
0000
1000
0000
0010
0000
0010
0000
0001
0000
0100
0000
0100
0000
1000
0000
0001
0000
2002
0000
0000
3003
0000
0000
,
1000
0001
0100
0010
1000
0001
1000
0100
0010
0001
1000
0001
0100
0010
1000
0001
,
1000
0100
0010
0001
1000
0001
0100
0010
1000
0001
1000
0100
0010
0001
1000
0001
;

//--------------- dance-double - KAYSTAR ----------------
#NOTES:
     dance-double:
     KAYSTAR:
     Easy:
     9:
     0,0,0,0,0:
00000000
00000000
00000000
00000000
,
00000000
00000000
00000000
00000000
,
00000000
00000000
00000000
00000000
,
00000000
00000000
00000000
00000000
,
00000000
00000000
00000000
00000000
,
00000000
00000000
00000000
00000000
,
10000000
00010000
00100000
00001000
,
00010000
00000100
00001000
00000000
,
00000001
00001000
00000010
00010000
,
00001000
01000000
00020000
10030000
,
00010000
00000000
00100000
00010000
00100000
00000000
00001000
00000000
,
00010000
00000000
00001000
00010000
00001000
00000000
01000000
00000000
,
00010000
00000000
01000000
00010000
01000000
00000000
00100000
00000000
,
10000000
00000000
00010000
10000000
00010000
10000000
00010000
00000000
,
00100000
00001000
00000000
00021000
,
00000000
00031000
00000000
00010000
,
00000100
00001000
00000000
00000020
,
00000000
00000130
00000000
00000001
,
00001000
00000000
00000100
00001000
00000100
00000000
00010000
00000000
,
00001000
00000000
00010000
00001000
00010000
00000000
00000010
00000000
,
00001000
00000000
00000010
00001000
00000010
00000000
00000100
00000000
,
00000001
00000000
00001000
00000001
00001000
00000001
00001000
00000000
,
00000000
00000000
00000000
00000000
00000000
00000001
00000000
00001000
,
00000001
00000000
00000010
00000000
00000100
00000000
00010000
00010000
,
00000000
00000000
00001000
00001000
00000000
00000000
00022000
00000000
,
00000000
00000000
00033000
00001000
,
00000000
00002000
00000000
00000000
,
01003000
00010000
00100000
00001000
,
00000000
00002000
00000000
00000000
,
00000000
00003000
00000000
00010000
,
00000000
00020000
00000000
00000000
,
00030100
00001000
00000010
00020000
,
00000000
00000000
00000000
00000000
,
00000000
00031000
00000000
00010000
,
00000100
00001000
00000001
00000100
,
00000010
00020000
00000000
00031000
,
01000000
00010000
10000000
01000000
,
00100000
00002000
00000000
00013000
,
00000010
00001000
00000000
00000100
,
00010000
00001000
00000000
00100000
,
00001000
00010000
00000000
00001000
,
01000000
00010000
00000000
20000000
,
00000000
31000000
00100000
00001000
,
00010000
00001000
00020000
00000000
00030000
00000000
00002000
00000000
,
00000000
00013000
00000100
00000010
,
00000001
00001000
00000002
00000000
00000003
00000000
00001000
00000000
,
00000000
00000010
00000000
00010000
,
00000000
00010000
00000000
00001000
,
00000000
01000000
00000000
00010000
,
00000000
00010000
00000000
10000000
,
00010000
00100000
00001000
00010000
,
00001000
00010000
00000010
00001000
,
00000100
00000010
00000001
00002000
,
00003000
00000001
00000000
00000001
,
00000000
00000001
00000000
00000000
,
00000000
00001000
00000000
00001000
,
00000000
00001000
00000000
00000000
,
00000000
00000001
00001000
00000010
,
00010000
00001000
01000000
00010000
,
00000000
10000000
00010000
00100000
,
00001000
00010000
00000100
00002000
,
00003001
00000000
00001000
00000000
00000001
00000100
00000010
00000000
,
00010000
00000000
00001000
00000000
00010000
00000100
00001000
00000000
,
00000001
00000000
00001000
00000000
00000001
00000100
00000010
00000000
,
00010000
00000000
00000100
00000000
00001000
00000001
00001000
00000001
,
00001000
00000010
00010000
00000000
,
00012000
00000000
00013000
00000000
,
00001000
01000000
00010000
00000000
,
00200000
00000000
01300000
00000000
,
10000000
00000000
00010000
00000000
10000000
00100000
01000000
00000000
,
00001000
00000000
00010000
00000000
00001000
00100000
00010000
00000000
,
10000000
00000000
00010000
00000000
10000000
00100000
01000000
00000000
,
00001000
00000000
00100000
00000000
00010000
10000000
00010000
10000000
,
00010000
00000000
00000000
00000000
00000000
00000000
00000000
10000000
,
00000000
00010000
10000000
00000000
00100000
00000000
01000000
00000000
,
00001000
00001000
00000000
00000000
00010000
00010000
00000000
00000000
,
00022000
00000000
00000000
00033000
,
00011000
00000000
00000000
00000000
,
00000000
00000000
00000000
00011000
,
00000000
00000000
00000000
00000000
,
00010000
00010000
00000100
00000100
,
00001000
00001000
00000001
00000001
,
00000100
00000001
00000100
00000000
00000010
00001000
00000010
00000000
,
00010000
00001000
00010000
00001000
00010000
00001000
00010000
00000000
,
00022000
00000000
00033000
00000000
,
02200000
00000000
03300000
00000000
,
00010000
00000000
10000000
01000000
00000000
10000000
01000000
00000000
00100000
00001000
00000000
00100000
,
00001000
00000000
00010000
00001000
00000000
00010000
00001000
00000000
00000000
00010000
00000000
00000000
,
00022000
00000000
00000000
00000000
,
00000000
00000000
00000000
00000000
,
00033000
00000000
00000000
00000000
;

//--------------- dance-double - KAYSTAR ----------------
#NOTES:
     dance-double:
     KAYSTAR:
     Medium:
     14:
     0,0,0,0,0:
00000000
00000000
00000000
00000000
,
00000000
00000000
00000000
00000000
,
00000000
00000000
00000000
00000000
,
00000000
00000000
00000000
00000000
,
00000000
00000000
00000000
00000000
,
00000000
00000000
00000000
00000000
,
10020000
00000000
00000000
01030000
00000000
00100000
20000000
00000000
00000000
31000000
00000000
00100000
,
00020000
00000000
00000000
01030000
00000000
00001000
00010000
00000000
00000010
00001000
00000010
00000100
,
00000002
00000000
00000000
00000013
00000000
00000100
00002000
00000000
00000000
00003010
00000000
00000100
,
00000002
00000000
00000000
00000000
00001003
00000000
00000000
00000000
00001001
00000000
00000000
00000000
00000001
00000000
00000000
00000001
,
00000010
00000000
00000100
00000000
00001000
00000000
00000000
00001000
00000010
00000000
00010000
00000000
00001000
00000000
00000000
00001000
,
01000000
00000000
00010000
00000000
10000000
00000000
01000000
00000000
00100000
00000000
00010000
00000000
10000000
00000000
00000000
10000000
,
00100000
00000000
01000000
00000000
00010000
00000000
00000000
00010000
00100000
00000000
00001000
00000000
00010000
00000000
00000000
00010000
,
00000100
00001000
00000001
00000100
00001000
00000100
00000001
00000101
,
00000000
00000010
00001000
00001010
00000000
00000002
00000000
00000013
,
00000100
00010000
00001000
00000100
00000010
00010000
00001000
00011000
,
00000000
00010000
00001000
00011000
00000000
00020000
00000000
01030000
,
10000000
00000000
00100000
00000000
01000000
00000000
00010000
00000000
10010000
00000000
00000000
00000000
10000000
00000000
00000000
10000000
,
01000000
00000000
00100000
00000000
00010000
00000000
00000000
00010000
01000000
00000000
00001000
00000000
00010000
00000000
00000000
00010000
,
00000010
00000000
00001000
00000000
00000001
00000000
00000010
00000000
00000100
00000000
00001000
00000000
00000001
00000000
00000000
00000001
,
00000100
00000000
00000010
00000000
00001000
00000000
00000000
00001000
00000100
00000000
00010000
00000000
00001000
00000000
00000000
00001000
,
00100000
00010000
10000000
00100000
01000000
00010000
20000000
32000000
,
03020000
02030000
23000000
32000000
03010000
00002000
00000000
01003000
,
00100000
00000000
10000000
00010000
10000000
00000000
00010000
00000000
10010000
00000000
00000000
00000000
10000000
00000000
01000000
00000000
,
00020000
00000000
00031000
00000010
00000001
00000000
00002002
00000000
,
00000000
00000000
00003003
00000002
,
00000103
00000010
00002000
00000000
00000000
00000000
00000000
00000000
,
00003010
00000100
00001000
00000000
00011000
00000000
00020000
00000000
,
00031000
00010000
00002000
00000000
00000000
00000000
00000000
00000000
,
00000000
00000000
00000000
00000000
01003000
00010000
20000000
00000000
,
31000000
00100000
00020000
00000000
00000000
00000000
00000000
00000000
,
00130000
01000000
00010000
00000000
00011000
00000000
00022000
00000000
,
00000000
00000000
00000000
00000000
,
00033000
00000000
00000000
00010000
00001000
00000000
00010000
00000100
,
00010000
00000100
00001000
00000100
00000010
00000000
00000001
00000100
,
00000010
00000100
00001000
00000000
00011000
00000000
00001000
01000000
,
00001000
01000000
00010000
01000000
00100000
00000000
10000000
01000000
,
00100000
01000000
00010000
00000000
00011000
00000000
00010000
00000100
,
00001000
00000000
00000010
00010000
00001000
00000000
00010000
00001000
,
01000000
00000000
00010000
00100000
00001000
00000000
00102000
00000000
,
00013000
00021000
00030100
00002002
,
00003003
00001000
00000010
00000100
00000001
00000000
00001002
00000000
,
00000023
00000230
00020300
00032000
,
00013000
00100000
20000000
00000000
30000000
00000000
20010000
00000000
,
32000000
03200000
00302000
00023000
,
00031000
00000100
00000002
00000000
00000003
00000000
00001000
00000000
,
00001000
00000000
00000001
00000000
00000001
00000000
00000010
00000100
,
00001000
00000000
00000010
00000100
00001000
00000000
00010000
00000000
,
00010000
00000000
00001000
00000000
00001000
00000000
00010000
01000000
,
00100000
00000000
00010000
01000000
00100000
00000000
10000000
01000000
,
00100000
00000000
00010000
01000000
00100000
00000000
10000000
01000000
,
00100000
00010000
01000000
00001000
00010000
00001000
00010000
00000010
,
00001000
00000100
00000010
00000001
00001000
00000000
00002002
00000000
,
00003003
00000000
00000000
00002001
00000000
00000000
00003100
00000000
00000010
00000002
00000000
00000000
,
00000103
00000000
00000010
00002000
00000000
00000000
00003100
00000000
00010000
00001000
00000000
00100000
,
00010000
00100000
01000000
20000000
00000000
00000000
30100000
00000000
01000000
00020000
00000000
00000000
,
00130000
00000000
01000000
20000000
00000000
00000000
30100000
00000000
01000000
00020000
00000000
00000000
,
10030000
00000000
00000000
10010000
00000000
00010000
00100000
00001000
00100000
00001000
00000000
00010000
,
00000100
00010000
00000100
00001000
00000000
00000001
00000010
00000100
00001000
00000002
00000000
00000000
,
00001003
00000000
00000000
00001001
00000000
00001000
00000010
00010000
00000010
00010000
00000000
00001000
,
01000000
00001000
01000000
00020000
00000000
00000000
10030000
00000000
00000000
10010000
00000000
00000000
,
10000000
00000000
00000000
10000000
00010000
00000000
01000000
00000000
00001000
00000000
00000000
00001000
00010000
00000000
01000000
00000000
,
00100000
00000000
00000000
00100000
00001000
00000000
00010000
00000000
00000100
00000000
00001000
00000000
00000010
00000000
00000100
00000000
,
00000001
00000000
00000000
00000001
00001000
00000000
00000100
00000000
00010000
00000000
00000000
00010000
00001000
00000000
00000100
00000000
,
00001000
00000000
00000000
00001000
00010000
00000000
00100000
00000000
10000000
00000000
01000000
00000000
00010000
00000000
01000000
00000000
,
10000000
11000000
00000000
00100000
00010000
00110000
00000000
20000000
,
00000000
30100000
01000000
00001000
00010000
01000000
00100000
00001000
,
00010000
00011000
00000000
00001000
00010000
00011000
00000000
00002000
,
00000000
00003100
00000001
00000010
00000100
00001000
00001001
00000000
,
00000001
00000000
00000000
00000001
00001000
00000000
00000010
00000000
00010000
00000000
00000000
00010000
00001000
00000000
00000010
00000000
,
00000100
00000000
00000000
00000100
00010000
00000000
00001000
00000000
00100000
00000000
00010000
00000000
01000000
00000000
00100000
00000000
,
10000000
00000000
00000000
10000000
00010000
00000000
00100000
00000000
00001000
00000000
00000000
00001000
00010000
00000000
00100000
00000000
,
00010000
00000000
00000000
00010000
00001000
00000000
00000100
00000000
00000001
00000000
00000010
00000000
00000100
00000000
00001000
00000000
,
00000002
00000203
00002300
00003200
00000302
00000203
00001300
00020000
,
00000000
00000000
00030100
00000000
00000010
00000000
00000001
00001000
00000001
00000000
00001000
00000000
00001001
00000000
00000000
00000000
,
00000001
00000100
00002000
00000000
00013000
00100000
10000000
00000000
,
20020000
00000000
00000000
30030000
,
10010000
00000000
00000000
00000000
,
00000000
00000000
00000000
00000000
00000000
00001000
00011000
00000000
,
00000000
00000000
00000000
00000000
00000000
00010000
00000100
00000010
,
00000001
00000001
00001000
00001000
,
00000001
00000001
00001000
00001000
,
00000001
00000100
00000010
00001000
00000100
00010000
00001000
00010000
,
00001000
00100000
00010000
01000000
00100000
10000000
00010000
00000000
,
20010000
32000000
03020000
00030000
,
00012000
00003200
00000302
00000003
,
00001001
00000000
00000000
00001000
00000100
00000010
00000001
00001000
00000001
00001000
00000010
00010000
,
00001000
01000000
00010000
10000000
00010000
10000000
01000000
00100000
00001000
00010000
00000000
00000000
,
00022000
00000000
00000000
00000000
,
00000000
00000000
00000000
00000000
,
00033000
00000000
00000000
00000000
;

//--------------- dance-double - KAYSTAR ----------------
#NOTES:
     dance-double:
     KAYSTAR:
     Hard:
     17:
     0,0,0,0,0:
00000000
00000000
00000000
00000000
,
00000000
00000000
00000000
00000000
,
00000000
00000000
00000000
00000000
,
00000000
00000000
00000000
00000000
,
00000000
00000000
00000000
00000000
,
00000000
00000000
00000000
00000000
,
10010000
00000000
10000000
00010000
10000000
01000000
00100000
00000000
00010000
00100000
00001000
00010000
,
00000100
00000000
00001000
00000100
00000010
00000001
00000200
00000000
00000000
00000310
00000000
00000000
,
00001001
00000000
00000001
00001000
00000001
00000100
00000010
00000000
00001000
00000010
00010000
00001000
,
01000000
00000000
00000000
00000000
00000000
00000000
00000000
00000000
00000000
00000000
00000000
00000000
00000000
00000000
00000000
00000000
00010000
00000000
00000000
00000000
00000000
00000000
00000000
00000000
10000000
00000000
00000000
00000000
00000000
00000000
00000000
00000000
00010000
00000000
00000000
00000000
00000000
00000000
00000000
00000000
10000000
00000000
00000000
00000000
00000000
00000000
00000000
00000000
10010000
00000000
00000000
00000000
00000000
00000000
00000000
00000000
00000000
00000000
00000000
00000000
00000000
00000000
00000000
00000000
00000000
00000000
00000000
00000000
00000000
00000000
00000000
00000000
10000000
00000000
00000000
00000000
00000000
00000000
02000000
00000000
00000000
03000000
00000000
00000000
00000000
00000000
00000000
00000000
00000000
00000000
02000000
00000000
00000000
03000000
00000000
00000000
,
00010000
00000000
00000000
00000000
10000000
00000000
00000000
00000000
00010000
00000000
02000000
03000000
00000000
00000000
02000000
03000000
10000000
00000000
00000000
00000000
00010000
00000000
00000000
00000000
10000000
00000000
01000000
00000000
00000000
00000000
00100000
00000000
,
00010000
00000000
00000000
00000000
00100000
00000000
00000000
00000000
00001000
00000000
00010000
00000000
00000000
00000000
00000100
00000000
00001000
00000000
00000000
00000000
00000001
00000000
00000000
00000000
00001000
00000000
00000200
00000300
00000000
00000000
00000200
00000300
,
00000001
00000000
00000000
00000000
00001000
00000000
00000000
00000000
00000001
00000000
00000200
00000300
00000000
00000000
00000200
00000300
00001000
00000000
00000000
00000000
00000001
00000000
00000000
00000000
00001000
00000000
00000100
00000000
00000000
00000000
00000010
00000000
,
00000001
00000000
00001000
00000000
00000010
00010000
00000010
00010000
00001000
01000000
00001000
01000000
00010000
00000000
01010000
00000000
,
00000000
00000000
10000000
00010000
10000000
00000000
10010000
00000000
00000000
00000000
00010000
00100000
00001000
00010000
00001000
00000000
,
00010000
00000000
00001000
00010000
00100000
00000000
00010000
00001000
00010000
00000000
00000100
00000000
00001000
00000000
00001100
00000000
,
00000000
00000000
00000001
00001000
00000001
00000000
00001001
00000000
00000000
00000000
00001000
00000010
00000100
00000001
00000010
00000000
,
00000100
00000000
00000000
00000000
00010000
00000000
00001000
00000000
00000100
00000000
00000000
00000000
00000001
00000000
00000000
00000000
00001001
00000000
00000000
00000000
00000000
00000000
00000000
00000000
00000001
00000000
00000020
00000030
00000000
00000000
00000020
00000030
,
00001000
00000000
00000000
00000000
00000001
00000000
00000000
00000000
00001000
00000000
00000020
00000030
00000000
00000000
00000020
00000030
00000001
00000000
00000000
00000000
00001000
00000000
00000000
00000000
00000001
00000000
00000010
00000000
00000000
00000000
00000100
00000000
,
00001000
00000000
00000000
00000000
00000100
00000000
00000000
00000000
00010000
00000000
00001000
00000000
00000000
00000000
00100000
00000000
00010000
00000000
00000000
00000000
10000000
00000000
00000000
00000000
00010000
00000000
00200000
00300000
00000000
00000000
00200000
00300000
,
10000000
00000000
00000000
00000000
00010000
00000000
00000000
00000000
10000000
00000000
00200000
00300000
00000000
00000000
00200000
00300000
00010000
00000000
00000000
00000000
10000000
00000000
00000000
00000000
00010000
00000000
00100000
00000000
00000000
00000000
01000000
00000000
,
10000000
00000000
00010000
00000000
01000000
00001000
01000000
00001000
00010000
00000010
00010000
00000010
00001000
00000000
00001010
00000000
,
00000020
00002030
00003002
00000023
00000130
00000110
00000000
00001000
,
00001001
00000000
00000001
00000100
00001000
00000000
00010000
00000000
00011000
00000000
00000000
00000000
00001000
00000000
00010000
00000000
,
00010010
00000000
00000010
00010000
00001000
00000000
00100000
00000000
00101000
00000000
00001000
00010000
00002000
00000000
00000000
00000000
,
00000000
00000000
00000000
00000000
01003000
00010000
01000000
00100000
10000000
00010000
10000000
00010000
00200000
00000000
00000000
00000000
,
01300000
10000000
00200000
00000000
01300000
00000000
00010000
00000000
,
10000000
00000000
01000000
00000000
00100000
00000000
00000000
00100000
00001000
00000000
00000000
00000000
00020000
00000000
00000000
00000000
,
00031000
00010000
00002000
00000000
01000000
00000000
00010000
00000000
,
00100000
00000000
00013000
00000000
00001000
00010000
00000020
00000000
,
00000130
00000001
00000020
00000000
00000130
00000000
00001000
00000001
,
00001000
00000000
00000001
00000000
00000100
00000000
00000000
00000000
00000010
00000000
00000000
00000010
00020000
00000000
00000000
00000000
,
00000010
00001000
00000100
00031000
,
01000000
00000000
00010000
10000000
00010000
00000000
10000000
01000000
,
00010000
00001000
00010000
00100000
10000000
00010000
10000000
01000000
,
00100000
00001000
00020000
00000000
00031000
00000000
00010000
00001000
,
00000100
00000001
00001000
00000001
00000010
00000100
00010000
00001000
,
00000100
00000001
00002000
00000000
00003001
00000000
00001000
00000100
,
00000010
00000001
00001000
00000010
00000100
00001000
00010000
00100000
,
01000000
00010000
10000000
01000000
00100000
00001000
00010000
00000100
,
00000010
00000100
00010000
00001000
00000100
00000001
00000020
00000000
,
00000000
00000000
00000130
00001000
00000001
00000000
00001000
00000000
00001001
00000000
00000000
00000000
00000002
00000000
00000000
00000000
,
00000203
00020300
02030000
03200000
,
10300000
00000000
00000000
00010000
00000000
00000000
00100000
00000000
00000000
01000000
00000000
00000000
10000000
00000000
00010000
00000000
01000000
00000000
00010000
00000000
01000000
00000000
00100000
00000000
10000000
00000000
00100000
00000000
10000000
00000000
00100000
00000000
00000000
00000000
00000000
00000000
20000000
00000000
00000000
00000000
00000000
00000000
00000000
00000000
00000000
00000000
00000000
00000000
,
32000000
03002000
00003200
00000320
,
00000031
00000000
00000000
00001000
00000000
00000000
00000010
00000000
00000000
00000100
00000000
00000000
00000001
00000000
00001000
00000000
00000100
00000000
00001000
00000000
00000100
00000000
00000010
00000000
00000001
00000000
00000010
00000000
00000001
00000000
00000010
00000000
00000000
00000000
00000000
00000000
00000002
00000000
00000000
00000000
00000000
00000000
00000000
00000000
00000000
00000000
00000000
00000000
,
00000103
00000010
00002000
00000000
00003100
00000010
00000001
00001000
,
00000010
00010000
00001000
00010000
00001000
01000000
00020000
00000000
,
00130000
01000000
20000000
00000000
30100000
01000000
00010000
00000000
,
00110000
00000000
00000000
00000000
01100000
00000000
00000000
00000000
11000000
00000000
00000000
00000000
10000000
00100000
01000000
00000000
,
00010000
00000000
10000000
00000000
00010000
00100000
01000000
00000000
10000000
00000000
00010000
00000000
10000000
00010000
01000000
00000000
,
00010000
01000000
00100000
00000000
01000000
00100000
10000000
00000000
00010000
10000000
01000000
00000000
00100000
00001000
00100000
00001000
,
00010000
00001000
00010000
00000000
00001000
00010000
00001000
00010000
00000100
00010000
00000100
00000000
00002000
00000000
00000000
00000000
,
00003000
00000000
00000000
00001001
00000000
00000001
00001000
00000001
00000100
00000010
00000000
00001000
,
00000010
00010000
00001000
01000000
00000000
00010000
01000000
00100000
10000000
02000000
00000000
00000000
,
03100000
00000000
00000000
10010000
00000000
20000000
32000000
03200000
00320000
02030000
03002000
00023000
,
00032000
00023000
00030020
00000230
00000302
00002003
00003200
00000320
00000032
00000203
00000000
00000000
,
00000310
00000000
00000000
00001001
00000000
00000001
00000100
00000010
00001000
00010000
00000000
00001000
,
00010000
01000000
00100000
10000000
00000000
00010000
00100000
01000000
10000000
00200000
00000000
00000000
,
01300000
00000000
00000000
10010000
00000000
10000000
01000000
00100000
00010000
00001000
00000000
00010000
,
00001000
00000100
00000010
00000001
00000000
00001000
00000010
00000100
00000001
00001001
00000000
00000000
,
00000001
00000000
00000020
00000030
00000000
00000000
00000020
00000030
00000100
00000000
00000000
00000000
00000001
00000000
00000000
00000000
00001000
00000000
00000200
00000300
00000000
00000000
00000200
00000300
00000010
00000000
00000000
00000000
00001000
00000000
00000000
00000000
,
00000010
00000000
00002000
00003000
00000000
00000000
00002000
00003000
00010000
00000000
00000000
00000000
00001000
00000000
00000000
00000000
00100000
00000000
00020000
00030000
00000000
00000000
00020000
00030000
00001000
00000000
00000000
00000000
01000000
00000000
00000000
00000000
,
00010000
00000000
02000000
03000000
00000000
00000000
02000000
03000000
00100000
00000000
00000000
00000000
00010000
00000000
00000000
00000000
10000000
00000000
00200000
00300000
00000000
00000000
00200000
00300000
01000000
00000000
00000000
00000000
10000000
00000000
00000000
00000000
,
00010000
01000000
00000000
00100000
10000000
00000000
00010000
00000000
00100000
00001000
00100000
00001000
00010000
00000100
00010000
00000100
,
00001000
00000000
00001100
00000000
00000000
00000000
00000001
00001000
00000001
00000000
00001001
00000000
00000000
00000000
00001000
00000010
,
00010000
00001000
00010000
00000000
00001000
00000000
00010000
00001000
00000010
00000000
00001000
00010000
00001000
00000000
01000000
00000000
,
00010000
00000000
01010000
00000000
00000000
00000000
10000000
00010000
10000000
00000000
10010000
00000000
00000000
00000000
00010000
00100000
,
01000000
10000000
00100000
00000000
01000000
00000000
00001000
00010000
01000000
00000000
10000000
00000000
10010000
00000000
00000000
00000000
,
10000000
00000000
02000000
03000000
00000000
00000000
02000000
03000000
00100000
00000000
00000000
00000000
10000000
00000000
00000000
00000000
00010000
00000000
00200000
00300000
00000000
00000000
00200000
00300000
01000000
00000000
00000000
00000000
00010000
00000000
00000000
00000000
,
01000000
00000000
00020000
00030000
00000000
00000000
00020000
00030000
00001000
00000000
00000000
00000000
00010000
00000000
00000000
00000000
00000100
00000000
00002000
00003000
00000000
00000000
00002000
00003000
00010000
00000000
00000000
00000000
00000010
00000000
00000000
00000000
,
00001000
00000000
00000020
00000030
00000000
00000000
00000020
00000030
00000100
00000000
00000000
00000000
00001000
00000000
00000000
00000000
00000001
00000000
00000200
00000300
00000000
00000000
00000200
00000300
00000010
00000000
00000000
00000000
00000001
00000000
00000000
00000000
,
00001000
00000010
00000000
00000100
00000001
00000000
00001000
00000000
00000100
00010000
00000100
00010000
00001000
00100000
00001000
00100000
,
00010000
00110000
00200000
00320000
20030000
30200000
01300000
01100000
,
00000000
00000000
00010000
00000000
10010000
00000000
10000000
01000000
00010000
00000000
00001000
00000000
00011000
00000000
00000000
00000000
,
00010000
00000000
00001000
00000000
00101000
00000000
00100000
00001000
00010000
00000000
00000010
00000000
00010010
00000000
00010000
00001000
,
00020000
00000000
00000000
00000000
00000000
00000000
00000000
00000000
00030100
00001000
00000100
00000010
00000001
00001000
00000001
00001000
,
00000010
00000000
00000000
00000000
,
00000000
00000000
00000000
00000000
00000000
00010000
00011000
00000000
,
00000000
00000000
00000000
00000000
00000000
00000000
00000000
00000000
00000000
00000000
00001000
01000000
00020000
00000000
00000000
00000000
,
10030000
01000000
00100000
00010000
01000000
00100000
00010000
00001000
,
00100000
00010000
00001000
00000100
00010000
00001000
00000100
00000010
,
00001000
00000001
00000010
00000000
00000001
00000010
00000100
00000000
00000010
00000100
00001000
00000000
00000001
00001000
00000010
00000000
,
00001000
00000010
00010000
00001000
00010000
00001000
01000000
00010000
10000000
01000000
00100000
00010000
10000000
00000000
00000000
00000000
,
20010000
30200000
00302000
00003000
,
00001002
00000023
00020030
00030000
,
10010000
00000000
00000000
10000000
00100000
01000000
00010000
00100000
00001000
00010000
00000100
00001000
,
00000010
00000000
00000100
00000000
00000001
00000000
00000010
00000000
00000100
00000000
00001000
00000000
00000010
00000000
00000100
00000000
00001000
00000000
00020000
00000000
00000000
00030000
00000000
00000000
,
00001000
00010000
00001000
00010000
00001000
00010000
00001000
00010000
00001000
00010000
00001000
00010000
00001000
00010000
00001000
00010000
,
00001000
00010000
00001000
00010000
00001000
00010000
00001000
00010000
00001000
00010000
00001000
00010000
00001000
00010000
00001000
00010000
;

//--------------- dance-double - KAYSTAR ----------------
#NOTES:
     dance-double:
     KAYSTAR:
     Challenge:
     18:
     0,0,0,0,0:
00000000
00000000
00000000
00000000
,
00000000
00000000
00000000
00000000
,
00000000
00000000
00000000
00000000
,
00000000
00000000
00000000
00000000
,
00000000
00000000
00000000
00000000
,
00000000
00000000
00000000
00000000
,
00020000
00030100
00001000
00000100
00010000
00001000
00020000
00030010
00001000
00000010
00010000
00001000
,
00020000
00000000
00030100
00000000
00001000
00000000
00000100
00000000
00000010
00000000
00000001
00000000
00001001
00000000
00000000
00000000
00001000
00000001
00001000
00000000
00000010
00000000
00010000
00000000
,
00002000
01003000
00010000
01000000
00001000
00010000
00002000
00103000
00010000
00100000
00001000
00010000
,
00002000
00000000
00000000
00000000
01003000
00000000
00000000
00000000
00010000
00000000
00000000
00000000
01000000
00000000
00000000
00000000
00100000
00000000
00000000
00000000
10000000
00000000
00000000
00000000
10010000
00000000
00000000
00000000
00000000
00000000
00000000
00000000
00000000
00000000
00000000
00000000
10000000
00000000
00000000
01000000
00000000
00000000
01000000
00000000
00000000
00010000
00000000
00000000
,
01000000
00100000
10000000
00000000
00010000
01000000
01000000
10000000
01000000
00100000
00010000
00000000
00100000
00010000
00010000
00001000
,
00000000
00010000
00001000
00000000
00010000
00001000
00001000
00000010
00000000
00000100
00000001
00000000
00001000
00000100
00000100
00000001
,
00000100
00000010
00001000
00000000
00000001
00000100
00000100
00001000
00000100
00000010
00000001
00000000
00001000
00000100
00000100
00000001
,
00000000
00000100
00000010
00000000
00000100
00001000
00000100
00001000
00010000
00100000
00010000
00100000
10000000
00000000
10010000
00000000
,
00010000
00000000
00100000
00001000
00010000
00000000
00011000
00000000
00001000
00000000
00010000
00000100
00000010
00000000
00000100
00000000
,
00010000
00000000
00000000
00000000
00000000
00000000
00001000
00000000
00000000
00000100
00000000
00000000
00000010
00000000
00000000
00000000
00000000
00000000
00001000
00000000
00000001
00000000
00001000
00000000
00000100
00000000
00000000
00000000
00000000
00000000
00000010
00000000
00000000
00000000
00000000
00000000
00000001
00000000
00000000
00000000
00000000
00000000
00001001
00000000
00000000
00000000
00000000
00000000
,
00001000
00000000
00000010
00010000
00001000
00000000
00011000
00000000
00010000
00000000
00001000
00010000
00100000
00000000
10000000
00000000
,
01000000
00000000
00100000
00001000
00010000
00000000
00000100
00000000
00002000
00000000
00000000
00000000
00003001
00000010
00000010
00001000
,
00000010
00000100
00000001
00000000
00001000
00000010
00000010
00000001
00000010
00000100
00001000
00000000
00000100
00001000
00001000
00010000
,
00000000
00001000
00010000
00000000
00001000
00010000
00010000
01000000
00000000
00100000
10000000
00000000
00010000
00100000
00100000
10000000
,
00100000
01000000
00010000
00000000
10000000
00100000
00100000
00010000
00100000
01000000
10000000
00000000
00010000
00100000
00100000
10000000
,
00000000
00100000
01000000
00000000
00010000
10000000
01000000
00100000
00001000
00010000
00000100
00000010
00000001
00000000
00001001
00000000
,
00001000
00000010
00001000
00000010
00010000
00001000
00010000
00001000
01000000
00000000
01010000
00000000
00010000
10000000
01000000
00000000
,
11000000
00000000
00000000
10000000
01000000
00100000
00010000
00000000
00000000
00100000
00000000
00000000
00002000
00000000
00000000
00000000
00000000
00000000
00013000
00000000
00000000
00011000
00000000
00000000
,
00010010
00000000
00000010
00010000
00001000
00000000
00011000
00000000
00101000
00000000
00100000
00001000
00000020
00000000
00000000
00000000
,
00000000
00000000
00000000
00000000
00000130
00001000
00000001
00001000
00000001
00000100
00000010
00001000
00000200
00000000
00000000
00000000
,
00010300
00001000
00000200
00000000
00000310
00001000
00000001
00001000
,
00000001
00000000
00000010
00000000
00000100
00000000
00001000
00000001
00001000
00000000
00000001
00000000
00000200
00000000
00000000
00000000
,
00001300
00010000
00200000
00000000
01300000
00010000
10000000
01000000
,
00100000
00000000
00010000
10000000
00010000
10000000
00010000
00000000
10000000
00000000
00100000
00000000
02000000
00000000
00000000
00000000
,
03001000
00000000
00010000
00000000
02000000
00000000
00000000
00000000
13000000
00000000
00010000
00000000
10000000
00010000
10000000
00000000
,
00100000
00010000
00002000
00000000
00003020
00000000
00000032
00000000
,
00000000
00000000
00000000
00000003
,
00000001
00001000
00000001
00001000
00000001
00000000
00001001
00000000
00001001
00000000
00000000
00000000
00001000
00000000
00000010
00000000
,
00000110
00000000
00000100
00001000
00011000
00000000
00010000
00100000
,
01100000
00000000
10000000
00000000
10010000
00000000
00010000
00100000
,
01100000
00000000
01000000
00010000
00011000
00000000
00001000
00000010
,
00000110
00000000
00000000
00000000
00001000
00000000
00000000
00000000
00000001
00001000
00000001
00001000
00000001
00000000
00000100
00000000
,
00001000
00000000
00010000
00001000
00011000
00000000
00010000
01000000
,
10000000
00000000
00000000
00020000
00000000
02030000
00000000
03200000
00000000
20300000
00000000
32000000
,
00000000
00000000
00000000
00000000
03020000
00000000
00000000
00000000
00000000
00000000
00000000
00000000
00032000
00000000
00000000
00000000
00000000
00000000
00000000
00000000
00023000
00000000
00000000
00000000
00000000
00000000
00000000
00000000
00230000
00000000
00000000
00000000
00000000
00000000
00000000
00000000
10300000
00000000
00000000
00010000
00000000
00000000
00100000
00000000
00000000
01000000
00000000
00000000
,
10000000
00000000
00010000
01000000
00100000
00000000
01100000
00000000
10010000
00000000
00000000
00000000
00020000
00000000
01000000
00000000
,
01000000
10000000
10000000
00100000
00100000
00001000
00032000
00000000
,
00003001
00000000
00000100
00000000
00000010
00000000
00001000
00000000
00000100
00000010
00000100
00000010
00000100
00000010
00000100
00000010
00000100
00000010
00000100
00000010
00000001
00000000
00000000
00000000
00002000
00000000
00000000
00000000
00000100
00000000
00000000
00000000
,
00000100
00000001
00000001
00000010
00000010
00010000
00023000
00000000
,
10030000
00000000
01000000
00000000
00100000
00000000
00010000
00000000
01000000
00100000
01000000
00100000
01000000
00100000
01000000
00100000
01000000
00100000
01000000
00100000
10000000
00000000
00000000
00000000
00010000
00000000
00000000
00000000
00100000
00000000
00000000
00000000
,
01000000
00000000
10000000
00010000
10000000
00000000
00100000
00000000
01000000
00000000
00010000
10000000
00010000
00000000
10000000
00000000
,
01000000
00010000
00001000
00010000
00001000
00000010
00000001
00000100
,
00000010
00000000
00001000
00000001
00001000
00000000
00000100
00000000
00000010
00000000
00000001
00001000
00000001
00000000
00001000
00000000
,
00000010
00010000
00001000
00000000
00010000
00001000
01000000
00000000
00020000
00000000
00000000
00000000
10030000
01000000
00100000
00010000
,
10000000
00010000
01000000
00000000
00010000
01000000
00100000
10000000
00010000
10000000
01000000
00000000
00100000
00001000
00100000
00001000
,
00010000
00001000
00010000
00000000
00001000
00010000
00001000
00010000
00000100
00010000
00000100
00000000
00001000
00000001
00000100
00000010
,
00001000
00000010
00010000
00001000
01000000
00010000
01000000
00100000
10000000
00010000
00100000
00001000
00020000
00000000
00000000
00000000
,
00030000
00000000
00000000
00002000
01003000
00010000
01000000
00001000
00010000
00002000
00103000
00010000
,
00100000
00000000
00001000
00000000
00010000
00000000
00002000
00000000
01003000
00000000
00010000
00000000
01000000
00000000
00100000
00000000
10000000
00000000
10010000
00000000
00000000
00000000
00010000
10000000
,
00010000
00100000
00001000
00020000
00030200
00000320
00000032
00002003
00003002
00000203
00000320
00000230
,
00002300
00023000
00230000
02300000
03020000
20030000
32000000
03200000
02300000
03020000
00000000
00000000
,
00031000
00000000
00000000
00020000
00030100
00000010
00001000
00000010
00000100
00020000
00030010
00000100
,
00001000
00000000
00000100
00000000
00000010
00000000
00020000
00000000
00031000
00000000
01000000
00000000
00010000
00000000
00100000
00000000
00001000
00000000
00011000
00000000
00000000
00000000
00010000
00001000
,
00010000
00001000
00010000
00002000
01003000
00100000
00010000
00100000
01000000
00002000
00103000
01000000
,
00010000
01000000
00100000
00002000
00013000
00000100
00000010
00000001
00001000
00001001
00000000
00000000
,
00000001
00000100
00000100
00000010
00000001
00001000
00000001
00000000
00001000
00000010
00000010
00000100
00001000
00000001
00001000
00000000
,
00000010
00001000
00001000
00010000
00000000
00100000
01000000
00000000
00001000
00010000
00010000
00100000
00000000
01000000
10000000
00000000
,
00010000
00100000
00100000
01000000
00010000
10000000
00010000
00000000
10000000
01000000
01000000
00100000
10000000
00010000
10000000
00000000
,
00010000
00100000
00100000
10000000
00000000
01000000
00100000
00000000
01000000
00010000
01000000
00010000
00001000
00000010
00001000
00000010
,
00000001
00000000
00001001
00000000
00001000
00000000
00000010
00010000
00001000
00000000
00011000
00000000
00010000
00000000
00001000
01000000
,
00100000
00000000
00000000
00000000
00000000
00000000
01000000
00000000
00000000
00000000
00000000
00000000
00001000
00000000
00000000
00000000
00000000
00000000
00010000
00000000
00000000
01000000
00000000
00000000
00100000
00000000
00000000
00000000
00000000
00000000
00010000
00000000
10000000
00000000
00010000
00000000
01000000
00000000
00000000
00000000
00000000
00000000
00100000
00000000
00000000
00000000
00000000
00000000
,
10000000
00000000
10010000
00000000
00010000
00000000
00100000
00001000
00010000
00000000
00011000
00000000
00001000
00000000
00010000
00001000
,
00000010
00000000
00000001
00000000
00000100
00000000
00000010
00010000
00001000
00000000
01000000
00000000
00020000
00000000
00000000
00000000
,
10030000
00100000
00100000
01000000
10000000
00010000
10000000
00000000
00010000
01000000
01000000
00100000
00010000
10000000
00010000
00000000
,
01000000
00010000
00010000
00001000
00000000
00000100
00000010
00000000
00010000
00001000
00001000
00000100
00000000
00000010
00000001
00000000
,
00001000
00000100
00000100
00000010
00001000
00000001
00001000
00000000
00000001
00000010
00000010
00000100
00000001
00001000
00000001
00000000
,
00001000
00000100
00000100
00000001
00000000
00000010
00000100
00000000
00001000
00000001
00000100
00000010
00010000
00001000
01000000
00100000
,
10000000
00000000
10010000
00000000
00010000
00100000
00010000
00100000
00001000
00010000
00001000
00010000
00000100
00000000
00001100
00000000
,
00001000
00000000
00000000
00000001
00000000
00000000
00000100
00000000
00000000
00000000
00000000
00000000
00000101
00000000
00000000
00000000
00000000
00000000
00000001
00000000
00000100
00000000
00000010
00000000
00001000
00000000
00000000
00000000
00000000
00000000
00000010
00000000
00000000
00000000
00000000
00000000
00020000
00000000
00000000
00000000
00000000
00000000
00000000
00000000
00000000
00000000
00000000
00000000
,
00031000
00000000
00011000
00000000
00101000
00000000
00100000
00001000
00010000
00000000
00011000
00000000
00010010
00000000
00000010
00010000
,
00200000
00000000
00000000
00000000
00000000
00000000
00000000
00000000
01300000
00010000
10000000
00010000
10000000
01000000
00100000
00010000
,
01000000
00000000
00000000
00000000
,
00000000
00000000
00000000
00000000
00000000
00001000
00011000
00000000
,
00000000
00000000
00000000
00000000
00000000
00000000
00000000
00000000
00000000
00000000
00000000
00000000
00000000
00000000
00000000
00010000
00001000
00010000
00000100
00000000
00000000
00001000
00000000
00000000
,
00000001
00000100
00000010
00001000
00000001
00000100
00000010
00000000
00001000
00000010
00010000
00000010
00001000
00000010
00010000
00000000
,
00001000
01000000
00010000
01000000
00001000
01000000
00010000
00000000
01000000
00100000
10000000
00010000
01000000
00100000
10000000
00000000
,
00010000
00100000
00001000
00100000
00010000
00100000
00001000
00010000
00000010
00001000
00000010
00010000
00000010
00001000
00000010
00010000
,
00001000
01000000
00010000
01000000
00100000
10000000
00010000
00100000
00001000
00010000
00000100
00000010
00000001
00000000
00000000
00000000
,
00001002
00000000
00000000
00000000
00000000
00000000
00000000
00000000
00000000
00000000
00000000
00000000
00000103
00000000
00000000
00000000
00001000
00000000
00000000
00000000
00010000
00000000
00000000
00000000
00100000
00000000
00000000
01000000
00000000
00000000
00100000
00000000
00000000
01000000
00000000
00000000
00100000
00000000
00000000
10000000
00000000
00000000
00010000
00000000
00000000
00000000
00000000
00000000
,
20010000
00000000
00000000
00000000
00000000
00000000
00000000
00000000
00000000
00000000
00000000
00000000
31000000
00000000
00000000
00000000
00010000
00000000
00000000
00000000
00001000
00000000
00000000
00000000
00000010
00000000
00000000
00000100
00000000
00000000
00000010
00000000
00000000
00000100
00000000
00000000
00000010
00000000
00000000
00000001
00000000
00000000
00001000
00000000
00000000
00000000
00000000
00000000
,
00001002
00000000
00000000
00000103
00001000
00001000
00000010
00010000
00010000
01000000
00100000
10000000
,
00010000
00000000
00100000
00000000
01000000
00000000
00010000
00000000
00010000
00000000
00100000
00000000
00001000
00000000
00001000
00000000
00000100
00000000
00020000
00000000
00000000
00030000
00000000
00000000
,
00001000
00100000
00001000
00010000
00000010
00010000
00001000
00100000
00001000
00010000
00000010
00010000
00001000
00100000
00001000
00010000
,
00000010
00010000
00001000
00100000
00001000
00010000
00000010
00010000
00001000
00100000
00001000
00010000
00000010
00010000
00001000
00100000
;
