#VERSION:0.83;
#TITLE:ドーナツホール;
#SUBTITLE:;
#ARTIST:ハチ;
#TITLETRANSLIT:DONUT HOLE;
#SUBTITLETRANSLIT:;
#ARTISTTRANSLIT:Hachi;
#GENRE:;
#CREDIT:;
#MUSIC:DONUT HOLE.ogg;
#BANNER:DONUT HOLE.png;
#BACKGROUND:DONUT HOLE-bg.png;
#CDTITLE:;
#SAMPLESTART:41.720;
#SAMPLELENGTH:11.429;
#SELECTABLE:YES;
#OFFSET:-1.006;
#BPMS:0.000=252.000;
#STOPS:;
#BGCHANGES:-4.226=DONUT HOLE.avi=1.000=1=0=0=StretchNoLoop==CrossFade==;
#FGCHANGES:;

//--------------- dance-single - ----------------
#NOTEDATA:;
#STEPSTYPE:dance-single;
#DESCRIPTION:;
#DIFFICULTY:Beginner;
#METER:1;
#RADARVALUES:0,0,0,0,0;
#CREDIT:Kikoia;
#NOTES:
0000
0000
0000
0000
,
0000
0000
0000
0000
,
0000
0000
0000
0000
,
0000
0000
0000
0000
,
0000
0000
0000
0000
,
0001
0000
0000
0000
,
0000
0000
0000
0000
,
0001
0000
0000
0000
,
0000
0000
0000
0000
,
1000
0000
0000
0000
,
0000
0000
0000
0000
,
0010
0000
0000
0000
,
0000
0000
0000
0000
,
0001
0000
0000
0000
,
0000
0000
0000
0000
,
0010
0000
0000
0000
,
0000
0000
0000
0000
,
1000
0000
0000
0000
,
0000
0000
0000
0000
,
0100
0000
0000
0000
,
0000
0000
0000
0000
,
0001
0000
0000
0000
,
0000
0000
0000
0000
,
0100
0000
0000
0000
,
0000
0000
0000
0000
,
1000
0000
0000
0000
,
1000
0000
0000
0000
,
1000
0000
0000
0000
,
1000
0000
0000
0000
,
0001
0000
0000
0000
,
0001
0000
0000
0000
,
0001
0000
0000
0000
,
0001
0000
0000
0000
,
0010
0000
0000
0000
,
0010
0000
0000
0000
,
0010
0000
0000
0000
,
0010
0000
0000
0000
,
0100
0000
0000
0000
,
0100
0000
0000
0000
,
0100
0000
0000
0000
,
0100
0000
0000
0000
,
1000
0000
0000
0000
,
1000
1000
1000
0000
,
0001
0000
0000
0000
,
0001
0000
0000
0000
,
0010
0000
0000
0000
,
0010
0000
0000
0000
,
1000
0000
0000
0000
,
1000
0000
0000
0000
,
0010
0000
0000
0000
,
0010
0000
0000
0000
,
1000
0000
0000
0000
,
1000
0000
0000
0000
,
0100
0000
0000
0000
,
0100
0000
0000
0000
,
0010
0000
0000
0000
,
0010
0000
0000
0000
,
0001
0000
0000
0000
,
0001
0000
0000
0000
,
0100
0000
0000
0000
,
0100
0000
0000
0000
,
0010
0000
0000
0000
,
0010
0000
0000
0000
,
1001
0000
0000
0000
,
0000
0000
0000
0000
,
0000
0000
0000
0000
,
0000
0000
0000
0000
,
0000
0000
0000
0000
,
0000
0000
0000
0000
,
0000
0000
0000
0000
,
0000
0000
0000
0000
,
0001
0000
0000
0000
,
0000
0000
0000
0000
,
0100
0000
0000
0000
,
0000
0000
0000
0000
,
0001
0000
0000
0000
,
1000
0000
0000
0000
,
0001
0000
0000
0000
,
0001
0001
0001
0001
,
0000
0000
0000
0000
,
0000
0000
0000
0000
,
1000
0000
0000
0000
,
0000
0000
0000
0000
,
0001
0000
0000
0000
,
0000
0000
0000
0000
,
0010
0000
0000
0000
,
0000
0000
0000
0000
,
0100
0000
0000
0000
,
0000
0000
0000
0000
,
0001
0000
0000
0000
,
0000
0000
0000
0000
,
1000
0000
0000
0000
,
0000
0000
0000
0000
,
0010
0000
0000
0000
,
0000
0000
0100
0000
,
0200
0000
0000
0000
,
0000
0000
0300
0000
,
1000
0000
0000
0000
,
1000
0000
0000
0000
,
0010
0000
0000
0000
,
0010
0000
0000
0000
,
0001
0000
0000
0000
,
0001
0000
0000
0000
,
0010
0000
0000
0000
,
0010
0000
0000
0000
,
0001
0000
0000
0000
,
0001
0000
0000
0000
,
0100
0000
0000
0000
,
0100
0000
0000
0000
,
0010
0000
0000
0000
,
0010
0000
0000
0000
,
1000
0000
0000
0000
,
1000
0000
0000
0000
,
0001
0000
0000
0000
,
0001
0000
0000
0000
,
0100
0000
0000
0000
,
0100
0000
0000
0000
,
1000
0000
0000
0000
,
1000
0000
0000
0000
,
0100
0000
0000
0000
,
0100
0000
0000
0000
,
0010
0000
0010
0000
,
0001
0001
0001
0000
,
1000
0000
1000
0000
,
0010
0010
0010
0000
,
1000
0000
0001
0000
,
1000
0000
0000
0000
2002
3003
0000
0000
;

//--------------- dance-single - ----------------
#NOTEDATA:;
#STEPSTYPE:dance-single;
#DESCRIPTION:;
#DIFFICULTY:Easy;
#METER:7;
#RADARVALUES:0,0,0,0,0;
#CREDIT:Kikoia;
#NOTES:
0000
0000
0000
0000
,
0000
0000
0000
0000
,
0000
0000
0000
0000
,
0000
0000
0000
0000
,
0000
0000
0000
0000
,
2000
0000
3002
0000
,
0103
0001
0001
0000
,
0002
0000
2003
0000
,
3100
1000
1000
0000
,
0001
1000
0001
0000
,
1000
0010
0100
0000
,
0001
1000
0001
0000
,
0010
0100
1000
0000
,
0010
0100
0010
0000
,
1000
0001
0010
0000
,
0100
0010
0100
0000
,
0010
0001
1000
0000
,
2000
0000
3020
0000
,
0230
0000
0302
0000
,
0013
0100
0010
0000
,
0100
1000
0100
0000
,
1000
0001
1000
0000
,
0001
0100
0010
0000
,
1000
0001
1000
0000
,
0100
0010
0001
0000
,
0200
0300
0200
0300
,
0020
0030
0020
0030
,
2000
0000
3002
0000
,
0013
0100
1000
0000
,
0020
0030
0020
0030
,
0200
0300
0200
0300
,
0002
0000
0023
0000
,
0130
1000
0001
0000
,
2000
3000
2000
3000
,
0200
0300
0200
0300
,
0020
0000
0032
0000
,
1003
0010
1000
0000
,
0001
1000
0001
0000
,
0010
0100
0010
0000
,
0001
1000
0001
0000
,
0100
0010
2000
0000
,
3000
0000
0000
0000
,
0000
0000
0000
0000
,
0001
0000
0001
0000
,
1000
0010
0100
0000
,
0001
0000
0010
0000
,
0100
0000
1000
0000
,
0001
0100
0001
0000
,
1000
0100
1000
0000
,
0010
0000
0100
0000
,
0001
0000
0010
0000
,
0001
0000
0001
0000
,
0100
0010
1000
0000
,
0100
0000
0010
0000
,
0001
0000
0001
0000
,
0100
0001
0100
0000
,
0010
1000
0010
0000
,
1000
0000
1000
0000
,
0002
0000
0003
0000
,
1000
0100
1000
0000
,
0001
0010
0001
0000
,
0001
0000
0001
0000
,
2000
0000
3000
0000
,
2002
0000
0000
0000
,
0000
0000
0000
0000
,
0000
0000
0000
0000
,
0000
0000
3003
0000
,
0000
0000
0000
0000
,
0000
0000
0000
0000
,
0000
0000
0000
0000
,
0000
0000
0000
0000
,
0001
0000
0001
0000
,
0001
0000
0001
0000
,
1000
0000
1000
0000
,
1000
0000
1000
0000
,
0100
0000
0000
0000
,
0100
0000
0000
0000
,
0010
0000
0010
0000
,
0001
1000
0001
1000
,
0000
0000
0000
0000
,
0000
0000
0000
0000
,
1100
0000
0000
0000
,
0101
0000
0000
0000
,
0110
0000
0000
0000
,
1001
0000
0000
0000
,
0011
0000
0000
0000
,
1010
0000
0000
0000
,
0110
0000
0000
0000
,
1001
0000
0000
0000
,
0001
0000
0001
0000
,
0010
0000
0010
0000
,
0100
0000
0100
0000
,
1000
0000
1000
0000
,
0010
0000
0010
0000
,
0100
0000
0100
0000
,
0002
0000
0000
0000
,
0000
0000
0003
0000
,
1000
0000
1000
0000
,
0001
0010
0100
0000
,
1000
0000
0010
0000
,
0100
0000
0001
0000
,
1000
0100
1000
0000
,
0001
0100
0001
0000
,
0010
0000
0100
0000
,
1000
0000
0010
0000
,
1000
0000
1000
0000
,
0100
0010
0001
0000
,
0200
0000
0320
0000
,
0230
0000
0302
0000
,
1003
0001
1000
0000
,
0001
1000
0001
0000
,
0010
0100
0010
0000
,
0002
0000
0003
0000
,
0001
0000
0100
0000
,
0010
0000
1000
0000
,
0001
0000
1000
0000
,
0200
0000
0300
0000
,
1000
0000
0100
0000
,
0010
0000
0001
0000
,
0100
0000
0001
0000
,
2000
0000
3000
0000
,
1010
0000
0000
0000
,
0011
0000
0000
0000
,
1100
0000
0000
0000
,
0101
0000
0000
0000
,
0110
0000
0110
0000
,
2002
0000
0000
3003
;

//--------------- dance-single - ----------------
#NOTEDATA:;
#STEPSTYPE:dance-single;
#DESCRIPTION:;
#DIFFICULTY:Medium;
#METER:10;
#RADARVALUES:0,0,0,0,0;
#OFFSET:-1.006;
#BPMS:0.000=252.000;
#STOPS:316.000=1.429;
#SCROLLS:0.000=1.000,
316.000=0.500,
374.000=0.330,
382.000=1.000
;
#TIMESIGNATURES:316.000=2=4,
318.000=4=4
;
#CREDIT:Kikoia;
#NOTES:
0000
0000
0000
0000
,
0000
0000
0000
0000
,
0000
0000
0000
0000
,
0000
0000
0000
0000
,
0000
0000
0000
0000
,
2000
0000
3020
0000
,
0130
0000
0010
0000
1000
0001
1000
0000
,
0002
0000
0023
0000
,
0130
0000
0010
0000
0001
1000
0001
0000
,
1000
0010
0100
0001
,
1000
0000
0100
0010
0000
0010
0100
0000
,
1000
0000
0010
0000
0100
0000
0001
0010
,
0001
0000
1000
0002
0000
0003
0000
0000
,
0001
0100
0010
1000
,
0001
0000
0010
0100
0000
0100
0010
0000
,
0001
0000
1000
0000
0010
0000
0100
0001
,
0100
0000
0001
2000
0000
3000
0000
0000
,
0002
0000
0103
0100
,
2000
0000
3100
0100
,
0001
0000
1000
0000
0100
0000
1000
0100
,
0010
0001
2000
0000
,
3010
0100
0001
0010
,
0100
0000
1000
0001
0000
0001
1000
0000
,
0010
0000
0100
0000
0001
0000
0100
0010
,
0100
0000
0001
2000
0000
0000
3000
0000
,
0000
2000
3200
0320
,
0000
0032
0203
0320
,
0000
2030
3200
0320
,
0032
2003
3020
0230
,
0000
0301
0001
1000
,
1000
0001
0100
0001
,
1000
0100
0001
0100
,
2000
0000
3001
0000
,
0000
0002
0023
0230
,
0000
2300
3020
0230
,
0000
0302
0023
0230
,
2300
3002
0203
0320
,
0000
1030
1000
0001
,
0001
1000
0100
1000
,
0001
0010
1000
0010
,
0001
1000
0020
0000
,
0000
0000
0000
0000
,
0100
0100
0130
0000
,
1001
1000
0010
1000
,
0001
0020
0000
0130
,
0001
0100
1000
0020
,
0000
1000
1030
0001
,
0010
0000
0100
0000
1000
0020
0000
0100
,
0000
0000
1030
0000
0001
0020
0000
0100
,
0000
0000
0031
0000
1000
0000
0001
0100
,
0000
0100
0010
0000
1000
0000
1000
0000
,
0001
0010
0001
1000
,
0010
0200
0000
1300
,
0100
0001
0010
0200
,
0000
0301
0100
1000
,
0001
0000
0100
0000
0010
1000
0000
1000
,
0010
0000
0100
0000
0001
0010
0000
0010
,
0001
1000
0100
0010
,
0001
0000
1000
0000
0001
1000
0001
0000
,
0010
0000
0100
0000
1000
0001
0000
0001
,
1000
0000
0010
0000
0100
0001
0000
0001
,
0100
0010
1000
0100
,
0010
0000
0001
0100
0000
0100
0000
0000
,
2002
0000
0000
0000
,
0000
0000
0000
0000
,
0000
0000
0000
0000
,
0000
0000
3003
0000
,
0002
0000
0203
0000
,
2300
0000
3200
0000
,
0302
0000
2003
0000
,
3200
0000
0302
0000
,
0103
0000
0100
0000
2000
0000
0000
3001
,
0000
0100
0010
0000
1000
0000
0001
0000
,
0100
0000
0100
0000
2000
0000
0000
3100
,
0000
0001
1000
0000
0010
0000
1000
0000
,
0001
0000
1001
0000
,
1100
0000
0101
0000
,
1010
0000
0011
0000
,
2000
3200
0320
0002
,
0033
0000
0001
0000
,
0001
0000
1000
0000
,
0000
0000
0010
0000
,
0010
0000
0100
0000
,
0000
0000
0001
0000
,
0010
0000
0100
0000
,
0000
0000
1000
0000
,
0010
0000
0100
0000
,
0000
0000
0001
0000
,
0100
0000
1000
0000
,
0000
0000
1000
0000
,
0100
0000
0001
0000
,
0000
0000
1000
0000
,
0100
0000
0001
0000
,
0100
0000
2000
0000
,
0000
0000
0000
0000
,
3001
0000
1001
0001
,
0010
0001
1000
0020
,
0000
0130
1000
0100
,
0001
0020
0000
0001
,
0031
1000
0010
0100
,
0001
0020
0000
0100
0000
0000
0031
0000
,
1000
0020
0000
0100
0000
0000
1030
0000
,
0001
0000
1000
0100
0000
0100
0010
0000
,
0001
0001
1000
0010
,
1000
0001
0010
0200
,
0000
0301
0200
0320
,
0230
0320
0032
2003
,
3002
0000
2003
0000
3010
0000
0100
0001
,
0000
0001
0100
0000
0010
0000
1000
0001
,
0000
0001
1000
0000
0100
0000
0010
0001
,
0000
0001
1000
0000
2002
0000
0000
0000
,
3003
0000
0001
0010
,
0100
1000
0000
1000
0100
0000
0010
0000
,
0001
0100
0000
0100
0001
0000
1000
0000
,
0010
0000
0100
0000
0002
0000
1003
0001
,
0000
0001
1000
0000
0100
0000
0010
0000
,
0001
0100
1000
0100
,
0001
0010
0001
1000
,
0010
0100
0001
0010
,
1000
0010
0001
0000
,
1100
0000
1000
0000
,
0101
0000
1000
0000
,
1010
0000
0001
0000
,
0011
0000
0110
0000
,
1001
0000
0110
0000
,
2000
0002
0000
3003
0000
0000
0000
0000
;

//--------------- dance-single - ----------------
#NOTEDATA:;
#STEPSTYPE:dance-single;
#DESCRIPTION:;
#DIFFICULTY:Hard;
#METER:14;
#RADARVALUES:0,0,0,0,0;
#OFFSET:-1.006;
#BPMS:0.000=252.000;
#STOPS:316.000=1.429;
#SCROLLS:0.000=1.000,
316.000=0.500,
374.000=0.330,
382.000=1.000
;
#TIMESIGNATURES:316.000=2=4,
318.000=4=4
;
#CREDIT:Kikoia;
#NOTES:
0000
0000
0000
0000
,
0000
0000
0000
0000
,
0000
0000
0000
0000
,
0000
0000
0000
0000
,
0000
0000
0000
0000
,
0001
0100
1000
0100
,
0001
0000
0010
0000
0100
1000
0010
0000
,
1000
0100
0001
0100
,
1000
0000
0001
1000
0001
1000
0100
0020
,
0000
0031
1000
0000
0010
0000
1000
0100
,
0001
0000
0100
1000
0000
1000
0010
0000
,
0100
0000
0001
0000
1000
0000
0001
0100
,
1000
0000
0100
0001
0000
0001
1000
0000
,
0001
0000
0010
0000
0100
0000
1000
0010
,
0100
0000
0001
1000
0000
1000
0100
0000
,
0010
0000
0001
0000
0100
0000
0001
0010
,
0100
0000
1000
0001
0000
0001
1000
0000
,
0002
0000
0203
0000
0320
0000
0130
0001
,
2000
3200
0320
0230
,
1300
0001
0010
0000
0010
0000
0001
1000
,
0001
1000
0010
0000
0010
0000
1000
0001
,
0000
0001
0020
0000
2030
0000
3010
0001
,
1000
0000
0010
0100
0000
0100
0001
0000
,
1000
0000
0010
0001
0010
0000
1000
0100
,
0010
0110
1001
0000
,
0001
0200
1000
0301
,
1000
0200
0001
1300
,
0002
0203
0320
2030
,
3002
0023
0230
2300
,
3001
0000
1000
0010
0100
0000
0001
0010
,
0100
0000
1000
0001
0100
0000
0010
1000
,
0200
0302
0203
2300
,
3020
0000
0000
0130
0001
0000
0000
0000
,
1000
0020
0001
1030
,
0001
0020
1000
0031
,
2000
3200
0320
0032
,
2003
3020
0230
0302
,
0013
0100
0100
1000
,
1000
0000
0001
0000
0100
0010
2000
0000
,
3200
0302
2003
3020
,
0032
0000
1003
0010
0100
0001
0010
0000
,
0100
0000
0000
0100
0000
0100
0000
0100
,
0010
0110
2002
3003
,
0001
0000
0010
0000
0100
1000
0010
0000
,
0100
0000
0001
0000
1000
0100
0020
0000
,
0032
0203
2300
3200
,
0302
0000
1003
0100
1000
0100
0010
0000
,
0001
0000
0100
0000
0010
1000
0000
2020
,
0000
3030
0001
0000
0100
0010
0000
0220
,
0000
0330
0100
0001
0010
0100
0000
0220
,
0330
1000
0002
0000
0103
0010
1000
0000
,
0001
0000
0010
0000
0100
1000
0010
0000
,
0100
0000
0001
0000
1000
0100
0010
0000
,
0002
0023
2030
3020
,
0032
0000
1003
0010
1000
0010
0100
0000
,
0001
0000
1000
0000
0001
0010
0000
0022
,
0000
0033
0001
0000
0100
0010
0000
0220
,
0000
0330
0010
0000
1000
0100
0000
2200
,
3300
1000
0001
0000
0100
0000
0010
0000
,
1000
0000
0100
0000
0010
0001
0100
0000
,
0001
0000
0010
0000
0100
1000
0010
0000
,
1000
0000
0010
0000
0001
0010
1000
0000
,
0001
0000
0010
0100
0000
1001
0000
0000
,
0202
0000
0000
0000
,
0000
0000
0000
0000
,
0000
0000
0000
0000
,
0000
0000
0300
0000
,
2003
0000
0010
0000
,
0100
0000
0001
0000
,
0001
0000
0100
0000
,
0010
0000
3001
0000
,
1000
0000
1000
0000
1000
0000
0100
0010
,
0000
0010
0001
1000
0001
1000
0010
0000
,
0100
0000
0100
0000
0100
0000
0001
0010
,
0000
0010
0100
1000
0100
1000
0001
0000
,
1010
0001
0101
1000
,
1100
0001
0011
1000
,
0002
0203
2300
3020
,
0032
1003
0110
1001
,
0000
0000
0000
1000
,
0000
1000
0000
0001
,
0000
0001
0000
0100
,
0000
0010
0000
1000
,
0000
0001
0000
0010
,
0000
0010
0000
0100
,
0000
0100
0000
1000
,
0000
0010
0000
0100
,
0000
0001
0000
1000
,
0000
1000
0000
0100
,
0000
0100
0000
1000
,
0000
0010
0000
0001
,
0000
0010
0000
1000
,
0000
0100
0000
0001
,
0000
0200
0020
0000
,
0000
0000
0330
0000
,
2002
3003
1000
0010
,
0100
0001
0010
0000
0100
0000
1000
0000
,
0001
0100
0020
0000
2030
0000
3200
0000
,
0302
0000
0203
0000
2300
0000
3001
0100
,
0001
0100
0010
0000
1000
0000
0001
0000
,
0010
0100
0000
0220
0000
0330
0010
0000
,
0001
0100
0000
0202
0000
0303
0001
1000
,
0010
0100
0000
0220
0330
0001
2000
0000
,
3100
0010
0001
0000
1000
0000
0010
0000
,
1000
0100
0010
0000
0001
0000
0100
0000
,
0001
0010
0100
0000
1000
0001
0020
0000
,
0130
1000
0020
0000
0130
0001
0020
0000
,
0130
1000
0002
0000
0103
0000
0001
1000
,
0001
1000
0100
0000
0010
0000
0001
0100
,
0001
0100
0010
0000
1000
0000
0001
0010
,
0001
0010
0100
0000
2000
0000
0000
0000
,
0010
0010
3001
0010
,
0100
1000
0000
2200
0000
3300
1000
0000
,
0001
0100
0000
0202
0000
0303
1000
0000
,
0010
0100
0000
0220
0330
0001
2000
0000
,
3100
0010
0002
0000
0203
0000
2300
0000
,
3100
0010
2000
0000
3200
0000
0302
0000
,
0103
0010
0001
0000
0100
0000
0010
0000
,
1000
0001
0010
0200
0000
1300
0001
0000
,
0100
0010
1000
0000
1010
0000
0001
0000
,
0101
0000
0011
1000
,
1100
0000
0110
0001
,
1001
0000
0110
1000
,
1001
0000
1000
0100
,
0010
0001
0000
0022
0033
1000
0001
0000
,
0100
0020
0000
0030
0000
0000
0000
0000
;
