#VERSION:0.83;
#TITLE:Code Crush;
#SUBTITLE:;
#ARTIST:Unknown artist;
#TITLETRANSLIT:;
#SUBTITLETRANSLIT:;
#ARTISTTRANSLIT:Rina Aiuchi;
#GENRE:;
#ORIGIN:;
#CREDIT:;
#BANNER:Code Crush.png;
#BACKGROUND:Code Crush-bg.png;
#PREVIEWVID:;
#JACKET:Code Crush-jacket.png;
#CDIMAGE:;
#DISCIMAGE:;
#LYRICSPATH:;
#CDTITLE:;
#MUSIC:Code Crush.ogg;
#OFFSET:-0.987000;
#SAMPLESTART:90.469002;
#SAMPLELENGTH:12.000000;
#SELECTABLE:YES;
#BPMS:0.000=73.000,
2.000=74.000,
34.000=88.001,
36.000=100.000,
38.000=110.002,
39.000=109.998,
40.000=120.000,
42.000=130.000,
44.000=132.000,
232.000=129.000,
236.000=125.000,
238.000=115.000,
239.000=112.000,
240.000=105.000,
241.000=100.000,
242.000=95.002,
243.000=88.001,
244.000=80.000,
245.000=75.999,
246.000=73.001,
247.000=71.100,
248.000=73.999,
249.000=74.002,
250.000=73.999,
253.000=74.002,
254.000=73.999,
257.000=74.002,
258.000=75.999,
259.000=73.500,
264.000=73.999,
265.000=74.002,
266.000=73.999,
268.000=74.499,
269.000=74.502,
270.000=74.499;
#STOPS:;
#DELAYS:;
#WARPS:;
#TIMESIGNATURES:0.000=4=4;
#TICKCOUNTS:0.000=4;
#COMBOS:0.000=1;
#SPEEDS:0.000=1.000=0.000=0;
#SCROLLS:0.000=1.000,
64.000=0.900,
65.000=0.800,
66.000=0.700,
67.000=0.600,
68.000=0.500,
99.000=0.050,
100.000=1.000,
168.000=0.000,
170.500=1.000;
#FAKES:;
#LABELS:0.000=Song Start;
#BGCHANGES:;
#KEYSOUNDS:;
#ATTACKS:
;

//---------------dance-single - ----------------
#NOTEDATA:;
#CHARTNAME:;
#STEPSTYPE:dance-single;
#DESCRIPTION:;
#CHARTSTYLE:;
#DIFFICULTY:Hard;
#METER:12;
#RADARVALUES:0.475208,0.530529,0.240467,0.120233,0.390758,498.000000,462.000000,36.000000,18.000000,0.000000,0.000000,0.000000,0.000000,0.000000,0.475208,0.530529,0.240467,0.120233,0.390758,498.000000,462.000000,36.000000,18.000000,0.000000,0.000000,0.000000,0.000000,0.000000;
#CREDIT:;
#NOTES:
0000
0000
0000
0000
,
0000
0000
0000
0000
,
0000
0000
0000
0000
,
0000
0000
0000
0000
,
1000
0100
0010
0100
1000
0000
1001
0001
,
0001
0100
0010
0100
0001
1000
1100
0000
,
0001
0010
0100
0010
0001
0000
1001
1000
,
0010
0010
0001
0001
0010
0010
0100
0100
,
0001
0000
0000
0100
0000
0000
0000
0000
0000
0100
0000
0000
0010
0000
0000
0000
0000
0000
1000
0000
0000
0000
0001
0000
1000
0000
0000
0000
0000
0000
1000
0000
0000
0000
0000
0000
0100
0000
0000
0010
0000
0000
0000
0000
0000
0000
0000
0000
,
0100
0000
0000
1000
0000
0000
0000
0000
0000
1000
0000
0000
0001
0000
0000
0000
0000
0000
0100
0000
0000
0000
0010
0000
0100
0000
0000
0000
0000
0000
0100
0000
0000
0000
0000
0000
0001
0000
0000
1000
0000
0000
0000
0000
0000
0000
0000
0000
,
1000
0000
0000
0100
0000
0000
0000
0000
0000
0100
0000
0000
0010
0000
0000
0000
0000
0000
0001
0000
0000
0000
0100
0000
0010
0000
0000
0000
0000
0000
0010
0000
0000
0000
0000
0000
1000
0000
0000
0100
0000
0000
0000
0000
0000
0000
0000
0000
,
1001
0000
0000
1000
0100
0000
0000
0010
0001
0000
0000
0100
0010
0000
0000
0000
,
1000
0000
0100
0000
0010
0000
0100
1000
0000
1000
0001
0000
0100
0000
0000
0000
,
0001
0000
0100
0000
0010
0000
0100
0001
0000
0001
1000
0000
0100
0000
0000
0000
,
0010
0000
0001
0000
1000
0000
0010
1000
0000
1000
0001
0000
0010
0000
0000
0000
,
0001
0000
0010
0000
0100
0000
1000
0001
0000
0001
0100
0000
0010
1000
0010
1000
,
0002
0000
0000
0003
,
2000
0000
0000
0100
0000
3001
1000
0000
0000
0000
0001
0000
0100
0000
0010
0000
,
2000
0000
0000
0010
0000
3001
1000
0000
0000
0000
0001
0000
0010
0000
0100
0000
,
2000
0000
0000
0010
0000
3100
1000
0000
0000
0000
0001
0000
0100
0000
0010
0000
,
0110
0000
0010
1000
0000
0100
0010
0010
,
0002
0000
0000
0100
0000
1003
0001
0000
0000
0000
1000
0000
0100
0000
0010
0000
,
0002
0000
0000
0010
0000
1003
0001
0000
0000
0000
0100
0000
0010
0000
1000
0000
,
0002
0010
0000
1000
0000
0013
0001
0000
0000
0000
0100
0000
1000
0000
0100
0000
,
0010
0000
0010
1000
0000
2000
3001
0000
,
2001
0000
0000
0100
0000
3010
0100
0000
0000
0000
0100
0000
0001
0000
1000
0000
,
1002
0000
0000
0010
0000
0103
0010
0000
0000
0000
0010
0000
0100
0000
0010
0000
,
1010
0000
0000
0001
0000
0010
0001
0000
0000
0000
0001
0000
0010
0000
0100
0000
,
1100
0000
0001
0011
0000
0010
0001
1000
,
0020
0100
0000
0031
0000
0010
0100
0000
0000
0000
0100
0000
0001
0000
1000
0000
,
0200
0010
0000
0301
0000
0100
0010
0000
0000
0000
0001
0000
1000
0000
0001
0000
,
0100
0010
0000
0001
0000
0010
0100
0000
0000
0000
0001
0000
0010
0000
0100
0000
,
1000
0000
0100
0010
0000
0001
1000
0100
,
0100
0000
1000
0000
0000
0110
0000
0000
0001
0000
0000
0110
0000
0000
0000
0000
,
0000
0000
0100
0000
0000
1001
0000
0000
0010
0000
0000
1001
0000
0000
0000
0000
,
0000
0000
0001
1000
0000
0010
0000
0000
1000
0001
0000
0010
0000
0000
0000
0000
,
0000
0000
0001
0010
0000
0001
0000
1000
0100
1000
0000
0001
0000
0000
0000
0000
,
1000
0000
0100
0010
0000
0100
0000
1000
0001
0000
0100
0000
0010
0000
1000
0001
,
0010
0000
0100
1000
0000
0001
0000
0100
0010
0000
0010
0000
1000
0000
0001
0010
,
0100
0000
1000
0001
0000
0100
0000
0001
1000
0000
0100
0000
0010
0000
0001
0000
,
0101
0000
0100
0010
1010
0010
0100
0000
,
1001
0000
0001
1000
0000
0001
1000
0000
0001
0000
0000
0000
0011
0000
0000
0000
,
1100
0000
0000
1100
,
1001
0000
0000
0001
0000
0000
0100
0000
0001
0000
0100
0000
0110
0000
0000
0000
,
1000
0010
0000
0100
0000
0000
0010
0000
1000
0000
0001
0000
0101
0000
0000
0000
,
0201
0000
0010
0000
0301
0010
0100
1000
,
0010
1000
0000
0010
0000
0000
0100
0000
0001
0000
1000
0000
1100
0000
0000
0000
,
0001
0010
0000
0001
0000
0000
0100
0000
0010
0000
1000
0000
1010
0000
0000
0000
,
1000
0001
0000
0010
0000
0000
0001
0000
1000
0000
0010
0000
1010
0000
1000
0000
,
2001
0000
0010
0000
3001
0010
0100
1000
,
0001
0100
0000
0001
0100
0000
0010
0000
1000
0000
0100
0000
1100
0000
0000
0000
,
1000
0100
0000
1000
0100
0000
0010
0000
0001
0000
0100
0000
0101
0000
0000
0000
,
0001
1000
0000
1000
0001
0000
0100
0000
0010
0000
1000
0000
1001
0000
0000
0000
,
0012
0000
0100
0000
0013
0100
0001
0100
,
1000
0001
0000
0001
0100
0000
0010
0000
1000
0000
0100
0000
1100
0000
0000
0000
,
0010
0001
0000
0001
1000
0000
0010
0000
0100
0000
0001
0000
0101
0000
0000
0000
,
0100
0010
0000
1000
0100
0000
0010
0000
0001
0000
0100
0000
0101
0000
0100
0000
,
0210
0000
1000
0000
0310
1000
0001
0010
,
0100
1000
0000
0001
0100
0000
0010
0000
1000
0000
0001
0000
0010
0000
0100
0000
,
0010
0000
0000
0001
0000
0000
0000
0000
0000
1000
0000
0000
0010
0000
0000
0000
0000
0000
0100
0000
0000
0000
0000
0000
0001
0000
0000
0000
0000
0000
1000
0000
0000
0000
0000
0000
0100
0000
0000
0000
0010
0000
0100
0000
0000
0000
0000
0000
,
1000
0000
0000
0001
0000
0000
0000
0000
0000
0010
0000
0000
0100
0000
0000
0000
0000
0000
1000
0000
0000
0000
0010
0000
0100
0000
0000
0000
0000
0000
0100
0000
0000
0000
0000
0000
0001
0000
0000
0100
0000
0000
0000
0000
0000
0000
0000
0000
,
0001
0000
0000
0000
0000
0000
0000
0000
0000
0000
0000
0000
0010
0000
0000
0000
0000
0000
0000
0000
0000
0000
0000
0000
0100
0000
0000
0000
0000
0000
0000
0000
0000
0000
0000
0000
1000
0000
0000
0000
0000
0000
0000
0000
0000
0000
0000
0000
0001
0000
0000
0000
0000
0000
0000
0000
0000
0000
0000
0000
0000
0000
0000
0000
0000
0000
0000
0000
0000
0000
0000
0000
0001
0000
0000
0000
0000
0000
0000
0000
0000
0000
0000
0000
0000
0000
0000
0000
0100
0000
0000
0000
0000
0000
0000
0000
0020
0000
0000
0000
0000
0000
0000
0000
0000
0000
0000
0000
1000
0000
0000
0000
0000
0000
0000
0000
0000
0000
0000
0000
0000
0000
0000
0000
0000
0000
1000
0000
0000
0000
0000
0000
0000
0000
0000
0000
0000
0000
0000
0000
0000
0000
0000
0000
0130
0000
0000
0000
0000
0000
0000
0000
0000
0000
0000
0000
0000
0000
0000
0000
0000
0000
0000
0000
0000
0000
0000
0000
0000
0000
0000
0000
0000
0000
0000
0000
0000
0000
0000
0000
0000
0000
0000
0000
0000
0000
0000
0000
0000
0000
0000
0000
,
0001
0000
0010
0100
1000
0000
0001
0000
0100
0000
0010
0000
0100
0000
0001
0000
,
0001
0000
0010
0100
1000
0000
0001
0000
0100
0000
0010
0000
0100
0000
0000
0000
,
0001
0000
0100
0010
1000
0000
0100
0000
0010
0000
0100
0000
1000
0000
0100
0000
,
0001
0001
0100
0100
1000
1000
0001
0100
,
2000
0000
0000
3000
0000
0000
0000
0000
0000
0000
0000
0000
0000
0000
0000
0000
;

//---------------dance-single - ----------------
#NOTEDATA:;
#CHARTNAME:;
#STEPSTYPE:dance-single;
#DESCRIPTION:;
#CHARTSTYLE:;
#DIFFICULTY:Medium;
#METER:10;
#RADARVALUES:0.392189,0.420002,0.347340,0.200389,0.026719,411.000000,359.000000,52.000000,30.000000,0.000000,0.000000,0.000000,0.000000,0.000000,0.392189,0.420002,0.347340,0.200389,0.026719,411.000000,359.000000,52.000000,30.000000,0.000000,0.000000,0.000000,0.000000,0.000000;
#CREDIT:;
#OFFSET:-0.987000;
#BPMS:0.000000=73.000000
,2.000000=74.000000
,34.000000=88.000999
,36.000000=100.000000
,38.000000=110.001999
,39.000000=109.998001
,40.000000=120.000000
,42.000000=130.000000
,44.000000=132.000000
,232.000000=129.000000
,236.000000=124.999992
,238.000000=115.000000
,239.000000=112.000000
,240.000000=105.000000
,241.000000=100.000000
,242.000000=95.001999
,243.000000=88.000999
,244.000000=80.000000
,245.000000=75.999001
,246.000000=73.000999
,247.000000=71.099998
,248.000000=73.999001
,249.000000=74.001999
,250.000000=73.999001
,253.000000=74.001999
,254.000000=73.999001
,257.000000=74.001999
,258.000000=75.999001
,259.000000=73.500000
,264.000000=73.999001
,265.000000=74.001999
,266.000000=73.999001
,268.000000=74.499001
,269.000000=74.501999
,270.000000=74.499001
;
#STOPS:;
#DELAYS:;
#WARPS:;
#TIMESIGNATURES:0.000000=4=4
;
#TICKCOUNTS:0.000000=4
;
#COMBOS:0.000000=1
;
#SPEEDS:0.000000=1.000000=0.000000=0
;
#SCROLLS:0.000000=1.000000
,64.000000=0.900000
,65.000000=0.800000
,66.000000=0.700000
,67.000000=0.600000
,68.000000=0.500000
,99.000000=0.050000
,100.000000=1.000000
,164.000000=0.900000
,164.500000=0.800000
,165.250000=0.700000
,166.000000=0.600000
,167.000000=0.500000
,168.000000=0.000000
,170.500000=1.000000
;
#FAKES:;
#LABELS:0.000000=Song Start
;
#NOTES:
0000
0000
0000
0000
,
0000
0000
0000
0000
,
0000
0000
0000
0000
,
0000
0000
0000
0000
,
1000
0000
0100
0010
0001
0000
0001
0100
,
0100
0000
0010
1000
0200
0000
0310
0000
,
0001
0000
0100
0010
1000
0000
1000
0001
,
0100
0010
0100
1000
0100
0010
0100
0001
,
1000
0000
1100
0000
0010
0010
0001
0000
,
0100
0000
0101
0000
0010
0010
1000
0000
,
1100
0000
0110
0000
0010
0010
0001
0000
,
1001
0000
1001
0000
1001
0001
0100
0000
,
0010
1000
0001
0010
0100
0010
0001
0000
,
0001
1000
0010
0100
0010
1000
0100
0000
,
0010
0001
0100
0010
0100
0001
1000
0000
,
0010
1000
0001
0010
0100
1000
0001
0100
,
0202
0000
0000
0303
,
2001
0000
0000
0000
3010
1000
0001
0010
,
0210
0000
0000
0000
1300
0001
0100
0010
,
2010
0000
0000
0000
3001
0010
0100
1000
,
1002
0000
0010
1003
0000
1000
0010
0100
,
0210
0000
0000
0000
0301
0010
0100
1000
,
2010
0000
0000
0000
3100
1000
0001
0100
,
0210
0000
0000
0000
1300
0100
0001
1000
,
1200
0000
0010
1300
0000
1000
0001
0000
,
0201
0000
0010
0000
0301
0010
0100
1000
,
1020
0000
0100
0000
1030
0001
0010
0100
,
1100
0000
0001
0000
0100
0010
1000
0001
,
0011
0000
1000
0010
0000
0010
0100
0001
,
0012
0000
0100
0000
0013
0001
0100
0010
,
2010
0000
0100
0000
3010
0100
0001
0010
,
0120
0000
1000
0000
0130
0010
0001
1000
,
1010
0000
0010
0100
0000
0100
0001
1000
,
1100
0000
0000
0000
0100
1000
0001
0100
,
0020
0000
0030
0000
0010
1000
0001
0010
,
0200
0000
0300
0000
0100
1000
0001
1000
,
0200
0000
0301
0100
0000
0100
0010
0001
,
0101
0000
0000
0000
0000
0000
0000
0000
0100
0000
0010
0000
1000
0000
0100
2000
,
0000
0000
0000
0000
3000
0000
0000
0000
0001
0000
0100
0000
0100
0000
0010
0200
,
0000
0000
0300
0000
0001
0010
1000
0010
,
0100
0000
0100
1000
2010
0000
3100
0000
,
2002
0000
0000
3003
,
0101
0000
0000
0000
,
0110
0000
0010
1000
0010
0100
0110
0000
,
0101
0000
0001
1000
0100
0010
0110
0000
,
1200
0000
0010
0000
0301
0100
1000
0010
,
0110
0000
0100
0001
1000
0100
0110
0000
,
0011
0000
0001
1000
0010
0100
0110
0000
,
1010
0000
0001
0010
0100
1000
1100
1000
,
1020
0000
0100
0000
0031
0010
1000
0100
,
0010
0000
0000
0010
0000
0000
0100
0000
1000
0000
0001
0000
0101
0000
0000
0000
,
0100
0000
0000
0100
0000
0000
0010
0000
1000
0000
0001
0000
0011
0000
0000
0000
,
0010
0000
0000
0010
0000
0000
0100
0000
1000
0000
0001
0000
0101
0000
0000
0000
,
0210
0000
0001
0000
0310
1000
0001
0010
,
0011
0000
0000
0001
0000
0000
1000
0000
0010
0000
0100
0000
0110
0000
0000
0000
,
1010
0000
0000
1000
0000
0000
0001
0000
0010
0000
0100
0000
1100
0000
0000
0000
,
1001
0000
0000
0001
0000
0000
0100
0000
0010
0000
0100
0000
0101
0000
0001
0000
,
1002
0000
0100
0000
0013
0001
0100
1000
,
0100
0010
1000
0100
0010
0100
1000
0000
,
1000
0010
0001
0010
0100
0001
1000
0000
,
0001
0010
0100
0010
0001
1000
0010
0000
,
0010
0100
1000
0100
0010
1000
0100
0000
,
0100
0010
0001
0010
0100
1000
0001
0100
,
0100
0010
0001
0010
0200
0301
1000
0000
,
1000
0100
0010
0100
1000
0001
0100
0010
,
0100
0001
0100
0010
0100
1000
0100
0001
,
2000
0000
0000
3000
0000
0000
0000
0000
0000
0000
0000
0000
0000
0000
0000
0000
;

//---------------dance-single - ----------------
#NOTEDATA:;
#CHARTNAME:;
#STEPSTYPE:dance-single;
#DESCRIPTION:;
#CHARTSTYLE:;
#DIFFICULTY:Easy;
#METER:6;
#RADARVALUES:0.204206,0.265265,0.166991,0.046757,0.000000,214.000000,189.000000,25.000000,7.000000,0.000000,0.000000,0.000000,0.000000,0.000000,0.204206,0.265265,0.166991,0.046757,0.000000,214.000000,189.000000,25.000000,7.000000,0.000000,0.000000,0.000000,0.000000,0.000000;
#CREDIT:;
#OFFSET:-0.987000;
#BPMS:0.000000=73.000000
,2.000000=74.000000
,34.000000=88.000999
,36.000000=100.000000
,38.000000=110.001999
,39.000000=109.998001
,40.000000=120.000000
,42.000000=130.000000
,44.000000=132.000000
,232.000000=129.000000
,236.000000=124.999992
,238.000000=115.000000
,239.000000=112.000000
,240.000000=105.000000
,241.000000=100.000000
,242.000000=95.001999
,243.000000=88.000999
,244.000000=80.000000
,245.000000=75.999001
,246.000000=73.000999
,247.000000=71.099998
,248.000000=73.999001
,249.000000=74.001999
,250.000000=73.999001
,253.000000=74.001999
,254.000000=73.999001
,257.000000=74.001999
,258.000000=75.999001
,259.000000=73.500000
,264.000000=73.999001
,265.000000=74.001999
,266.000000=73.999001
,268.000000=74.499001
,269.000000=74.501999
,270.000000=74.499001
;
#STOPS:;
#DELAYS:;
#WARPS:;
#TIMESIGNATURES:0.000000=4=4
;
#TICKCOUNTS:0.000000=4
;
#COMBOS:0.000000=1
;
#SPEEDS:0.000000=1.000000=0.000000=0
;
#SCROLLS:0.000000=1.000000
,64.000000=0.900000
,65.000000=0.800000
,66.000000=0.700000
,67.000000=0.600000
,68.000000=0.500000
,99.000000=0.050000
,100.000000=1.000000
,164.000000=0.900000
,164.500000=0.800000
,165.250000=0.700000
,166.000000=0.600000
,167.000000=0.500000
,168.000000=0.000000
,170.500000=1.000000
;
#FAKES:;
#LABELS:0.000000=Song Start
;
#NOTES:
0000
0000
0000
0000
,
0000
0000
0000
0000
,
0000
0000
0000
0000
,
0000
0000
0000
0000
,
1000
0010
0100
0000
,
0001
0010
0100
0100
,
1000
0010
0100
0000
,
0100
0010
1000
0001
,
0020
0000
0000
0000
,
0230
0000
0000
0000
,
2300
0000
0000
0000
,
0001
0001
0001
3001
,
0001
0100
0010
1000
,
1000
0100
0010
0001
,
0001
1000
0010
0100
,
0100
0001
0010
0100
,
2000
0000
0000
0000
,
3001
0000
0000
0100
,
0010
0000
0000
1000
,
0100
0000
0000
0010
,
0001
0000
0001
0000
,
0001
0000
0000
0100
,
0010
0000
0000
1000
,
0100
0000
0000
0001
,
0100
0000
0000
1000
,
1001
0001
0100
0000
,
1001
1000
0100
0000
,
0010
0001
0100
0000
,
0010
1000
0001
1000
,
1010
0010
0100
0000
,
0101
0001
1000
0000
,
1000
0100
0010
0001
,
0100
0000
0010
1000
,
1100
0000
0100
1000
,
0001
0000
0001
1000
,
0010
0000
0010
0100
,
1000
0100
0001
1000
,
1100
0000
0100
0010
,
0011
0000
0011
1000
,
1001
0000
1000
0010
,
0110
0000
1001
0000
,
2200
0000
0000
3300
,
1001
0000
0000
0000
,
0001
0100
0001
0000
,
1000
0010
1000
0000
,
0001
0001
0010
0100
,
1000
0010
0110
0000
,
0001
0010
0110
0000
,
0100
0010
1001
0000
,
0001
0001
0100
0010
,
1000
0001
0011
0000
,
0001
1000
1010
0000
,
0100
0001
1001
0000
,
1000
0100
0010
0100
,
1000
0000
1000
0010
0100
0000
0000
0000
,
0001
0000
0001
0010
0100
0000
0000
0000
,
0100
0000
0100
1000
0001
0000
0000
0000
,
0100
0100
0010
1000
,
1001
0001
0010
0100
,
1001
1000
0010
0100
,
1001
0001
0010
0100
,
1000
0010
0100
0001
,
0101
0010
1000
0000
,
1100
0010
0001
0100
,
0101
0100
0010
0000
,
1000
1000
0001
0001
,
0020
0000
0000
0030
0000
0000
0000
0000
0000
0000
0000
0000
0000
0000
0000
0000
;

//---------------dance-single - ----------------
#NOTEDATA:;
#CHARTNAME:;
#STEPSTYPE:dance-single;
#DESCRIPTION:;
#CHARTSTYLE:;
#DIFFICULTY:Beginner;
#METER:3;
#RADARVALUES:0.139318,0.221054,0.046757,0.013359,0.000000,146.000000,139.000000,7.000000,2.000000,0.000000,0.000000,0.000000,0.000000,0.000000,0.139318,0.221054,0.046757,0.013359,0.000000,146.000000,139.000000,7.000000,2.000000,0.000000,0.000000,0.000000,0.000000,0.000000;
#CREDIT:;
#OFFSET:-0.987000;
#BPMS:0.000000=73.000000
,2.000000=74.000000
,34.000000=88.000999
,36.000000=100.000000
,38.000000=110.001999
,39.000000=109.998001
,40.000000=120.000000
,42.000000=130.000000
,44.000000=132.000000
,232.000000=129.000000
,236.000000=124.999992
,238.000000=115.000000
,239.000000=112.000000
,240.000000=105.000000
,241.000000=100.000000
,242.000000=95.001999
,243.000000=88.000999
,244.000000=80.000000
,245.000000=75.999001
,246.000000=73.000999
,247.000000=71.099998
,248.000000=73.999001
,249.000000=74.001999
,250.000000=73.999001
,253.000000=74.001999
,254.000000=73.999001
,257.000000=74.001999
,258.000000=75.999001
,259.000000=73.500000
,264.000000=73.999001
,265.000000=74.001999
,266.000000=73.999001
,268.000000=74.499001
,269.000000=74.501999
,270.000000=74.499001
;
#STOPS:;
#DELAYS:;
#WARPS:;
#TIMESIGNATURES:0.000000=4=4
;
#TICKCOUNTS:0.000000=4
;
#COMBOS:0.000000=1
;
#SPEEDS:0.000000=1.000000=0.000000=0
;
#SCROLLS:0.000000=1.000000
,64.000000=0.900000
,65.000000=0.800000
,66.000000=0.700000
,67.000000=0.600000
,68.000000=0.500000
,99.000000=0.050000
,100.000000=1.000000
,164.000000=0.900000
,164.500000=0.800000
,165.250000=0.700000
,166.000000=0.600000
,167.000000=0.500000
,168.000000=0.000000
,170.500000=1.000000
;
#FAKES:;
#LABELS:0.000000=Song Start
;
#NOTES:
0000
0000
0000
0000
,
0000
0000
0000
0000
,
0000
0000
0000
0000
,
0000
0000
0000
0000
,
1000
0000
1000
0000
,
0001
0000
0001
0000
,
1000
0000
1000
0000
,
0001
0010
0010
0010
,
0020
0000
0000
0000
,
0000
0000
0000
0000
,
0000
0000
0000
0000
,
0100
0100
0100
0130
,
1000
0000
1000
0000
,
0001
0000
0001
0000
,
0100
0000
0100
0000
,
0010
0000
0010
0000
,
1000
0000
0000
0000
,
1000
0000
0000
0000
,
0100
0000
0000
0000
,
0001
0000
0000
0000
,
0100
0000
0100
0000
,
1000
0000
0000
0000
,
0010
0000
0000
0000
,
0001
0000
0000
0000
,
0010
0000
0010
0000
,
1000
1000
0000
0000
,
0001
0001
0000
0000
,
1000
0000
0000
0000
,
0001
0000
0000
0000
,
0010
0010
0000
0000
,
0100
0100
0000
0000
,
0010
0000
0000
0000
,
0100
0000
0100
0000
,
1001
0000
1000
1000
,
1000
0000
0001
0001
,
0001
0000
0100
0100
,
0100
0000
0100
0000
,
0010
0000
0100
0100
,
0110
0000
0010
0010
,
0110
0000
1000
1000
,
1000
0000
0100
0000
,
0010
0000
0000
0000
,
1001
0000
0000
0000
,
0001
0001
0001
0000
,
0100
0100
0100
0000
,
0010
0000
0010
0000
,
1000
1000
1000
0000
,
0100
0100
0100
0000
,
0010
0010
0010
0000
,
0001
0000
0001
0000
,
0101
0100
0100
0000
,
0110
0010
0010
0000
,
1010
1000
1000
0000
,
0001
0000
0001
0000
,
1000
0001
1000
0000
,
0001
1000
0001
0000
,
0010
0100
0010
0000
,
0001
0000
1000
0000
,
0001
0001
0001
0000
,
1000
1000
1000
0000
,
0001
0001
0001
0000
,
1000
1000
1000
1000
,
0001
0100
0001
0000
,
1000
0010
1000
0000
,
0001
0010
0001
0000
,
1000
0100
1000
0100
,
0020
0000
0000
0030
0000
0000
0000
0000
0000
0000
0000
0000
0000
0000
0000
0000
;

//---------------dance-double - ----------------
#NOTEDATA:;
#CHARTNAME:;
#STEPSTYPE:dance-double;
#DESCRIPTION:;
#CHARTSTYLE:;
#DIFFICULTY:Hard;
#METER:13;
#RADARVALUES:0.447535,0.508424,0.153631,0.140272,0.313942,469.000000,446.000000,23.000000,21.000000,0.000000,0.000000,0.000000,0.000000,0.000000,0.447535,0.508424,0.153631,0.140272,0.313942,469.000000,446.000000,23.000000,21.000000,0.000000,0.000000,0.000000,0.000000,0.000000;
#CREDIT:;
#NOTES:
// measure 0
00000000
00000000
00000000
00000000
,  // measure 1
00000000
00000000
00000000
00000000
,  // measure 2
00000000
00000000
00000000
00000000
,  // measure 3
00000000
00000000
00000000
00000000
,  // measure 4
00011000
00000000
00010000
01000000
10000000
00000000
01000000
00010000
,  // measure 5
00011000
00000000
00001000
00000100
00000001
00000100
00001000
00000000
,  // measure 6
00011000
00000000
00010000
01000000
10000000
00000000
10000000
01000000
,  // measure 7
00010000
00001000
00010000
00001000
00000010
00000001
00000100
00001000
,  // measure 8
00000100
00000000
00000000
00000001
00000000
00000000
00000000
00000000
00000000
00000001
00000000
00000000
00001000
00000000
00000000
00000000
00000000
00000000
00000100
00000000
00000000
00000000
00000010
00000000
00001000
00000000
00000000
00000000
00000000
00000000
00010000
00000000
00000000
00000000
00000000
00000000
00001000
00000000
00000000
00000000
00000000
00000000
00000000
00000000
00000000
00000000
00000000
00000000
,  // measure 9
00010000
00000000
00000000
01000000
00000000
00000000
00000000
00000000
00000000
01000000
00000000
00000000
10000000
00000000
00000000
00000000
00000000
00000000
00100000
00000000
00000000
00000000
01000000
00000000
00010000
00000000
00000000
00000000
00000000
00000000
00010000
00000000
00000000
00000000
00000000
00000000
00100000
00000000
00000000
00000000
00000000
00000000
00000000
00000000
00000000
00000000
00000000
00000000
,  // measure 10
00001000
00000000
00000000
00010000
00000000
00000000
00000000
00000000
00000000
00010000
00000000
00000000
00000010
00000000
00000000
00000000
00000000
00000000
00000100
00000000
00000000
00000000
00000001
00000000
00001000
00000000
00000000
00000000
00000000
00000000
00001000
00000000
00000000
00000000
00000000
00000000
00000100
00000000
00000000
00000000
00000000
00000000
00000000
00000000
00000000
00000000
00000000
00000000
,  // measure 11
00000011
00000000
00000000
00001000
00000001
00000000
00000000
00010000
00001000
00000000
00000000
10000000
00010000
00000000
00000000
00000000
,  // measure 12
10000000
00000000
00100000
01000000
00000000
01000000
00001000
00000000
00001000
00010000
00000000
00010000
00000100
00000000
00000000
00000000
,  // measure 13
00000010
00000001
00001000
00000010
00000100
00000010
00000001
00000000
,  // measure 14
00000010
00000000
00000100
00001000
00000000
00001000
00100000
00000000
00100000
01000000
00000000
01000000
10000000
00000000
00000000
00000000
,  // measure 15
10000000
00000000
01000000
00000000
00100000
00000000
10000000
00000000
00100000
00000000
01000000
00000000
00010000
00001000
00010000
00001000
,  // measure 16
00000200
00000000
00000000
00000300
,  // measure 17
00002000
00000000
00000000
00000010
00000000
00003001
00001000
00000000
00000000
00000000
00001000
00000000
00010000
00000000
00000000
00000000
,  // measure 18
00020000
00000000
00000000
00100000
00000000
10030000
00010000
00000000
00000000
00000000
00010000
00000000
00001000
00000000
00000000
00000000
,  // measure 19
00002000
00000000
00000000
00000100
00000000
00003001
00001000
00000000
00000000
00000000
00001000
00000000
00010000
00000000
01000000
00000000
,  // measure 20
10000000
00000000
10000000
00100000
00000000
00100000
00010000
00001000
,  // measure 21
00020000
00000000
00000000
10000000
00000000
10030000
00010000
00000000
00000000
00000000
00010000
00000000
00001000
00000000
00000000
00000000
,  // measure 22
00002000
00000000
00000000
00000001
00000000
00003001
00001000
00000000
00000000
00000000
00010000
00000000
01000000
00000000
00010000
00000000
,  // measure 23
00002000
00000010
00000000
00000001
00000000
00003001
00001000
00000000
00000000
00000000
00001000
00000000
00010000
00000000
00001000
00000000
,  // measure 24
00000010
00000000
00000010
00001000
00000000
00001000
00011000
00000000
,  // measure 25
00010000
00001000
00000000
01000000
00000000
00100000
10000000
00000000
00000000
00000000
10000000
00000000
01000000
00000000
00100000
00000000
,  // measure 26
00001000
00010000
00000000
00000100
00000000
00000010
00000001
00000000
00000000
00000000
00000001
00000000
00000100
00000000
00000010
00000000
,  // measure 27
00020000
00000000
00000000
00130000
00000000
00100000
00010000
00000000
00000000
00000000
00010000
00000000
00001000
00000000
00000010
00000000
,  // measure 28
00000001
00000100
00000010
00010000
00001000
00000010
00001000
00010000
,  // measure 29
00100000
10000000
00000000
01000000
00000000
00010000
01000000
00000000
00000000
00000000
10000000
00000000
00100000
00000000
00010000
00000000
,  // measure 30
00001000
00000010
00000000
00000001
00000000
00000100
00000001
00000000
00000000
00000000
00000010
00000000
00001000
00000000
00010000
00000000
,  // measure 31
00100000
00010000
00000000
00001000
00000000
00000010
00001000
00000000
00000000
00000000
00010000
00000000
00001000
00000000
00100000
00000000
,  // measure 32
00010000
01000000
00100000
10000000
00000000
01000000
00100000
00001000
,  // measure 33
00021000
00000000
00000000
00000000
00000010
00000000
00000000
00000000
00031000
00000000
00010000
00000000
00000100
00000000
00000100
00001000
,  // measure 34
00000002
00000000
00000000
00000000
00000010
00000000
00000000
00000000
00001003
00000000
00000010
00000000
00010000
00000000
00010000
00001000
,  // measure 35
00200000
00000000
01000000
00000000
10300000
00100000
00010000
01000000
,  // measure 36
02010000
00000000
03100000
01000000
00000000
01000000
00001000
00010000
,  // measure 37
00011000
00000000
00010000
00000010
00000000
00000100
00000000
00000010
00001000
00000001
00000000
00000010
00000000
00000000
00000000
00000000
,  // measure 38
00000100
00000000
00010000
00001000
00000000
00100000
00000000
00010000
01000000
00100000
00000000
01000000
00000000
00000000
00000000
00000000
,  // measure 39
00010000
00000000
10000000
01000000
00000000
00100000
00000000
01000000
00010000
00000000
00001000
00000000
00000100
00000000
00000001
00000000
,  // measure 40
00001001
00000000
00000001
00000010
00001000
00000000
00000000
00000000
,  // measure 41
00012000
00000000
00010000
00000000
00000000
00010000
00000000
00000000
00010000
00000000
00000000
00000000
00003000
00000000
00000000
00000000
,  // measure 42
10010000
00000000
00000000
00000000
,  // measure 43
00011000
00000000
00001000
00000010
00000001
00000100
00001000
00000000
,  // measure 44
00011000
00000000
00010000
00100000
10000000
01000000
00010000
00000000
,  // measure 45
00012000
00000000
00000010
00000000
00003001
00000100
00001000
00000010
,  // measure 46
00002010
00000000
00103000
10000000
01000000
00010000
00001000
00000000
,  // measure 47
00021000
00000000
01030000
10000000
00100000
00010000
00001000
00000000
,  // measure 48
00012000
00000000
00003010
00000001
00000100
00001000
00010000
01000000
,  // measure 49
02010000
00000000
00100000
00000000
13000000
00100000
00010000
00001000
,  // measure 50
00011000
00000000
00000000
00001000
00000001
00000000
00000100
00000000
00001000
00000000
00000010
00000000
00000100
00000000
00000000
00000000
,  // measure 51
00001000
00010000
00000000
00010000
01000000
00000000
10000000
00000000
00100000
00000000
00010000
00000000
00001000
00000000
00000000
00000000
,  // measure 52
00010000
00100000
00000000
00100000
10000000
00000000
01000000
00000000
00010000
00000000
00001000
00000000
00010000
00000000
00000000
00000000
,  // measure 53
00021000
00000000
00100000
00000000
10030000
01000000
00010000
00100000
,  // measure 54
01000000
00010000
00000000
00010000
00001000
00000000
00000010
00000000
00000001
00000000
00000100
00000000
00000101
00000000
00000000
00000000
,  // measure 55
00000100
00000010
00000000
00000010
00010000
00000000
00001000
00000000
00100000
00000000
01000000
00000000
11000000
00000000
00000000
00000000
,  // measure 56
10000000
00100000
00000000
00100000
00010000
00000000
00001000
00000000
00000100
00000000
00000001
00000000
00001000
00000000
00000001
00000000
,  // measure 57
00000021
00000000
00000100
00000000
00001030
00010000
00100000
10000000
,  // measure 58
01000000
10000000
00000000
00100000
01000000
00000000
00010000
00000000
00100000
00000000
00001000
00000000
00010000
00000000
00000000
00000000
,  // measure 59
00001000
00000000
00000000
00000010
00000000
00000000
00000000
00000000
00000000
00000100
00000000
00000000
00001000
00000000
00000000
00000000
00000000
00000000
00000001
00000000
00000000
00000000
00000100
00000000
00000010
00000000
00000000
00000000
00000000
00000000
00000100
00000000
00000000
00000000
00000000
00000000
00001000
00000000
00000000
00000000
00000000
00000000
00010000
00000000
00000000
00000000
00000000
00000000
,  // measure 60
00100000
00000000
00000000
01000000
00000000
00000000
00000000
00000000
00000000
00010000
00000000
00000000
00100000
00000000
00000000
00000000
00000000
00000000
01000000
00000000
00000000
00000000
10000000
00000000
01000000
00000000
00000000
00000000
00000000
00000000
00010000
00000000
00000000
00000000
00000000
00000000
00001000
00000000
00000000
00000000
00000000
00000000
00010000
00000000
00000000
00000000
00000000
00000000
,  // measure 61
00000010
00000000
00000000
00000000
00000000
00000000
00000000
00000000
00000000
00000000
00000000
00000000
00000100
00000000
00000000
00000000
00000000
00000000
00000000
00000000
00000000
00000000
00000000
00000000
00000001
00000000
00000000
00000000
00000000
00000000
00000000
00000000
00000000
00000000
00000000
00000000
00000100
00000000
00000000
00000000
00000000
00000000
00000000
00000000
00000000
00000000
00000000
00000000
00000001
00000000
00000000
00000000
00000000
00000000
00000000
00000000
00000000
00000000
00000000
00000000
00000000
00000000
00000000
00000000
00000000
00000000
00000000
00000000
00000000
00000000
00000000
00000000
00000100
00000000
00000000
00000000
00000000
00000000
00000000
00000000
00000000
00000000
00000000
00000000
00000000
00000000
00000000
00000000
00000010
00000000
00000000
00000000
00000000
00000000
00000000
00000000
00000100
00000000
00000000
00000000
00000000
00000000
00000000
00000000
00000000
00000000
00000000
00000000
00001000
00000000
00000000
00000000
00000000
00000000
00000000
00000000
00000000
00000000
00000000
00000000
00000000
00000000
00000000
00000000
00000000
00000000
00010000
00000000
00000000
00000000
00000000
00000000
00000000
00000000
00000000
00000000
00000000
00000000
00000000
00000000
00000000
00000000
00000000
00000000
01000000
00000000
00000000
00000000
00000000
00000000
00000000
00000000
00000000
00000000
00000000
00000000
00000000
00000000
00000000
00000000
00000000
00000000
00000000
00000000
00000000
00000000
00000000
00000000
00000000
00000000
00000000
00000000
00000000
00000000
00000000
00000000
00000000
00000000
00000000
00000000
00000000
00000000
00000000
00000000
00000000
00000000
00000000
00000000
00000000
00000000
00000000
00000000
,  // measure 62
10000000
01000000
00100000
01000000
10000000
01000000
00010000
00001000
,  // measure 63
00001000
00000000
00000100
00000000
00000001
00000000
00000100
00000000
00000010
00000000
00000100
00000000
00000001
00000100
00001000
00010000
,  // measure 64
00001000
00000010
00000100
00000010
00000001
00000010
00001000
00010000
,  // measure 65
00100000
10000000
01000000
00010000
01000000
10000000
00100000
00010000
,  // measure 66
00002000
00000000
00000000
00003000
00000000
00000000
00000000
00000000
00000000
00000000
00000000
00000000
00000000
00000000
00000000
00000000
;

//---------------dance-double - ----------------
#NOTEDATA:;
#CHARTNAME:;
#STEPSTYPE:dance-double;
#DESCRIPTION:;
#CHARTSTYLE:;
#DIFFICULTY:Medium;
#METER:10;
#RADARVALUES:0.351157,0.375792,0.180350,0.093515,0.120233,368.000000,341.000000,27.000000,14.000000,0.000000,0.000000,0.000000,0.000000,0.000000,0.351157,0.375792,0.180350,0.093515,0.120233,368.000000,341.000000,27.000000,14.000000,0.000000,0.000000,0.000000,0.000000,0.000000;
#CREDIT:;
#NOTES:
// measure 0
00000000
00000000
00000000
00000000
,  // measure 1
00000000
00000000
00000000
00000000
,  // measure 2
00000000
00000000
00000000
00000000
,  // measure 3
00000000
00000000
00000000
00000000
,  // measure 4
00011000
10000000
00010000
00000000
,  // measure 5
10010000
00001000
00010000
00000100
,  // measure 6
00001001
00010000
00001000
00000000
,  // measure 7
00010000
01000000
00010000
01000000
10000000
00100000
10000000
00100000
,  // measure 8
00010000
00000000
00001000
00000000
00000100
00000100
00000001
00000000
,  // measure 9
00000010
00000000
00001000
00000000
00010000
00010000
01000000
00000000
,  // measure 10
10000000
00000000
00100000
00000000
00010000
00010000
00001000
00000000
,  // measure 11
00011000
00000000
00011000
00000000
00011000
00010000
00000100
00000000
,  // measure 12
00000010
00000000
00000000
00000001
00000000
00000000
00000100
00000000
00000000
00000010
00000000
00000000
00001000
00000000
00000000
00000000
,  // measure 13
00000100
00000000
00000000
00000100
00000000
00000000
00010000
00000000
00000000
00010000
00000000
00000000
00010000
00000000
00000000
00000000
,  // measure 14
00001000
00000000
00000000
01000000
00000000
00000000
00100000
00000000
00000000
10000000
00000000
00000000
01000000
00000000
00000000
00000000
,  // measure 15
00100000
00000000
00000000
00001000
00000000
00000000
00010000
00000000
00000000
00010000
00000000
00000000
00010000
00000000
00000000
00000000
,  // measure 16
00022000
00000000
00000000
00033000
,  // measure 17
00012000
00000000
00000000
00010000
00000000
00000000
00013000
00000000
00000000
00000000
00001000
00000000
01000000
00000000
00010000
00000000
,  // measure 18
02000000
00000000
00000000
00010000
00000000
00000000
03010000
00000000
00000000
00000000
00010000
00000000
01000000
00000000
00010000
00000000
,  // measure 19
20000000
00000000
00000000
01000000
00000000
00000000
31000000
00000000
00000000
00000000
01000000
00000000
00100000
00000000
01000000
00000000
,  // measure 20
00010000
00000000
00010000
00001000
00000000
00001000
00000100
00000010
,  // measure 21
00000200
00000000
00000000
00000001
00000000
00000000
00000301
00000000
00000000
00000000
00000001
00000000
00000010
00000000
00000100
00000000
,  // measure 22
00002000
00000000
00000000
00000010
00000000
00000000
00003010
00000000
00000000
00000000
00000010
00000000
00000001
00000000
00000010
00000000
,  // measure 23
00000100
00000000
00000100
00001000
00000000
00001000
00010000
00001000
,  // measure 24
00000100
00000000
00000100
00000001
00000000
00000001
00001000
00000000
,  // measure 25
00001100
00000000
00000000
00010000
00000000
00000000
00001000
00000000
00000000
00000000
00001000
00000000
01000000
00000000
00010000
00000000
,  // measure 26
01010000
00000000
00000000
01000000
00000000
00000000
00100000
00000000
00000000
00000000
10000000
00000000
01000000
00000000
00100000
00000000
,  // measure 27
01000000
00000000
00000000
00010000
00000000
00000000
00001000
00000000
00000000
00000000
00001000
00000000
00010000
00000000
00000010
00000000
,  // measure 28
00001000
00000000
00001000
00000100
00000000
00000100
00000010
00000001
,  // measure 29
00000101
00000000
00000000
00001000
00000000
00000000
00000100
00000000
00000000
00000000
00010000
00000000
00001000
00000000
01000000
00000000
,  // measure 30
01010000
00000000
00000000
10000000
00000000
00000000
01000000
00000000
00000000
00000000
00100000
00000000
00010000
00000000
10000000
00000000
,  // measure 31
00100000
00000000
00000000
00010000
00000000
00000000
00001000
00000000
00000000
00000000
00001000
00000000
00000010
00000000
00001000
00000000
,  // measure 32
00010000
00000000
00010000
00001000
00000000
00001000
00010000
00100000
,  // measure 33
01000000
00000000
00010000
00000000
00000000
10000000
00000000
00000000
01000000
00000000
00000000
01000000
00000000
00000000
00000000
00000000
,  // measure 34
00000000
00000000
00100000
00000000
00000000
00001000
00000000
00000000
00010000
00000000
00000000
00010000
00000000
00000000
00000000
00000000
,  // measure 35
00000000
00000000
00000010
00000000
00000000
00001000
00000000
00000000
00000001
00000000
00000000
00000001
00000000
00000000
00000000
00000000
,  // measure 36
00000000
00000000
00000010
00000000
00000000
00000100
00000000
00000000
00010000
00000000
00010000
00000000
00000000
00000000
00000000
00000000
,  // measure 37
00000000
00000000
00001000
00000000
00000000
01100000
00000000
00000000
10000000
00000000
00000000
10010000
00000000
00000000
00000000
00000000
,  // measure 38
00000000
00000000
10000000
00000000
00000000
00110000
00000000
00000000
00100000
00000000
00000000
00011000
00000000
00000000
00000000
00000000
,  // measure 39
00000000
00000000
00000010
00000000
00000000
00001010
00000000
00000000
00000001
00000000
00000100
00000000
00000010
00000000
00000100
00000000
,  // measure 40
00001000
00000000
00001000
00010000
02000000
00000000
03000000
00000000
,  // measure 41
20000000
00000000
00000000
30000000
,  // measure 42
10010000
00000000
00000000
00000000
,  // measure 43
10010000
00000000
10000000
01000000
00010000
00001000
00010000
00000000
,  // measure 44
00011000
00000000
00001000
00000100
00000001
00001000
00000100
00000000
,  // measure 45
00000012
00000000
00000100
00000000
00000013
00000100
00001000
00000001
,  // measure 46
00000101
00000000
00000100
00000010
00010000
00001000
00100000
00000000
,  // measure 47
00110000
00000000
00010000
10000000
00100000
01000000
00010000
00000000
,  // measure 48
00110000
00000000
00001000
00010000
00000100
00001000
00000010
00000100
,  // measure 49
00000201
00000000
00001000
00000000
00000301
00000010
00000100
00010000
,  // measure 50
00001000
00000000
00000000
00001000
00000000
00000000
01000000
00000000
00100000
00000000
10000000
00000000
01000000
00000000
00000000
00000000
,  // measure 51
00010000
00001000
00000000
00000000
00010000
00000000
00000010
00000000
00000100
00000000
00000001
00000000
00001000
00000000
00000000
00000000
,  // measure 52
00001000
00000010
00000000
00000000
00000100
00000000
00000010
00000000
00010000
00000000
00001000
00000000
00100000
00000000
00000000
00000000
,  // measure 53
02100000
00000000
10000000
00000000
03010000
00001000
00000100
00000001
,  // measure 54
00001000
00000100
00000000
00000000
00000010
00000000
00000001
00000000
00000100
00000000
00000010
00000000
00001000
00000000
00000000
00000000
,  // measure 55
00001100
00000000
00010000
00100000
10000000
01000000
10000000
00000000
,  // measure 56
10000000
00100000
00000000
00000000
10000000
00000000
01000000
00000000
00100000
00000000
00001000
00000000
00010000
00000000
00001000
00000000
,  // measure 57
00000020
00000000
00000001
00000000
00001030
00010000
00100000
10000000
,  // measure 58
00010000
00100000
01000000
00000000
01000000
10000000
00100000
00000000
,  // measure 59
00100000
00010000
00001000
00000000
00001000
00000010
00000001
00000000
,  // measure 60
00000001
00000100
00001000
00000000
00001000
00010000
01000000
00000000
,  // measure 61
10000000
00100000
00010000
00000000
00001000
00000010
00000001
00000000
,  // measure 62
00000001
00000100
00000010
00000100
00001000
00000000
00010000
01000000
,  // measure 63
10000000
01000000
00100000
01000000
00010000
00001000
00010000
00000000
,  // measure 64
00001000
00000010
00000100
00000010
00000001
00000000
00001000
00000010
,  // measure 65
00000100
00001000
00010000
00100000
10000000
01000000
00100000
00001000
,  // measure 66
00020000
00000000
00000000
00030000
00000000
00000000
00000000
00000000
00000000
00000000
00000000
00000000
00000000
00000000
00000000
00000000
;

//---------------dance-double - ----------------
#NOTEDATA:;
#CHARTNAME:;
#STEPSTYPE:dance-double;
#DESCRIPTION:;
#CHARTSTYLE:;
#DIFFICULTY:Easy;
#METER:7;
#RADARVALUES:0.229970,0.331581,0.233787,0.173670,0.000000,241.000000,206.000000,35.000000,26.000000,0.000000,0.000000,0.000000,0.000000,0.000000,0.229970,0.331581,0.233787,0.173670,0.000000,241.000000,206.000000,35.000000,26.000000,0.000000,0.000000,0.000000,0.000000,0.000000;
#CREDIT:;
#NOTES:
// measure 0
00000000
00000000
00000000
00000000
,  // measure 1
00000000
00000000
00000000
00000000
,  // measure 2
00000000
00000000
00000000
00000000
,  // measure 3
00000000
00000000
00000000
00000000
,  // measure 4
00010000
01000000
10000000
00000000
,  // measure 5
00001000
00000100
00000001
00000000
,  // measure 6
00010000
01000000
10000000
00000000
,  // measure 7
00001000
00000010
00000001
00000100
,  // measure 8
00001000
00000000
00010000
01000000
,  // measure 9
10000000
00000000
10000000
01000000
,  // measure 10
00010000
00000000
00001000
00000100
,  // measure 11
00000001
00000001
00000001
00000100
,  // measure 12
00000010
00010000
00001000
00000000
,  // measure 13
00100000
00001000
00010000
00000000
,  // measure 14
00000010
00001000
00010000
00000000
,  // measure 15
00100000
00010000
00001000
00000100
,  // measure 16
00002002
00000000
00000000
00003003
,  // measure 17
00000012
00000000
00000000
00010003
,  // measure 18
00002000
00000000
00000000
10003000
,  // measure 19
00020000
00000000
00000000
10030000
,  // measure 20
02000000
00000000
03020000
00000000
,  // measure 21
00032000
00000000
00000000
00003001
,  // measure 22
00002000
00000000
00000000
00013000
,  // measure 23
20000000
00000000
00000000
30100000
,  // measure 24
00020000
00000000
02000000
03030000
,  // measure 25
10020000
00100000
01030000
00001000
,  // measure 26
00021000
00000010
00000100
00031000
,  // measure 27
00020000
00100000
10000000
00100000
,  // measure 28
00032000
00000010
00000001
00003010
,  // measure 29
00010000
01100000
10000000
00010000
,  // measure 30
00001000
00000110
00000001
00001000
,  // measure 31
00010000
00100000
01000000
10000000
,  // measure 32
00010000
01000000
00100000
00010000
,  // measure 33
00011000
00000000
00001000
00000100
,  // measure 34
00000001
00000000
00000001
00000010
,  // measure 35
00001000
00000000
00010000
00100000
,  // measure 36
10000000
00100000
00010000
00001000
,  // measure 37
00011000
00000000
00000001
00000010
,  // measure 38
00001010
00000000
00011000
00010000
,  // measure 39
00110000
00000000
00100000
10000000
,  // measure 40
11000000
00000000
00000000
00010000
00010000
00000000
00000000
00000000
,  // measure 41
00022000
00000000
00000000
00033000
,  // measure 42
00011000
00000000
00000000
00000000
,  // measure 43
00002000
00000010
00010000
00003010
,  // measure 44
00000002
00000100
00001000
00000103
,  // measure 45
00000001
00000001
00000010
00001000
,  // measure 46
00020000
00100000
10000000
00100000
,  // measure 47
00032000
00000010
00000001
00003010
,  // measure 48
00020000
00100000
10000000
01000000
,  // measure 49
00031000
00000010
00000001
00000100
,  // measure 50
00000101
00000100
00000010
00010000
,  // measure 51
00011000
00001000
00100000
00010000
,  // measure 52
01010000
01000000
00100000
10000000
,  // measure 53
11000000
01000000
00100000
00001000
,  // measure 54
00011000
00000010
00000100
00000001
,  // measure 55
00001001
00000010
00000100
00010000
,  // measure 56
00011000
01000000
00100000
10000000
,  // measure 57
10020000
00100000
00031000
00000001
,  // measure 58
00000101
00000100
00001000
00010000
,  // measure 59
00011000
00010000
01000000
10000000
,  // measure 60
11000000
10000000
00100000
00010000
,  // measure 61
00011000
00001000
00000010
00000001
,  // measure 62
00000011
00001001
00001010
00000000
,  // measure 63
00001010
00010010
00021000
01030000
,  // measure 64
11000000
10100000
10010000
00000000
,  // measure 65
10000000
01000000
00010000
00001000
,  // measure 66
00000200
00000000
00000000
00000300
00000000
00000000
00000000
00000000
00000000
00000000
00000000
00000000
00000000
00000000
00000000
00000000
;
