#TITLE:Close my Eyes for Me;
#SUBTITLE:;
#ARTIST:D. Crew feat. DENNIS GUNN (DJ Yoshitaka SCRATCHING);
#TITLETRANSLIT:;
#SUBTITLETRANSLIT:;
#ARTISTTRANSLIT:;
#GENRE:AMERICA;
#CREDIT:;
#MUSIC:Close my Eyes for Me.ogg;
#BANNER:Close my Eyes for Me.png;
#BACKGROUND:Close my Eyes for Me-bg.png;
#CDTITLE:cdtitle.png;
#SAMPLESTART:59.242;
#SAMPLELENGTH:15.000;
#SELECTABLE:YES;
#OFFSET:0.000;
#BPMS:0.000=132.000
,196.000=145.000
;
#STOPS:;
#BGCHANGES:-0.500=Close my Eyes for Me.avi=1.000=1=0=0=StretchNoLoop==CrossFade==;
#FGCHANGES:;

//--------------- dance-single - KAYSTAR ----------------
#NOTES:
     dance-single:
     KAYSTAR:
     Beginner:
     3:
     0,0,0,0,0:
0000
0000
0000
0000
,
0000
0000
0000
0000
,
0000
0000
0000
0000
,
0000
0000
0000
0000
,
0000
0000
0000
0000
,
1000
0000
0000
0000
,
1000
0000
0000
0000
,
0001
0000
0000
0000
,
0001
0000
0000
0000
,
1000
0000
0100
0000
,
1000
0000
0000
0000
,
0001
0000
0100
0000
,
0001
0000
0000
0000
,
1000
0000
0010
0000
,
1000
0000
0000
0000
,
0001
0000
0010
0000
,
0001
0000
0000
0000
,
1000
0000
0010
0000
,
0200
0000
0300
0000
,
0200
0000
0300
0000
,
0200
0000
0300
0000
,
0001
0000
0010
0000
,
0200
0000
0300
0000
,
0200
0000
0300
0000
,
0200
0000
0300
0000
,
1000
0000
0000
0000
,
0001
0000
0000
0000
,
0100
0000
0010
0000
,
1000
0000
0000
0000
,
0001
0000
0000
0000
,
1000
0000
0000
0000
,
0100
0000
0010
0000
,
0002
0000
0003
0000
,
1000
0000
0001
0000
,
0200
0000
0300
0000
,
0001
0000
1000
0000
,
0200
0000
0300
0000
,
1000
0000
0001
0000
,
0200
0000
0300
0000
,
0010
0000
0010
0000
,
2000
0000
3000
0000
,
0001
0001
0001
0000
,
0010
0010
0010
0000
,
0100
0000
1000
0000
,
0002
0000
0003
0000
,
1000
1000
1000
0000
,
0010
0010
0010
0000
,
0100
0000
0001
0000
,
2000
0000
3000
0000
,
1001
0000
0000
0000
,
0000
0000
0000
0000
,
0000
0000
0000
0000
,
0000
0000
0000
0000
,
0001
0000
1000
0000
,
0200
0000
0300
0000
,
1000
0000
0001
0000
,
0200
0000
0300
0000
,
0001
0000
1000
0000
,
0100
0000
0100
0000
,
1000
0000
0001
0000
,
0100
0000
0100
0000
,
0010
0010
0010
0000
,
1000
0000
0100
0000
,
0010
0010
0010
0000
,
0001
0000
1000
0000
,
1001
0000
0000
0000
,
0001
0001
0001
0000
,
1000
1000
1000
0000
,
0001
1000
0001
1000
;

//--------------- dance-single - KAYSTAR ----------------
#NOTES:
     dance-single:
     KAYSTAR:
     Easy:
     7:
     0,0,0,0,0:
0000
0000
0000
0000
,
0000
0000
0000
0000
,
0000
0000
0000
0000
,
0000
0000
0000
0000
,
0000
0000
0000
0000
,
1000
0000
0000
1000
0000
0000
0000
0000
,
0001
0000
0000
0001
0000
0000
0000
0000
,
1000
0000
0000
1000
0000
0000
0000
0000
,
0001
0000
0000
0001
0000
0000
0000
0000
,
1000
0100
0010
0001
,
1000
0000
0000
1000
0000
0000
0000
0000
,
0001
0100
0010
1000
,
0001
0000
0000
0001
0000
0000
0000
0000
,
1000
0100
0020
0030
,
0001
0100
0020
0030
,
1000
0100
0020
0030
,
0001
0100
0010
1000
,
0001
0000
0010
0001
0010
0000
0100
0000
,
1000
1000
1000
0000
,
0010
0010
0010
0000
,
0100
0100
0100
0001
,
1000
0000
0100
1000
0100
0000
0010
0000
,
0001
0001
0001
0000
,
0100
0100
0100
0000
,
0010
0010
0010
1000
,
0002
0000
0023
0000
,
0230
0000
2300
0000
,
3020
0000
0032
0000
,
0023
0000
0000
0000
,
2030
0000
3002
0000
,
0023
0000
2030
0000
,
3020
0000
0032
0000
,
1003
0010
0100
0001
,
1000
0000
0100
1000
0000
0000
0001
0000
,
0100
1000
0100
0001
,
1000
0000
0010
1000
0000
0000
0001
0000
,
0010
0100
1000
1000
,
0001
0000
0100
0001
0000
0000
1000
0000
,
0100
0001
0100
1000
,
0001
0000
0010
0001
0000
0000
1000
0000
,
2002
0000
3003
0000
,
0001
0000
1000
0010
0000
1000
0010
0000
,
0100
0001
1000
1000
,
0001
0000
0010
0100
0000
0010
0100
0000
,
2000
0000
3000
0000
,
1000
0000
0001
0100
0000
0001
0100
0000
,
0010
1000
0001
0001
,
1000
0000
0100
0010
0000
0100
0010
0000
,
0002
0203
0320
1030
,
1001
0000
0000
0000
,
0001
0000
0000
0000
,
1000
0000
0000
0000
,
0100
0100
0010
0010
,
0001
0000
1000
0000
0010
1000
0010
0000
,
0200
0300
0001
0001
,
1000
0000
0001
0000
0010
0001
0010
0000
,
0200
0300
1000
1000
,
0001
0000
1000
0010
0000
0000
0100
0010
,
0000
0000
0100
0001
0000
0000
1000
0000
,
0001
0010
0001
0000
0001
0000
0000
0000
,
1000
0010
1000
0000
1000
0000
0000
0000
,
0001
0010
1000
0010
,
0001
0010
0100
0100
,
1000
0010
0001
0010
,
1000
0010
0100
0100
,
0001
0000
0000
0000
,
1000
0100
1000
0000
0200
0000
0310
0000
,
0001
0100
0001
0000
0200
0000
0310
0000
,
1000
0001
1000
0001
1000
0001
1000
0001
;

//--------------- dance-single - KAYSTAR ----------------
#NOTES:
     dance-single:
     KAYSTAR:
     Medium:
     11:
     0,0,0,0,0:
0000
0000
0000
0000
,
0000
0000
0000
0000
,
0000
0000
0000
0000
,
0000
0000
0000
0000
,
0000
0000
0000
0000
,
1100
0000
0000
1100
0000
0000
0000
0000
,
0101
0000
0000
0101
0000
0000
0000
0000
,
1010
0000
0000
1010
0000
0000
0000
0000
,
0011
0000
0000
0011
0000
0000
0000
0000
,
1000
0000
0010
0100
0001
0000
0010
0100
,
1000
0000
0001
0100
1000
0100
0001
0000
,
1000
0100
0010
0001
1000
0001
1000
0020
,
0000
0130
0001
1000
0100
0001
0100
1000
,
0001
0000
0101
0000
0100
1000
0100
0001
,
1000
0000
1100
0000
0100
0001
0100
1000
,
0001
0000
1001
0000
1000
0010
0100
0002
,
0000
0013
0100
1000
0010
0001
0010
1000
,
0000
0001
0100
0010
1000
0000
0001
0010
,
0011
0000
1100
0000
1000
0100
0001
0000
,
0011
0000
1100
0000
1000
0100
0001
0000
,
0011
0000
1100
0000
1000
0001
1000
0001
,
0000
1000
0100
0010
0001
0000
1000
0010
,
1010
0000
0101
0000
0001
0100
1000
0000
,
1010
0000
0101
0000
0001
0100
1000
0000
,
1010
0000
0101
0000
0001
1000
0001
1000
,
0200
0010
2300
0010
,
3002
0010
0203
0010
,
0301
0000
1000
0100
0010
0000
0001
0100
,
0020
1030
0001
0011
,
0020
0100
0032
0100
,
2003
0100
3020
0100
,
1030
0001
0010
0100
1000
0000
1001
0000
,
0001
0100
1000
0100
0001
0010
0100
1000
,
0001
0000
1000
1010
0000
0001
1000
0200
,
0010
0000
0000
0010
0000
0000
0310
0000
0000
0000
0001
0000
0100
0000
0010
0000
,
1000
0000
0001
0011
0000
1000
0001
0200
,
0010
0000
0000
0010
0000
0000
0310
0000
0000
0000
1000
0000
0001
0000
1000
0000
,
0001
0000
1000
1100
0000
0001
1000
0020
,
0100
0000
0000
0100
0000
0000
0130
0000
0000
0000
0001
0000
0010
0000
0100
0000
,
1000
0000
0001
0101
0000
1000
1100
0000
,
2002
0000
0000
3003
,
0001
0100
0010
1000
0200
0000
0310
0001
,
1000
0010
0001
0001
0010
1000
0001
0000
,
1000
0100
0010
0001
0200
0000
0310
1000
,
0001
0010
1000
1000
0010
0001
1000
0000
,
0001
0100
1000
0000
2010
0000
3001
0000
,
1000
0100
0001
0000
0012
0000
1003
0000
,
0001
0100
0010
1000
0100
0001
0100
1000
,
0001
0100
1000
0100
0001
0010
0100
1000
,
1001
0000
0000
0000
,
1001
0000
0000
0000
0000
0000
0000
0001
,
1001
0000
0000
0000
,
1000
1000
0001
0001
,
1000
0100
0010
0001
0100
1000
0100
0001
,
1002
0010
1000
0103
,
0001
0100
0010
1000
0100
0001
0100
1000
,
2001
0010
0001
3100
,
1000
0100
0010
0002
0000
0103
0010
2000
,
0000
3100
0010
0002
0000
0103
0010
1000
,
0001
0010
0100
0002
0000
0103
0010
0001
,
1000
0010
0100
2000
0000
3100
0010
1000
,
0001
0010
1000
0010
0001
0010
0100
1000
,
0010
0001
0010
1000
0010
0100
0001
0000
,
1000
0100
0001
0100
1000
0100
0010
0001
,
0100
1000
0100
0001
0100
0010
1000
0000
,
0001
0011
1000
1010
,
0001
0010
1000
0100
0001
0010
1000
0100
,
0001
0010
1000
0100
0001
0010
1000
0100
,
0001
0010
1000
0100
0001
0010
1000
0100
;

//--------------- dance-single - KAYSTAR ----------------
#NOTES:
     dance-single:
     KAYSTAR:
     Hard:
     15:
     0,0,0,0,0:
0000
0000
0000
0000
,
0000
0000
0000
0000
,
0000
0000
0000
0000
,
0000
0000
0000
0000
,
0000
0000
0000
0000
0000
0000
0000
0000
0000
0000
0000
0000
0004
0003
0000
0000
,
0101
0100
0010
1010
0000
0000
0000
0000
,
1100
0100
0010
0011
0000
0000
0000
1000
,
1001
0000
0001
0000
0100
0000
0110
0000
0000
0000
0000
0000
1000
0001
1000
0000
,
0001
0000
1000
0100
0010
0100
1000
0000
0001
0010
0100
0010
0001
0000
0001
0000
,
1002
0000
0103
0010
2000
0000
3001
1001
,
1000
0100
0010
0001
0100
1000
0100
0001
,
0010
0000
0000
0010
0100
0000
1000
0000
0001
0000
0001
0000
0100
0010
2000
0000
,
0000
3100
0001
0100
1000
1000
0010
0100
,
0002
0000
1003
0100
0011
0011
0000
0001
,
1000
1000
0001
0100
1010
1010
0000
1000
,
0001
0000
0001
0000
1000
0000
0100
0000
0011
0000
0011
0000
1000
0001
2000
0000
,
0000
0000
3100
0010
0001
0000
1000
0000
0010
0100
0010
0100
0001
0000
1001
0000
,
0000
0000
1000
0100
0010
0000
0001
0000
0201
0000
0000
0000
0310
0000
1000
0001
,
2000
0000
0000
0000
3200
0000
0000
0000
0301
0000
1000
0000
0010
0000
0001
1000
,
0002
0000
0000
0000
0203
0000
0000
0000
1300
0000
0001
0000
0010
0000
1000
0001
,
2000
0000
3200
0000
0310
0010
0010
1001
,
0000
0000
0001
0010
0100
0000
1000
0000
1020
0000
0000
0000
0130
0000
0001
1000
,
0002
0000
0000
0000
0023
0000
0000
0000
1030
0000
0001
0000
0100
0000
1000
0001
,
2000
0000
0000
0000
3020
0000
0000
0000
0031
0000
1000
0000
0100
0000
0001
1000
,
0001
0000
1000
0100
0010
0000
0001
0000
1000
0010
0100
0001
1000
0000
0001
0010
,
0200
0000
0000
0000
1300
0000
0001
0000
0100
0010
0000
0000
1010
0000
1000
0000
,
0100
0010
0000
0000
0011
0000
0001
0000
0100
0000
0010
0000
1000
0001
2000
0000
,
0000
0000
3100
0000
0001
0000
0100
0000
1000
0001
1000
0000
0010
0000
0100
0001
,
0020
0000
0000
0000
0130
0000
1000
0001
0100
0000
0010
0000
0110
0000
0000
0000
,
1000
0000
1000
0000
0001
0000
0001
0000
1000
0100
0010
0000
0001
0000
0200
0000
,
0000
0000
0310
1000
0001
0000
0010
0000
0100
1000
0001
0000
1000
0000
1000
0000
,
0001
0000
0100
0000
1000
0000
0100
0000
0002
0000
0000
0000
1003
0000
0100
1000
,
0020
0000
0130
0001
1000
0000
0100
0010
0100
0010
0001
0000
1000
0010
0100
0001
,
0020
0000
0000
0000
0130
0000
1100
0000
0000
0000
0001
0100
0000
1000
0100
0000
,
0110
0000
0000
1010
0000
0000
1001
0000
0000
0000
0001
0010
0100
0000
1000
0000
,
1020
0000
0000
0000
0130
0000
0101
0000
0000
0000
1000
0100
0000
0001
0100
0000
,
0110
0000
0000
0011
0000
0000
1001
0000
1000
0010
0100
0001
0000
0000
1000
0000
,
1200
0000
0000
0000
0310
0000
0011
0000
0000
0000
1000
0010
0000
0100
0001
0000
,
0011
0000
0000
1010
0000
0000
0011
0000
0010
0100
1000
0000
0001
1000
0001
0000
,
0102
0000
0000
0000
1003
0000
2100
0000
0000
0000
3001
0100
0010
1000
0100
0000
,
0110
0000
0000
0110
0000
0000
2002
0000
0000
0000
0000
0000
3003
0000
0000
0000
,
0101
0000
0100
0010
1000
0000
1100
0000
0100
0000
0010
0001
1000
0000
1000
0000
,
0001
0100
0010
0100
0001
0000
1000
0010
0100
0010
1000
0000
0001
0000
0000
0000
,
0011
0000
0010
0100
1000
0000
1010
0000
0010
1000
0100
0000
0100
0000
0010
0001
,
0100
0000
0100
0000
0010
1000
0001
0000
1000
0100
0001
0100
4000
3000
0000
0000
,
1100
0000
0100
0010
0001
0000
0101
0000
0100
0000
0010
1000
0001
0000
0001
0000
,
1000
0100
0010
0001
1000
0000
0001
0100
0010
1000
0001
0000
1000
0100
0010
0000
,
0110
0000
0001
0100
0010
0000
0110
0000
1000
0000
0001
0100
0000
1000
0100
0000
,
0001
0010
0001
0010
0100
1000
0100
1000
0001
0100
0010
1000
0001
1000
0100
0010
,
0001
0000
0000
0000
,
0101
0000
0000
0000
0000
0000
0000
1000
,
1100
0000
0000
0000
,
1001
0000
0001
0100
0000
0010
1000
0000
0100
0000
0010
0000
0001
1000
0001
1000
,
0010
0000
1000
0010
0100
0000
0001
0000
0010
0000
0100
1000
0001
0000
0100
0000
,
0110
0000
0001
1000
0000
0100
1000
0000
0010
0000
1000
0001
0000
0100
0001
0000
,
0010
0000
0001
0010
0100
0000
1000
0000
0010
0000
0100
0001
1000
0000
0100
0010
,
0100
0000
1000
0001
0000
0100
0001
0000
0010
0000
0001
1000
0000
0100
1000
0000
,
0010
0000
0100
0001
1000
0000
1200
0000
0000
0000
0310
0000
0001
0000
0201
0000
,
0000
0000
0310
0000
1000
0000
1200
0000
0000
0000
0310
0001
0000
1000
0010
0000
,
1000
0010
0100
0000
0001
0000
1000
0100
0001
0000
0100
0010
0100
0000
1000
0000
,
0001
0010
0100
0000
1000
0000
0001
0100
1000
0000
0100
0010
0100
0000
0001
0000
,
1002
0000
0000
0000
0013
0000
1000
0000
0001
0000
0100
0010
0000
0100
1000
0000
,
1002
0000
0000
0000
0103
0000
1000
0000
0001
0000
0010
0100
0000
0010
1000
0000
,
2001
0000
0000
0000
3100
0000
0001
0000
1000
0000
0010
0100
0000
0010
0001
0000
,
2001
0000
0000
0000
3010
0000
0100
0000
0001
1000
0001
1000
0100
0000
0010
0001
,
1000
0000
0000
1000
0010
0000
0100
0000
0001
0000
0000
0001
0010
0000
0100
0000
,
1000
0001
1000
0001
0100
0000
0110
0000
0001
0100
1000
0100
0001
0000
1000
0000
,
0001
1000
0001
1000
0100
0000
0110
0000
1000
0100
0001
0100
1000
0000
0001
0000
,
0100
0010
0100
0010
1000
0001
0010
0100
1000
0010
0100
0001
0010
0100
1000
0001
;

//--------------- dance-double - KAYSTAR ----------------
#NOTES:
     dance-double:
     KAYSTAR:
     Easy:
     7:
     0,0,0,0,0:
00000000
00000000
00000000
00000000
,
00000000
00000000
00000000
00000000
,
00000000
00000000
00000000
00000000
,
00000000
00000000
00000000
00000000
,
00000000
00000000
00000000
00000000
,
00001000
00000000
00000000
00001000
00000000
00000000
00000000
00000000
,
00010000
00000000
00000000
00010000
00000000
00000000
00000000
00000000
,
00001000
00000000
00000000
00001000
00000000
00000000
00000000
00000000
,
00010000
00000000
00000000
00010000
00000000
00000000
00000000
00000000
,
00001000
00000000
01000000
00000000
00010000
10000000
00010000
00000000
,
10000000
00000000
00000000
10000000
00000000
00000000
00000000
00000000
,
01000000
00000000
00010000
00000000
00001000
00010000
00001000
00000000
,
00010000
00000000
00000000
00010000
00000000
00000000
00000000
00000000
,
00010000
00000000
00000100
00000000
00001000
00000001
00001000
00000000
,
00000001
00000000
00000000
00000001
00000000
00000000
00000000
00000000
,
00000100
00000000
00001000
00000000
00010000
00001000
00010000
00000000
,
00001000
00000000
00000000
00001000
00000000
00000000
00000000
00000000
,
00010000
00001000
01000000
00100000
,
10000000
10000000
10000000
00000000
,
01000000
01000000
01000000
00000000
,
00010000
00010000
00010000
00000000
,
00001000
00010000
00000100
00000010
,
00000001
00000001
00000001
00000000
,
00000100
00000100
00000100
00000000
,
00001000
00001000
00001000
00000000
,
00021000
00000000
00230000
00000000
,
20300000
00000000
32000000
00000000
,
03200000
00000000
00302000
00000000
,
00020000
00000000
00033000
00000000
,
00012000
00000000
00003020
00000000
,
00000032
00000000
00000203
00000000
,
00000320
00000000
00020030
00000000
,
00002000
00000000
00033000
00000000
,
00001000
00000000
00010000
00001000
00000000
00000000
01000000
00000000
,
00100000
00100000
01000000
00001000
,
00010000
00000000
00001000
00010000
00000000
00000000
00000100
00000000
,
00000010
00000010
00000100
00010000
,
00001000
00000000
00010000
00001000
00000000
00000000
01000000
00000000
,
00100000
00100000
01000000
00001000
,
00010000
00000000
00001000
00010000
00000000
00000000
00000100
00000000
,
00002002
00000000
00003003
00000000
,
00000001
00000000
00001000
00000100
00000000
00001000
00000100
00000000
,
00000010
00000001
00001000
00000010
,
00000100
00000000
00001000
00010000
00000000
00001000
00010000
00000000
,
01000000
00100000
00010000
10010000
,
10000000
00000000
00010000
01000000
00000000
00010000
01000000
00000000
,
00100000
10000000
00010000
00100000
,
01000000
00000000
00010000
00001000
00000000
00010000
00001000
00000000
,
00000100
00000001
00000010
00000100
,
00002000
00000000
00003000
00000000
,
00000002
00000000
00000003
00000000
,
00002000
00000000
00003000
00000000
,
00000001
00000001
00001000
00001000
,
00000001
00000000
00000100
00000000
00001000
00010000
00001000
00000000
,
00020000
00000000
00130000
00000000
,
10000000
00000000
01000000
00000000
00010000
00001000
00010000
00000000
,
00002000
00000000
00003010
00000000
,
00000001
00000000
00000100
00001000
00000000
00000000
00010000
00001000
,
00000000
00000000
00010000
00100000
00000000
00000000
10000000
00000000
,
00010000
00000000
00100000
00001000
00000000
00000000
00010000
00000000
,
00001000
00000000
00010000
00000100
00000000
00000000
00001000
00000000
,
00000001
00000100
00001000
00001000
,
00010000
01000000
20000000
30000000
,
10000000
00100000
00010000
00010000
,
00001000
00000010
00000002
00000003
,
00000001
00000000
00000000
00000000
,
00001000
00000000
00000010
00000000
00010000
00001000
00010000
00000000
,
00001000
00000000
00100000
00000000
00001000
00010000
00001000
00000000
,
00010000
00000000
00001000
00010000
00001000
00010000
00001000
00010000
;

//--------------- dance-double - KAYSTAR ----------------
#NOTES:
     dance-double:
     KAYSTAR:
     Medium:
     11:
     0,0,0,0,0:
00000000
00000000
00000000
00000000
,
00000000
00000000
00000000
00000000
,
00000000
00000000
00000000
00000000
,
00000000
00000000
00000000
00000000
,
00000000
00000000
00000000
00000000
,
01001000
00000000
00000000
01001000
00000000
00000000
00000000
00000000
,
00011000
00000000
00000000
00011000
00000000
00000000
00000000
00000000
,
00010100
00000000
00000000
00010100
00000000
00000000
00000000
00000000
,
00011000
00000000
00000000
00011000
00000000
00000000
00000000
00000000
,
00020000
00000000
00031000
01000000
00010000
00000000
10000000
01000000
,
00100000
00000000
00001000
01000000
00010000
01000000
00001000
00000000
,
00011000
00000000
00010000
00000100
00001000
00000000
00000001
00000100
,
00000010
00000000
00010000
00000100
00001000
00000100
00010000
00000000
,
00011000
00000000
00001000
00010000
00100000
00010000
00001000
00000000
,
00011000
00000000
00010000
00001000
00000010
00001000
00010000
00000000
,
00011000
00000000
00001000
00010000
01000000
00010000
00001000
00000000
,
00010000
00001000
00000100
00001000
00020000
00000000
00031000
00011000
,
00000000
00010000
00000100
00000010
00000002
00000000
00001003
00000000
,
00000201
00000000
00001300
00000000
00000100
00001000
00010000
00000000
,
00021000
00000000
00130000
00000000
00010000
00100000
10000000
00000000
,
20010000
00000000
31000000
00100000
00001000
00010000
00010000
00011000
,
00000000
00001000
01000000
00100000
20000000
00000000
30010000
00000000
,
12000000
00000000
03010000
00000000
01000000
00010000
00001000
00000000
,
00012000
00000000
00003010
00000000
00001000
00000010
00000001
00000000
,
00001000
00000010
00010000
00001000
00010000
00001000
01000000
00010000
,
20000000
00000000
32000000
00000000
03010000
00001000
00010000
00000000
,
00002000
00000000
00003200
00000000
00000301
00001000
00000001
00000000
,
00000010
00000100
00001000
00000000
00000010
00000100
00000001
00000000
,
00002002
00000000
00003003
00000000
,
00000002
00000000
00000023
00000000
00001030
00010000
00001000
00000000
,
00020000
00000000
00230000
00000000
10300000
00010000
10000000
00000000
,
00010000
00100000
01000000
10000000
00200000
00000000
01300000
00000000
,
00010000
00100000
01000000
10000000
00100000
01000000
00010000
00100000
,
00002000
00000000
00013000
00011000
00000000
00001000
00000010
00000002
,
00001000
00000000
00000000
00001000
00000000
00000000
00001003
00000000
00000000
00000000
00000001
00000000
00000100
00000000
00000010
00000000
,
00020000
00000000
00031000
00011000
00000000
00010000
00100000
20000000
,
00010000
00000000
00000000
00010000
00000000
00000000
30010000
00000000
00000000
00000000
10000000
00000000
01000000
00000000
00100000
00000000
,
00002000
00000000
00013000
00011000
00000000
00001000
00000010
00000002
,
00001000
00000000
00000000
00001000
00000000
00000000
00001003
00000000
00000000
00000000
00000001
00000000
00000100
00000000
00000010
00000000
,
00020000
00000000
00031000
00020000
00000000
00031000
01000000
00010000
,
20020000
00000000
30030000
00000000
,
10000000
01000000
00010000
01000000
10000000
01000000
00100000
00001000
,
00002000
00000000
00013000
00000100
00001000
00000000
00001001
00000000
,
00000001
00000100
00001000
00000100
00000001
00000100
00000010
00010000
,
00020000
00000000
00031000
01000000
00010000
00000000
10010000
00000000
,
10000000
01000000
00010000
00000000
00012000
00000000
00003010
00000000
,
00000001
00000100
00001000
00000000
00021000
00000000
00130000
00000000
,
10000000
00010000
00100000
00001000
00010000
00001000
00010000
00000100
,
00001000
00000001
00000100
00001000
00020000
00000000
00031000
00000000
,
00011000
00000000
00000000
00000000
,
00011000
00000000
00000000
00000000
00000000
00000000
00000000
00010000
,
00011000
00000000
00000000
00000000
,
00001000
00001000
00010000
00010000
,
00001000
01000000
00010000
01000000
00100000
10000000
00010000
00000000
,
20010000
32000000
03020000
00031000
,
00010000
00000100
00001000
00000100
00000010
00000001
00001000
00000000
,
00001002
00000203
00002300
00013000
,
00001000
01000000
00010000
20000000
00000000
00000000
31000000
00020000
,
00000000
00000000
00031000
00000020
00000000
00000000
00000031
00000000
,
00000001
00000100
00001000
00000000
00021000
00000000
00130000
00000000
,
10000000
01000000
00010000
00000000
00012000
00000000
00003010
00000000
,
00000001
00000100
00001000
00000100
00000001
00000010
00000100
00001000
,
00000010
00010000
00001000
00010000
00001000
01000000
00010000
00000000
,
10000000
01000000
00010000
01000000
10000000
00100000
01000000
00010000
,
00100000
00001000
00010000
00001000
00010000
00000100
00001000
00000000
,
00000001
00000101
00001000
00001010
,
00000001
00000010
00000100
00001000
00000010
00010000
00001000
00010000
,
00001000
01000000
00010000
00100000
01000000
10000000
00010000
10000000
,
00010000
01000000
00100000
00010000
00001000
00000100
00000010
00001000
;

//--------------- dance-double - KAYSTAR ----------------
#NOTES:
     dance-double:
     KAYSTAR:
     Hard:
     15:
     0,0,0,0,0:
00000000
00000000
00000000
00000000
,
00000000
00000000
00000000
00000000
,
00000000
00000000
00000000
00000000
,
00000000
00000000
00000000
00000000
,
00000000
00000000
00000000
00000000
00000000
00000000
00000000
00000000
00000000
00000000
00000000
00000000
00040000
00030000
00000000
00000000
,
00011000
00010000
00100000
10100000
00000000
00000000
00000000
00000000
,
11000000
01000000
00010000
00011000
00000000
00000000
00000000
00010000
,
00011000
00000000
00001000
00000000
00000010
00000000
00000011
00000000
00000000
00000000
00000000
00000000
00001000
00000001
00001000
00000000
,
00000010
00000000
00010000
00000010
00001000
00000010
00010000
00000000
00001000
01000000
00010000
01000000
00001000
00000000
00001000
00000000
,
00011000
00000000
00010000
01000000
20000000
00000000
30010000
10010000
,
00000000
10000000
00100000
01000000
00010000
00100000
00001000
00010000
,
00011000
00000000
00000000
00001000
00000100
00000000
00000001
00000000
00000010
00000000
00000100
00000000
00001000
00000001
00002000
00000000
,
00000000
00003001
00000100
00000010
00001000
00000100
00010000
00001000
,
00011000
00000000
00010000
00100000
01100000
01100000
00000000
00100000
,
10000000
01000000
00100000
00001000
00011000
00011000
00000000
00010000
,
00011000
00000000
00001000
00000000
00000010
00000000
00000100
00000000
00000110
00000000
00000110
00000000
00001000
00000001
00002000
00000000
,
00000000
00000000
00003100
00000010
00000001
00000000
00001000
00000000
00000010
00000100
00000010
00000100
00000001
00000000
00001001
00000000
,
00000000
00000000
00001000
00000100
00000010
00000000
00000001
00000000
00000201
00000000
00000000
00000000
00000310
00000000
00010000
00001000
,
00020000
00000000
00000000
00000000
00230000
00000000
00000000
00000000
10300000
00000000
00010000
00000000
00100000
00000000
00001000
00010000
,
00002000
00000000
00000000
00000000
00003020
00000000
00000000
00000000
00000031
00000000
00001000
00000000
00000010
00000000
00010000
00001000
,
00020000
00000000
00230000
00000000
10300000
10000000
10000000
10010000
,
00000000
00000000
00010000
00100000
01000000
00000000
10000000
00000000
10200000
00000000
00000000
00000000
01300000
00000000
00001000
00010000
,
00002000
00000000
00000000
00000000
00003200
00000000
00000000
00000000
00000301
00000000
00001000
00000000
00000100
00000000
00010000
00001000
,
00020000
00000000
00000000
00000000
02030000
00000000
00000000
00000000
13000000
00000000
00010000
00000000
01000000
00000000
00100000
10000000
,
00010000
00000000
00100000
01000000
10000000
00000000
00010000
00000000
01000000
00100000
01000000
00100000
10000000
00000000
00010000
00100000
,
00002000
00000000
00000000
00000000
00013000
00000000
00000100
00000000
00001000
00000001
00000000
00000000
00000101
00000000
00000100
00000000
,
00000001
00001000
00000000
00000000
00001100
00000000
00000100
00000000
00000010
00000000
00000001
00000000
00001000
00000010
00020000
00000000
,
00000000
00000000
00031000
00000000
01000000
00000000
00010000
00000000
10000000
01000000
00100000
00000000
01000000
00000000
00010000
01000000
,
00100000
00000000
00010000
00000000
10000000
00000000
00100000
01000000
00100000
00000000
00010000
00000000
00011000
00000000
00000000
00000000
,
00001000
00000000
00010000
00000000
00000010
00000000
00001000
00000000
00000001
00000010
00000100
00000000
00000010
00000000
00001000
00000010
,
00000200
00000000
00000000
00000000
00001300
00000000
00000010
00000000
00000100
00000001
00001000
00000000
00000100
00000000
00000010
00000000
,
00000001
00000100
00002000
00000000
00023000
00000000
01030000
10000000
,
00010000
10000000
00100000
10000000
00010000
00000000
10000000
00010000
00100000
00010000
10000000
00000000
00100000
01000000
00010000
00000000
,
00210000
00000000
00000000
00000000
00301000
00000000
00011000
00000000
00000000
00000000
00010000
00001000
00000000
00000100
00000010
00000000
,
00000110
00000000
00000000
00001010
00000000
00000000
00001001
00000000
00000000
00000000
00000001
00000010
00000100
00000000
00001000
00000000
,
00001020
00000000
00000000
00000000
00010030
00000000
00011000
00000000
00000000
00000000
00001000
00010000
00000000
01000000
00100000
00000000
,
01100000
00000000
00000000
00110000
00000000
00000000
10010000
00000000
10000000
00100000
01000000
00010000
00000000
00000000
00100000
00000000
,
00210000
00000000
00000000
00000000
00301000
00000000
00011000
00000000
00000000
00000000
00010000
00001000
00000000
00000100
00000010
00000000
,
00000110
00000000
00000000
00001001
00000000
00000000
00001000
00000001
00001000
00000001
00000010
00000000
00000100
00001000
00000001
00000000
,
00000100
00000010
00000100
00000000
00001000
00000000
00020000
00000000
00000000
00000000
00001000
00000000
00000000
00031000
00000000
00000000
,
00010010
00000000
00000000
00101000
00000000
00000000
00022000
00000000
00000000
00000000
00000000
00000000
00033000
00000000
00000000
00000000
,
00011000
00000000
00010000
00100000
01000000
00000000
01100000
00000000
00010000
00000000
10000000
01000000
00100000
00000000
00100000
00000000
,
00001000
01000000
00010000
01000000
00001000
00000000
00010000
00000010
00001000
00000010
00010000
00000000
00001000
00000000
00000000
00000000
,
00011000
00000000
00001000
00000010
00000100
00000000
00000110
00000000
00000010
00000001
00000100
00000000
00000100
00000000
00000010
00001000
,
00000100
00000000
00000100
00000000
00000010
00000001
00001000
00000000
00000001
00000100
00000010
00000100
00004000
00003000
00000000
00000000
,
00011000
00000000
00010000
01000000
00100000
00000000
00010000
00000000
20020000
00000000
30030000
00000000
00001000
00000000
00010000
00000000
,
00011000
00000000
00001000
00000100
00000010
00000000
00001000
00000000
00002002
00000000
00003003
00000000
00010000
00000000
00001000
00000000
,
00011000
00000000
00010000
01000000
00100000
00000000
01100000
00000000
00010000
00000000
10000000
00100000
00000000
01000000
00010000
00000000
,
10010000
00000000
10000000
01000000
00100000
00010000
00100000
00001000
00010000
00001000
00010000
00000100
00001000
00000100
00000010
00000001
,
00001000
00000000
00000000
00000000
,
00001001
00000000
00000000
00000000
00000000
00000000
00000000
00010000
,
00011000
00000000
00000000
00000000
,
10010000
00000000
00010000
01000000
00000000
00100000
10000000
00000000
00010000
00000000
00100000
00000000
01000000
10000000
00010000
10000000
,
00010000
00000000
10000000
00100000
01000000
00000000
00010000
00000000
00100000
00000000
00001000
00010000
00000100
00000000
00001000
00000000
,
00001001
00000000
00000001
00000100
00000000
00001000
00010000
00000000
00000100
00000000
00010000
00001000
00000000
00000100
00000001
00000000
,
00001000
00000000
00000001
00000010
00000100
00000000
00001000
00000000
00000010
00000000
00010000
00001000
01000000
00000000
00010000
10000000
,
00010000
00000000
10000000
01000000
00000000
00010000
00001000
00000000
01000000
00000000
00001000
00010000
00000000
01000000
10000000
00000000
,
00010000
00000000
01000000
00100000
10000000
00000000
12000000
00000000
00000000
00000000
03010000
00000000
00001000
00000000
00012000
00000000
,
00000000
00000000
00003100
00000000
00000001
00000000
00000201
00000000
00000000
00000000
00001300
00010000
00000000
00010000
00001000
00000000
,
00100000
00010000
00100000
00000000
00001000
00000000
00010000
00100000
01000000
00000000
00010000
00100000
00000000
00001000
00010000
00000000
,
00000010
00001000
00000010
00000000
00010000
00000000
00001000
00000010
00000100
00000000
00001000
00000010
00000000
00010000
00001000
00000000
,
00021000
00000000
00000000
00000000
00130000
00000000
10000000
00000000
01000000
00000000
00100000
00001000
00000000
00010000
00001000
00000000
,
00012000
00000000
00000000
00000000
00003010
00000000
00000001
00000000
00000100
00000000
00000010
00001000
00000000
00000010
00010000
00000000
,
00021000
00000000
00000000
00000000
01030000
00000000
10000000
00000000
00100000
00000000
01000000
00001000
00000000
00010000
00001000
00000000
,
00012000
00000000
00000000
00000000
00003100
00000000
00000001
00000000
00001000
00000001
00001000
00000001
00000010
00000000
00000100
00001000
,
00000001
00000000
00000000
00000001
00000100
00000000
00000010
00000000
00010000
00000000
00000000
00010000
00001000
00000000
01000000
00000000
,
00010000
10000000
00010000
10000000
01000000
00000000
00010000
00000000
00001000
00010000
00001000
00000000
00000100
00000000
00000001
00000000
,
00001000
00000001
00001000
00000001
00000010
00000000
00001000
00000000
00010000
00001000
00010000
00000000
00100000
00000000
10000000
00000000
,
00010000
10000000
00010000
10000000
01000000
00000000
00010000
00000000
00001000
00010000
00001000
00010000
00001000
00010000
00001000
00010000
;
