#TITLE:Chronoxia;
#SUBTITLE:;
#ARTIST:DJ Totoriott;
#TITLETRANSLIT:;
#SUBTITLETRANSLIT:;
#ARTISTTRANSLIT:;
#GENRE:;
#CREDIT:;
#MUSIC:Chronoxia.ogg;
#BANNER:Chronoxia.png;
#BACKGROUND:Chronoxia-bg.png;
#CDTITLE:;
#SAMPLESTART:80.732;
#SAMPLELENGTH:15.000;
#SELECTABLE:YES;
#OFFSET:0.103;
#BPMS:0.000=180.000
,196.000=90.000
,212.000=180.000
;
#STOPS:226.000=0.333;
#BGCHANGES:;
#FGCHANGES:;

//--------------- dance-single - Princess Pamela ----------------
#NOTES:
     dance-single:
     Princess Pamela:
     Easy:
     8:
     0,0,0,0,0:
0000
0000
0000
0000
,
0000
0000
0000
0000
,
0000
0000
0000
0000
,
0000
0000
0000
0000
,
0000
0000
0000
0000
,
0000
0000
0000
0000
,
0000
0000
0000
0000
,
0000
0000
0000
0000
,
0000
0000
0000
0000
,
1001
0000
0100
0000
,
1001
0000
0010
0000
,
1001
0000
0100
0000
,
1001
0000
0010
0000
,
0110
0000
1000
0001
,
1001
0000
0010
0100
,
0110
0000
0001
1000
,
2002
0000
3003
0000
,
1000
0100
1000
0000
,
0010
0000
1000
1001
,
0001
0100
0001
0000
,
0010
0000
0001
1001
,
1000
0010
1000
0010
,
0100
0001
0100
0001
,
1000
0010
0100
0001
,
0020
0030
0200
0300
,
1000
0001
0100
0001
,
0020
0000
0030
0000
,
0001
1000
0100
1000
,
0020
0000
0030
0000
,
1000
0001
0010
0001
,
0200
0000
0300
0000
,
0001
1000
0010
1000
,
0200
0300
0020
0030
,
0001
1000
0100
1000
,
0020
0100
0130
0000
,
1000
0001
0100
0001
,
0020
0100
0130
0000
,
0002
0003
2000
3000
,
0010
0100
0001
1000
,
0020
0030
0200
0300
,
0001
1000
0000
0000
1000
0001
0000
0000
,
1001
0000
1000
0100
,
0010
0001
0100
0010
,
0100
0000
0001
0010
,
0100
1000
0010
0100
,
0110
0000
1000
0001
,
0010
0100
1000
0000
,
1001
0000
0001
0001
,
1000
0010
0100
0000
,
0002
0003
2000
3000
,
0002
0000
0023
0000
,
0230
0000
2300
0000
,
3001
0001
1000
1000
,
2002
0000
0000
0000
,
0000
0000
3003
0000
,
1000
1000
0001
0001
,
1000
0001
1000
0001
1000
0000
0000
0000
,
0000
0000
0001
0000
0010
0000
0100
0010
,
0100
2000
3000
0001
,
0100
0001
1000
0100
,
1000
0000
0010
0200
,
0300
0000
0001
0000
0100
0000
0010
0100
,
0010
2000
3000
0100
,
1000
0001
0010
0200
,
0000
1300
0001
1001
,
0000
0000
1000
0000
0010
0000
0100
0010
,
0100
0002
1003
0001
,
0000
0010
0100
1000
,
0002
0000
1003
1000
0000
0000
1001
0000
,
0000
0000
0001
0000
0010
0000
0100
0010
,
0100
2000
3001
0100
,
0100
0010
0010
2002
,
0000
3003
0000
1000
,
0001
0100
0001
0020
,
0030
0002
2003
3001
,
1000
0100
1000
0020
,
0030
1000
0001
0200
,
0300
0001
1000
0200
,
0300
1000
0001
0020
,
0130
0020
0130
1000
,
0001
0000
1000
0001
1000
0001
0000
0000
;

//--------------- dance-single - Princess Pamela ----------------
#NOTES:
     dance-single:
     Princess Pamela:
     Medium:
     13:
     0,0,0,0,0:
0000
0000
0000
0000
,
0000
0000
0000
0000
,
0000
0000
0000
0000
,
0000
0000
0000
0000
,
0000
0000
0000
0000
,
0000
0000
0000
0000
,
0000
0000
0000
0000
,
0000
0000
0000
0000
,
0000
0000
0000
0000
,
1010
0000
0000
0001
0000
1000
0001
0000
0000
0000
0000
0000
,
0011
0000
0000
1000
0000
0001
1000
0000
0000
0000
0000
0000
,
1100
0000
0000
0001
0000
1000
0001
0000
0000
0000
0000
0000
,
0101
0000
0000
1000
0000
0001
1000
0000
0000
0000
0000
0000
,
0110
0000
0000
0001
0000
0001
1000
0000
0000
0100
0000
0000
,
0110
0000
0000
1000
0000
1000
0001
0000
0000
0100
0000
0000
,
0220
0000
0000
0330
0000
0000
0001
1000
0001
1000
0001
1000
,
0020
0000
0000
0030
,
1000
1000
0100
1000
,
0010
1000
0010
0000
0100
0000
0110
0000
,
0001
0001
0100
0001
,
0010
0001
0010
0000
0100
0000
0110
0000
,
0001
1000
0001
0100
,
0010
1000
0010
0000
1000
0000
0001
0000
,
1001
1000
0100
1000
,
0010
0100
0010
0100
0001
0000
1000
0000
,
1001
0000
0000
0000
0001
0000
0000
0010
0100
0000
0000
0000
0010
0000
0000
0100
,
2000
0001
3001
1000
,
0001
0000
0000
0000
1000
0000
0000
0010
0100
0000
0000
0000
0010
0000
0000
0100
,
0002
1000
1003
0001
,
0010
0000
0000
0000
0100
0000
0000
0010
0001
0000
0000
0000
1000
0000
0000
0100
,
0020
0001
0031
0010
,
0100
1000
0100
0000
0010
0001
0010
0000
,
0001
0000
0001
2000
0000
0000
3001
0000
,
1001
0000
0000
0000
1000
0000
0100
0000
0010
0000
0000
0100
1000
0000
0000
0000
,
0020
0100
0130
0010
,
1000
0000
0000
0000
0001
0000
0010
0000
0100
0000
0000
0010
0001
0000
0000
0000
,
0200
0010
0310
0000
,
1001
0000
1000
0100
0010
0000
0001
1000
,
0010
0000
0100
0001
1000
0000
0010
0000
,
0220
0000
0330
0000
1000
0001
1000
0000
,
0100
0100
0000
0000
0010
0010
0000
0000
,
0001
0000
0001
1000
0000
1000
0001
0000
0001
0010
0000
0000
,
0001
0000
0001
1000
0000
1000
0010
0000
0000
0110
0000
0000
,
1000
0000
1000
0001
0000
0001
1000
0000
1000
0100
0000
0000
,
1000
0000
1000
0001
0000
0001
0100
0000
0000
0110
0000
0000
,
0010
0000
0010
1000
0000
1000
0100
0000
0100
0010
0000
0000
,
0001
0000
0001
1000
0000
1000
0010
0000
0000
0110
0000
0000
,
1000
0000
1000
0010
0000
0010
1000
0001
1000
0001
0000
0000
,
0010
0000
0010
0001
0000
0001
0100
0000
0100
0010
0000
0000
,
2000
0000
3002
0000
,
0023
0000
0130
1000
0001
0010
0001
1000
,
0020
0000
0230
0302
,
2003
0000
3200
0300
,
2002
0000
0000
0000
,
0000
0000
0000
3003
,
1000
0000
0001
0000
1000
0001
1000
0001
,
0100
0000
0010
0000
1000
0000
0001
0000
0010
0000
0000
0000
0100
0000
0000
1000
,
0010
0000
0000
0000
0100
0000
0000
0001
0010
0000
0000
0000
0001
0000
1000
0000
,
0100
0000
1000
0000
0001
0000
0000
0000
0011
0000
0000
0000
0001
0000
0000
0010
,
0100
0000
0000
0000
1000
0000
0000
0010
0100
0000
0000
0000
0001
0000
1000
0000
,
0010
0000
2000
0000
0000
0000
3001
0000
0001
0000
0000
0000
1000
0000
0000
0100
,
0010
0000
0000
0000
0001
0000
0000
1000
0010
0000
0000
0000
0100
0000
0001
0000
,
1000
0000
0010
0000
0100
0000
0000
0000
0110
0000
0000
0000
0010
0000
0000
1000
,
0100
0000
0000
0000
0010
0000
0000
0001
0100
0000
0000
0000
0001
0000
1000
0000
,
0100
1000
0001
0001
0001
0000
0010
0100
,
1000
0100
0010
0001
1000
0001
0100
0010
,
1000
0000
0000
0100
0010
0000
0000
0000
0110
0000
0000
0000
0100
0000
1000
0000
,
0001
1000
0100
0010
0001
1000
0010
0100
,
0002
0000
0003
0010
0100
0000
0010
0001
,
1000
0001
0010
0100
1000
0001
0100
0010
,
1000
0000
0000
0001
0010
0000
0000
0000
0110
0000
0000
0000
0100
0000
1000
0000
,
0100
1000
0010
0100
0001
0010
0200
0000
,
0000
0300
0000
1001
,
1000
0000
0010
0000
0100
0000
0001
0100
,
0001
0000
0010
0100
1000
0000
1001
0000
,
0001
0000
0010
0000
0100
0000
1000
0100
,
1000
0000
0010
0100
0001
0000
0101
0000
,
1000
0100
0010
0001
0100
0000
1010
0000
,
0001
0100
0010
1000
0100
0000
1000
0001
,
1000
0001
0010
0100
0010
0100
1000
0001
,
0100
0000
0010
0000
1000
0000
0001
1000
0001
0000
1000
0000
0000
0000
0000
0000
;

//--------------- dance-single - Princess Pamela ----------------
#NOTES:
     dance-single:
     Princess Pamela:
     Hard:
     17:
     0,0,0,0,0:
0000
0000
0000
0000
,
0000
0000
0000
0000
,
0000
0000
0000
0000
,
0000
0000
0000
0000
,
0000
0000
0000
0000
,
0000
0000
0000
0000
,
0000
0000
0000
0000
,
0000
0000
0000
0000
,
0000
0000
0000
0000
,
1001
0000
0000
1000
0000
0100
0010
0000
0000
0001
0000
0010
,
0100
0000
0000
1000
0000
0100
0010
0000
0001
1000
0000
0100
,
0010
0000
0000
0001
0000
0100
0010
0000
0000
1000
0000
0010
,
0100
0000
0000
0001
0000
0100
0010
0000
1000
0010
0000
0100
,
0001
0000
0010
0100
0000
1000
0001
0000
0010
0100
0000
0000
,
1000
0000
0010
0100
0000
0001
1000
0000
0010
0100
0000
0000
,
0001
0000
0010
0100
0000
1000
0001
0100
0001
1000
0100
1000
,
0020
0000
0000
0030
,
1001
0000
1000
0000
0010
1000
0010
0000
,
0100
0001
0010
0000
0100
0000
0110
0000
,
1000
1000
0001
0000
0010
0001
0010
0000
,
0100
1000
0010
0000
0100
0000
0110
0000
,
1001
0000
0000
0000
1000
0000
0100
1000
0100
0000
1000
0000
0001
0000
0010
0000
,
0001
0000
1000
0001
1000
0000
0010
0000
0100
0000
0001
0000
0010
0000
0000
0000
,
0100
0000
1000
0100
1000
0000
0001
0100
0001
0000
1000
0000
0010
0000
0100
0000
,
0002
0000
1000
0000
1000
0000
1003
0000
0001
1000
0001
1000
0001
0000
0010
0000
,
0100
0000
1000
0001
1000
0000
0001
1000
0010
0000
0100
0000
0001
0100
0001
0000
,
2000
0010
0001
3200
,
0310
0000
0001
1000
0001
0000
1000
0001
0100
0000
0010
0000
1000
0000
0001
0000
,
0020
0000
0000
0000
0100
0000
0000
0000
0031
0000
1000
0001
1000
0000
0010
0000
,
0100
0000
0001
1000
0001
0000
1000
0001
0010
0000
0100
0000
1000
0100
1000
0000
,
0002
0100
1000
0023
,
0130
0000
1000
0100
1000
0000
0001
0100
0001
0000
1000
0010
1000
0000
0001
0010
,
0001
1000
0001
0200
0010
0010
0320
0000
,
1030
0000
0001
0100
0001
0000
1000
0100
1000
0000
0001
0000
0010
0100
1000
0000
,
0001
0100
1000
0100
0002
0000
2003
0000
,
3001
0000
1000
0100
1000
0000
0001
0100
0001
0000
0010
0000
0100
0000
1000
0000
,
0001
0010
1000
0010
0002
0000
1003
0000
,
1001
0000
0000
0000
0001
1000
0100
1000
0002
0000
0000
0000
0013
0000
0100
0000
,
1000
0001
0100
0010
0100
1000
0100
0001
,
2000
0000
0000
0000
3001
0000
1000
0001
1000
0000
0001
0010
0100
0000
1000
0000
,
0001
0101
0000
0000
1000
1100
0000
0000
,
0001
1000
0001
1000
0100
1000
0001
0010
0100
1000
0100
0010
,
0001
1000
0010
1000
0001
0010
0100
1000
0001
0100
0000
0000
,
0010
1000
0010
1000
0001
1000
0001
0010
0100
1000
0010
0100
,
0001
1000
0100
1000
0001
0100
0010
1000
0001
0010
0000
0100
,
1000
0100
1000
0001
1000
0001
0010
0100
1000
0100
0010
0001
,
1000
0010
1000
0001
0010
0001
0100
0001
1000
0100
0000
0000
,
0010
0001
1000
0010
1000
0001
0100
0010
0100
1000
0100
0001
,
1000
0001
0010
0100
1000
0001
0100
0010
1000
0001
0100
1000
,
0200
0000
0302
0000
,
0023
0000
0031
1000
0001
0010
0100
1000
,
0020
0000
0000
0000
0000
0000
0000
0000
0230
0000
0000
0000
0001
0001
0000
0000
,
0010
0010
0000
0000
1000
0000
0000
0000
0020
0000
0000
0000
0330
0000
0000
0000
,
2002
0003
0001
0001
,
0001
0001
0001
0001
,
3001
0000
1000
0000
0001
0000
1000
0000
0001
1000
0001
1000
0001
1000
0001
1000
,
0001
0010
0100
1000
0001
1000
0001
0100
0010
0000
0000
0000
1000
0000
0001
0000
,
1000
0000
0100
0010
0001
0000
1000
0000
0010
0000
0100
0000
0001
1000
0001
1000
,
0100
0010
0001
1000
0010
0000
0100
0000
0001
0000
0010
0000
0100
0000
1000
0000
,
0001
0000
0100
0010
1000
0000
0001
0000
0010
0000
0100
0000
1000
0010
1000
0000
,
0001
0010
0100
0000
1000
0001
0010
0001
2000
0000
0000
0000
3001
0000
0100
0000
,
0001
0000
1000
0100
0010
0000
0001
0000
0100
0000
0010
0000
1000
0001
1000
0001
,
0010
0100
1000
0001
0100
0000
0010
0000
1000
0000
0001
0000
0010
0000
0100
0000
,
1000
0000
0001
0100
0010
0000
1000
0000
0100
0000
1000
0000
0001
0010
0100
1000
,
0002
0000
0103
0010
0110
0000
1000
0001
,
1000
0000
0001
0010
0100
0000
1000
0000
0001
0000
0100
0000
0010
1000
0010
1000
,
0001
0010
0100
1000
0001
0000
0100
0000
0010
0000
1000
0000
0001
0000
0010
0000
,
0001
0000
1000
0010
0100
0000
0001
0000
1000
0000
0100
0000
0010
0001
1000
0000
,
0010
1000
0001
0000
0100
0010
0100
0010
2000
0000
0000
0000
3001
0000
1000
0000
,
0001
0000
0010
0100
1000
0000
0001
0000
1000
0000
0010
0000
0100
0001
0100
0001
,
1000
0100
0010
0001
1000
0000
0010
0000
0100
0000
0001
0000
0020
0000
0100
0000
,
0100
0000
0130
0000
1000
0001
1000
0001
0010
0100
1000
0001
0200
0000
0000
0000
,
0310
0000
0010
0000
1000
0001
1000
0000
0001
0000
0100
0000
0110
0000
0000
0010
,
1000
0000
0000
0001
1000
0000
0001
0000
0010
0001
0010
0000
0100
0000
1000
0001
,
0100
0000
0001
1000
0100
0000
0010
0000
0001
0000
1000
0000
0010
0000
0000
0100
,
0001
0000
0000
1000
0001
0000
0010
0000
0100
1000
0100
0000
1000
0000
0010
0100
,
0001
0000
0010
0100
1000
0000
0001
0000
0100
0000
0010
0000
0110
0000
1000
0001
,
0010
0000
0100
1000
0001
0000
0100
0000
0010
0100
0010
0000
0110
0000
0001
1000
,
0010
0000
0100
0001
1000
0000
0100
0000
0010
0100
0010
0000
0110
0000
1000
0001
,
0010
0000
0001
1000
0010
0000
0100
0001
1000
0001
0100
0000
0001
1000
0001
1000
,
0010
0100
0001
1000
0100
0010
0001
1000
0001
0000
1001
0000
0000
0000
0000
0000
;

//--------------- dance-double - Princess Pamela ----------------
#NOTES:
     dance-double:
     Princess Pamela:
     Hard:
     17:
     0,0,0,0,0:
00000000
00000000
00000000
00000000
,
00000000
00000000
00000000
00000000
,
00000000
00000000
00000000
00000000
,
00000000
00000000
00000000
00000000
,
00000000
00000000
00000000
00000000
,
00000000
00000000
00000000
00000000
,
00000000
00000000
00000000
00000000
,
00000000
00000000
00000000
00000000
,
00000000
00000000
00000000
00000000
,
00011000
00000000
00000000
00001000
00000000
00001000
00100000
00000000
00000000
00001000
00000000
00001000
,
00010000
00000000
00000000
00001000
00000000
00001000
01000000
00000000
00010000
00100000
00000000
01000000
,
00010000
00000000
00000000
00010000
00000000
00010000
00000100
00000000
00000000
00010000
00000000
00010000
,
00001000
00000000
00000000
00010000
00000000
00010000
00000010
00000000
00001000
00000100
00000000
00000010
,
00000001
00000000
00000000
00000100
00000000
00000100
00001000
00000000
00001000
00010000
00000000
00000000
,
00100000
00000000
00000000
10000000
00000000
10000000
01000000
00000000
01000000
00010000
00000000
00000000
,
00011000
00000000
00000000
00000010
00000000
00010000
00001000
00010000
00001000
00100000
00010000
10000000
,
00200000
00000000
00000000
00300000
,
10010000
00000000
00010000
00000000
01000000
00010000
00100000
00000000
,
10000000
00100000
00010000
00000000
00001000
00000000
00000110
00000000
,
00000001
00000001
00001000
00000000
00000100
00001000
00000010
00000000
,
00000001
00000010
00001000
00000000
00010000
00000000
00011000
00000000
,
01100000
00000000
00000000
00000000
10000000
00000000
00100000
10000000
00100000
00000000
10000000
00000000
00010000
00000000
00100000
00000000
,
01000000
00000000
10000000
01000000
10000000
00000000
01000000
00000000
00010000
00000000
00001000
00000000
00010000
00000000
00000000
00000000
,
00001000
00000000
00010000
00001000
00010000
00000000
00000100
00010000
00000100
00000000
00010000
00000000
00001000
00000000
00000010
00000000
,
00000002
00000000
00001000
00000000
00001000
00000000
00001003
00000000
00000001
00001000
00000001
00001000
00000001
00000000
00001000
00000000
,
00000010
00000000
00000100
00000010
00000100
00000000
00000001
00000100
00000001
00000000
00000010
00000000
00001000
00000000
00010000
00000000
,
02000000
10000000
10000000
00010000
,
03100000
00000000
01000000
00100000
01000000
00000000
10000000
01000000
10000000
00000000
00100000
00000000
00010000
00000000
00001000
00000000
,
00000200
00000000
00000000
00000000
00000001
00000000
00000000
00000000
00000310
00000000
00000000
00001000
00000001
00000000
00001000
00000000
,
00000100
00000000
00000010
00000100
00000010
00000000
00000001
00000010
00000001
00000000
00000100
00000000
00001000
00000000
00010000
00000000
,
00200000
10000000
10000000
00010000
,
01300000
00000000
00100000
01000000
00100000
00000000
10000000
00100000
10000000
00000000
00010000
00100000
00010000
00000000
10000000
01000000
,
00010000
00001000
00100000
00010000
01000000
01000000
02000000
00000000
,
03100000
00000000
10000000
00100000
10000000
00000000
00010000
00100000
01000000
00000000
10000000
00000000
01000000
00000000
00010000
00000000
,
00001000
00100000
00001000
00000010
00000200
00000000
00002300
00000000
,
00003010
00000000
00000100
00000001
00000100
00000000
00000001
00000010
00000001
00000000
00000100
00000000
00001000
00000000
00010000
00000000
,
00001000
00000010
00001000
00100000
00020000
00000000
01030000
00000000
,
10010000
00000000
00000000
00000000
00010000
10000000
01000000
00100000
00020000
00000000
00000000
00000000
10030000
00000000
01000000
00000000
,
00010000
00000000
00001000
00000100
00001000
00010000
00001000
00000010
,
00000002
00000000
00000000
00000000
00000103
00000000
00000001
00000100
00000001
00000000
00001000
00000100
00001000
00000000
00000001
00000000
,
00000100
00001000
00000000
00000000
00010000
01000000
00000000
00000000
,
10000000
01000000
10000000
01000000
00010000
01000000
00010000
00000000
00001000
00010000
00000000
00010000
,
00001000
00000010
00001000
00000010
00000001
00000010
00000001
00001000
00000100
00001000
00000000
00000000
,
00000001
00000100
00000001
00000100
00001000
00000100
00001000
00000000
00010000
00001000
00000000
00001000
,
00010000
00100000
00010000
00100000
10000000
00100000
10000000
00010000
01000000
00010000
00000000
00100000
,
01000000
10000000
01000000
10000000
00100000
10000000
00100000
00000000
00100000
00010000
00000000
00001000
,
00010000
00001000
00010000
00001000
00000100
00001000
00000100
00000001
00000010
00000100
00000000
00000000
,
00001000
00000010
00001000
00000001
00000010
00000001
00001000
00000100
00000001
00000100
00001000
00000001
,
00000010
00001000
00010000
00001000
00000000
00010000
01000000
00100000
01000000
10000000
00010000
10000000
,
00200000
00000000
02300000
00000000
,
03020000
00000000
10030000
01000000
00010000
00001000
00000100
00000010
,
00000002
00000000
00000000
00000000
00000000
00000000
00000000
00000000
00000023
00000000
00000000
00000000
00001000
00001000
00000000
00000000
,
00000100
00000100
00000000
00000000
00000001
00000000
00000000
00000000
00000200
00000000
00000000
00000000
00000330
00000000
00000000
00000000
,
00002002
00003000
00001000
00001000
,
00001000
00001000
00001000
00001000
,
00001003
00000000
00000001
00000000
00000100
00000000
00001000
00000000
00010000
00000000
00001000
00010000
00001000
00010000
00001000
00010000
,
00001000
00000000
00100000
00010000
00100000
00010000
10000000
01000000
00100000
00000000
00000000
00000000
01000000
00000000
10000000
00000000
,
00100000
00000000
01000000
00100000
01000000
00000000
00010000
00000000
00100000
00000000
01000000
00000000
00010000
00001000
00010000
00001000
,
00010000
00000010
00002000
00000000
00003001
00000000
00001000
00000100
,
00000010
00000000
00000001
00001000
00000001
00000000
00000100
00000000
00000010
00000000
00001000
00000000
00000100
00000000
00010000
00001000
,
00010000
00000000
00000010
00001000
00000010
00000000
00000100
00000000
00002000
00000000
00000000
00000000
00013000
00000000
00001000
00000000
,
00010000
00000000
00100000
01000000
00100000
00000000
10000000
00000000
00010000
00000000
00100000
00000000
01000000
10000000
01000000
10000000
,
01000000
00010000
00002000
00000000
00103000
00000000
00001000
00010000
,
00000100
00000000
00010000
00000010
00010000
00000000
00000100
00000000
00001000
00000000
00000001
00000000
00000010
00000100
00001000
00000001
,
00000020
00000000
00000130
00010000
00011000
00000000
00010000
00000100
,
00010000
00000000
00000100
00000010
00000100
00000000
00001000
00000000
00000001
00000000
00000010
00000000
00001000
00010000
00001000
00010000
,
00001000
00100000
00020000
00000000
10030000
00000000
00010000
01000000
,
00100000
00000000
10000000
00010000
10000000
00000000
01000000
00000000
00100000
00000000
00010000
00000000
01000000
00000000
00001000
00010000
,
00001000
00000000
00100000
00010000
00100000
00000000
01000000
00000000
00020000
00000000
00000000
00000000
00031000
00000000
00010000
00000000
,
00001000
00000000
00000010
00000100
00000010
00000000
00000001
00000000
00001000
00000000
00000010
00000000
00000100
00000001
00000100
00000001
,
00000100
00000000
00000010
00001000
00000020
00000000
00000000
00000000
00010030
00000000
00001000
00000000
00100000
00000000
00100000
00000000
,
00100000
00000000
01000000
00000000
10000000
00010000
10000000
00010000
01000000
00100000
10000000
00000000
02000000
00000000
00000000
00000000
,
03010000
00000000
00001000
00000000
00000010
00000000
00000001
00000010
00000100
00000000
00001000
00000000
00000001
00000000
00000000
00000001
,
00000100
00000000
00000000
00000100
00001000
00000000
00010000
00000000
00001000
00010000
00001000
00000000
00010000
00000000
01000000
00000000
,
10000000
00000000
00100000
10000000
00100000
00000000
01000000
00000000
00010000
00000000
00000000
00000000
10000000
00000000
00000000
10000000
,
01000000
00000000
00000000
01000000
00010000
00000000
00001000
00000000
00010000
00001000
00010000
00000000
00001000
00000000
00000010
00000000
,
00000001
00000000
00000010
00000100
00001000
00000000
00000001
00000000
00000100
00000000
00000100
00000000
00000001
00000000
00000000
00000001
,
00000010
00000000
00000000
00000010
00001000
00000000
00010000
00000000
01000000
00100000
01000000
00000000
10000000
00000000
00000000
10000000
,
00100000
00000000
00000000
00100000
00010000
00000000
00001000
00000000
00000100
00000010
00000100
00000000
00000001
00000000
00000010
00000100
,
00001000
00000000
00000010
00000100
00000001
00000000
00000010
00000000
00001000
00000000
00010000
00000000
00001000
00010000
00001000
00010000
,
00001000
00000000
00100000
00010000
00100000
01000000
10000000
00000000
00010000
00000000
10010000
00000000
00000000
00000000
00000000
00000000
;
