#VERSION:0.83;
#TITLE:Chase the shadow;
#SUBTITLE:(2021 rework);
#ARTIST:影虎。;
#TITLETRANSLIT:;
#SUBTITLETRANSLIT:;
#ARTISTTRANSLIT:;
#GENRE:;
#CREDIT:;
#MUSIC:Chase the shadow (2021 rework).ogg;
#BANNER:Chase the shadow (2021 rework)-bn.png;
#BACKGROUND:Chase the shadow (2021 rework)-bg.png;
#JACKET:;
#DISCIMAGE:;
#CDIMAGE:;
#SELECTABLE:YES;
#LYRICSPATH:;
#CDTITLE:;
#SAMPLESTART:88.803;
#SAMPLELENGTH:10.971;
#OFFSET:1.368;
#BPMS:0.000=175.000;
#STOPS:;
#WARPS:;
#DELAYS:;
#SPEEDS:;
#SCROLLS:0.000=1.000,
72.000=0.000,
72.250=0.250,
72.500=0.500,
72.750=0.750,
73.000=1.000,
88.000=0.000,
88.250=0.250,
88.500=0.500,
88.750=0.750,
89.000=1.000,
104.000=0.000,
104.250=0.125,
104.500=0.250,
104.750=0.375,
105.000=0.500,
105.250=0.625,
105.500=0.750,
105.750=0.875,
106.000=1.000,
198.000=0.938,
198.500=0.875,
199.000=0.813,
199.500=0.750,
244.000=1.000,
260.000=0.000,
260.500=1.000,
261.000=0.000,
261.500=1.000,
262.000=0.000,
262.500=1.000,
335.500=0.944,
336.000=0.889,
336.500=0.833,
337.000=0.778,
337.500=0.722,
338.000=0.667,
338.500=0.611,
339.000=0.556,
339.500=0.500,
340.000=0.444,
340.500=0.389,
341.000=0.333,
341.500=0.278,
342.000=0.222,
342.500=0.167,
343.000=0.111,
343.500=0.055,
344.000=0.000
;
#TICKCOUNTS:;
#TIMESIGNATURES:;
#LABELS:;
#COMBOS:;
#FAKES:;
#BGCHANGES:;
#FGCHANGES:;
#ATTACKS:;

//---------------dance-single - XMOD XO----------------
#NOTEDATA:;
#CHARTNAME:;
#CHARTSTYLE:;
#CREDIT:Talkion;
#STEPSTYPE:dance-single;
#DESCRIPTION:XMOD XO-;
#DIFFICULTY:Medium;
#METER:12;
#METERF:12;
#RADARVALUES:0,0,0,0,0;
#NOTES:
// measure 0
0000
0000
0000
0000
,  // measure 1
0000
0000
0000
1001
,  // measure 2
0012
0000
0000
0003
2010
0000
3000
1001
,  // measure 3
0000
0001
0000
0020
0000
0000
0130
0000
,  // measure 4
2100
0000
0000
3000
0102
0000
0003
1001
,  // measure 5
0000
1000
0000
0200
0000
0000
0300
0000
,  // measure 6
0010
0100
0000
0100
1000
0000
0010
0100
,  // measure 7
0000
0100
0001
1000
0001
0000
0010
0000
,  // measure 8
0100
0000
0000
0010
0000
0000
0100
0000
0000
1000
0000
0000
0010
0000
0000
0000
,  // measure 9
1000
0000
0000
0000
,  // measure 10
0001
0100
0001
0100
,  // measure 11
0010
1000
0001
1000
,  // measure 12
0100
0010
0100
0010
,  // measure 13
0001
1000
0010
1000
,  // measure 14
0001
0010
0100
0000
0010
0100
1000
0000
,  // measure 15
0001
0100
0010
0000
0100
0010
1000
0000
,  // measure 16
0002
0023
0230
0320
,  // measure 17
0031
0000
0000
1001
,  // measure 18
01M1
0000
0000
0000
0000
0000
0001
0000
1000
0000
0000
0001
0000
1000
0000
0000
,  // measure 19
0100
0020
0000
0001
0000
0001
0000
0130
,  // measure 20
1000
0000
0000
0001
0000
0000
0100
0000
0000
0010
0000
0000
1000
0000
0001
0000
,  // measure 21
2000
0100
3002
0103
,  // measure 22
1100
0000
0000
0000
0000
0000
1000
0000
0001
0000
0000
1000
0000
0001
0000
0000
,  // measure 23
0100
0020
0000
1000
0000
1000
0000
0130
,  // measure 24
0001
0000
1000
0000
0100
0000
1000
0000
0010
0000
0000
0010
0000
0000
0000
0000
,  // measure 25
0100
0001
0010
0000
0002
0000
2003
0000
,  // measure 26
3200
0000
1300
1010
,  // measure 27
0010
0200
0000
0001
0000
0001
0000
0310
,  // measure 28
1000
0000
0000
0001
0000
0000
0010
0000
0000
0100
0000
0000
1000
0000
0001
0000
,  // measure 29
2000
0010
3002
0013
,  // measure 30
1010
0000
0000
1000
0000
0000
0010
0000
0000
1000
0000
0000
0001
0000
0000
0000
,  // measure 31
0011
0000
0000
0001
0000
0000
0010
0000
0000
0001
0000
0000
1000
0000
0000
0000
,  // measure 32
0010
0010
0100
0100
,  // measure 33
0002
0000
0003
1001
,  // measure 34
2000
0000
0000
0100
0000
0000
3001
0000
0100
0000
0010
0000
,  // measure 35
2000
0000
0000
0100
0000
0000
3001
0000
0100
0000
0001
0000
,  // measure 36
2000
0000
0000
0010
0000
0000
3001
0000
0001
0000
0010
0000
,  // measure 37
0200
0000
0000
1000
0000
0000
0310
0000
0100
0000
0010
0000
,  // measure 38
0002
0000
0000
0100
0000
0000
1003
0000
0100
0000
0010
0000
,  // measure 39
0002
0000
0000
0100
0000
0000
1003
0000
0100
0000
1000
0000
,  // measure 40
0001
0000
0100
0000
0010
0000
2000
0000
0000
3002
0000
0000
,  // measure 41
0013
0110
0100
1000
,  // measure 42
2001
0000
0000
0010
0000
0000
3100
0000
0010
0000
0100
0000
,  // measure 43
2000
0000
0000
0010
0000
0000
3100
0000
1000
0000
0100
0000
,  // measure 44
0020
0000
0000
0100
0000
0000
0031
0000
0001
0000
0100
0000
,  // measure 45
0020
0000
0000
1000
0000
0000
0130
0000
0010
0000
0100
0000
,  // measure 46
0002
0000
0000
0010
0000
0000
0103
0000
0010
0000
0100
0000
,  // measure 47
0002
0000
0000
0010
0000
0000
0103
0000
0001
0000
0100
0000
,  // measure 48
0010
0000
1000
0000
0001
0000
0020
0000
0000
0230
0000
0000
,  // measure 49
1300
0000
0000
1000
0000
0000
0010
0000
0200
0000
0000
0000
0000
0000
0000
0000
,  // measure 50
0301
0000
0000
0000
,  // measure 51
0000
0000
0000
0000
,  // measure 52
0000
0000
0000
0000
,  // measure 53
0000
0000
0000
2000
,  // measure 54
3001
0010
0100
0000
,  // measure 55
1000
0000
0001
0100
,  // measure 56
0010
0000
1000
0000
,  // measure 57
0001
0000
0010
0000
,  // measure 58
0100
0010
0001
0000
,  // measure 59
1000
0010
0100
0000
,  // measure 60
0001
0000
1000
0000
,  // measure 61
0200
0000
0310
0000
0001
0100
0001
0000
,  // measure 62
1000
0100
1000
0010
0100
0001
1000
0000
,  // measure 63
0001
0100
0001
0010
0100
1000
0001
0000
,  // measure 64
1000
0010
0100
0001
1000
0100
0010
0001
,  // measure 65
0100
0000
0000
00M0
0000
0000
0000
0000
0000
00M0
00M0
0000
0000
0000
0000
00M0
00M0
00M0
1001
0000
0000
0000
0000
0000
,  // measure 66
2010
0000
3001
0000
0010
0001
0100
0010
,  // measure 67
2000
0000
3001
0000
0010
0100
0010
0000
,  // measure 68
0001
0000
0100
0000
0010
0100
0001
0000
,  // measure 69
1002
0000
0013
0000
0001
0010
0100
0010
,  // measure 70
0002
0000
1003
0000
0010
1000
0100
0010
,  // measure 71
0002
0000
1003
0000
0010
0100
0010
0000
,  // measure 72
0001
0000
0010
0000
0100
0010
1000
0000
,  // measure 73
0001
0000
0000
0001
0000
0000
0010
0000
0000
0001
0000
0000
1000
0000
0000
0000
,  // measure 74
2100
0000
3010
0000
0100
0001
0010
0100
,  // measure 75
2000
0000
3010
0000
0100
0010
0100
0000
,  // measure 76
0001
0000
0010
0000
0100
0010
0001
0000
,  // measure 77
1002
0000
0103
0000
0001
0100
0010
0100
,  // measure 78
0002
0000
0013
0000
0100
1000
0010
0100
,  // measure 79
0002
0000
0013
0000
0100
0010
0100
0000
,  // measure 80
0001
0000
0100
0000
0010
0100
1000
0000
,  // measure 81
2001
0010
3002
0010
,  // measure 82
1003
0010
0100
0001
1000
0010
1000
0100
,  // measure 83
0000
0110
0000
1001
0000
1010
0000
0012
,  // measure 84
0000
0000
0000
0000
,  // measure 85
0000
0000
0000
0000
,  // measure 86
0003
0000
0000
0000
;

//---------------dance-single - XMOD JU- XO----------------
#NOTEDATA:;
#CHARTNAME:;
#CHARTSTYLE:;
#CREDIT:Talkion;
#STEPSTYPE:dance-single;
#DESCRIPTION:XMOD JU- XO-;
#DIFFICULTY:Hard;
#METER:14;
#METERF:14;
#RADARVALUES:0,0,0,0,0;
#NOTES:
// measure 0
0000
0000
0000
0000
,  // measure 1
0000
0000
0000
1001
,  // measure 2
0012
0000
0000
0003
1010
1000
0100
0020
,  // measure 3
0000
0031
0100
0020
0000
0130
1001
0000
,  // measure 4
2100
0000
3000
0001
0010
0001
0100
0210
,  // measure 5
0000
0001
0000
0320
0000
0000
0030
1000
,  // measure 6
0001
0010
0001
1000
0010
1000
0100
0010
,  // measure 7
0001
0100
0001
1000
0100
1000
0010
0100
,  // measure 8
0201
0000
0000
0010
0000
0000
0302
0000
0000
0010
0000
0000
1003
0000
0000
0000
,  // measure 9
1001
0000
0001
0000
0100
0000
0000
0100
0000
0000
0010
0000
0100
0000
0000
0000
,  // measure 10
0001
1000
0100
0010
,  // measure 11
0001
0000
1000
0000
0010
0100
0001
0100
,  // measure 12
0010
1000
0001
0010
,  // measure 13
0100
0000
0000
0000
1000
0000
0000
0000
0002
0000
0000
0100
0000
0000
0103
0000
,  // measure 14
0001
1000
0010
1000
0100
0010
0100
0010
,  // measure 15
0001
1000
0100
1000
0010
0100
0010
0100
,  // measure 16
0001
0010
0100
0010
0001
0100
0010
0100
,  // measure 17
0001
0000
0000
0001
0000
0000
1000
0000
0100
0000
1000
0000
1001
0000
0000
0000
,  // measure 18
1M10
0000
0000
0000
0000
0000
0001
0000
0011
0000
0000
0010
0000
0010
0000
0000
,  // measure 19
0001
0100
0010
1000
0010
1000
0100
0010
,  // measure 20
0012
0000
0000
0100
0000
0000
2003
0000
0000
0100
0000
0000
3010
0000
0100
0000
,  // measure 21
0001
1000
0100
1000
0001
0000
0001
0000
,  // measure 22
0M11
0000
0000
0000
0000
0000
1000
0000
1010
0000
0000
0010
0000
0010
0000
0000
,  // measure 23
1000
0100
0010
0001
0010
0001
0100
0010
,  // measure 24
1000
0000
0010
0000
0100
0000
0001
0000
0010
0000
0000
0010
0000
0000
0001
0000
,  // measure 25
1000
0010
1000
0010
0100
0001
2000
0000
,  // measure 26
32M0
0000
1300
1001
,  // measure 27
0001
0010
0100
1000
0100
1000
0010
0100
,  // measure 28
0102
0000
0000
0010
0000
0000
2003
0000
0000
0010
0000
0000
3100
0000
0010
0000
,  // measure 29
0001
1000
0010
1000
0001
0000
0001
0000
,  // measure 30
0101
0000
0000
1100
0000
0000
0101
0000
0000
1200
0000
0000
0310
0000
0100
0000
,  // measure 31
1100
0000
0000
0101
0000
0000
1100
0000
0000
0201
0000
0000
0310
0000
0000
0000
,  // measure 32
1000
0000
0000
0000
0000
0000
1000
0000
0000
0000
0000
0000
0001
0000
0000
0010
0000
0000
0100
0000
0010
0000
0100
0000
,  // measure 33
1000
0000
0001
0000
0100
0010
1000
0000
0000
0001
0010
0100
,  // measure 34
2000
0000
0000
3100
1000
0010
0100
0000
0001
0000
0100
0000
,  // measure 35
2100
0000
0000
3100
1000
0010
0100
0000
0001
0000
0100
0000
,  // measure 36
2100
0000
0000
3001
0010
0001
1000
0000
1000
0000
0100
0010
,  // measure 37
0002
0000
0000
1003
0010
1000
0001
0000
0100
0000
0010
0100
,  // measure 38
0002
0000
0000
0103
0001
0010
0100
0000
1000
0000
0100
0000
,  // measure 39
0102
0000
0000
0103
0001
0010
0100
0000
1000
0000
0100
0000
,  // measure 40
0101
0000
1000
0000
0010
0000
0100
0010
0001
0010
0100
0001
,  // measure 41
0010
0000
0000
0110
0000
0000
1000
0000
1000
0001
0100
0010
,  // measure 42
2000
0000
0000
3010
1000
0100
0010
0000
0001
0010
0100
0000
,  // measure 43
2010
0000
0000
3010
1000
0100
0010
0000
0001
0010
0100
0000
,  // measure 44
2010
0000
0000
3001
0100
0001
1000
0000
1000
0000
0010
0100
,  // measure 45
0002
0000
0000
1003
0100
1000
0001
0000
0010
0000
0100
0010
,  // measure 46
0002
0000
0000
0013
0001
0100
0010
0000
1000
0010
0100
0000
,  // measure 47
0012
0000
0000
0013
0001
0100
0010
0000
1000
0010
0100
0000
,  // measure 48
0011
0000
1000
0000
0001
0000
0010
0100
0001
0100
0010
0001
,  // measure 49
1000
0000
0000
1000
0000
0000
0010
0000
0210
0000
0000
0000
0000
0000
0000
0000
,  // measure 50
0301
0000
0000
0001
0000
0000
0000
0000
,  // measure 51
1000
0000
0000
1000
0000
0000
0000
0000
,  // measure 52
0001
0000
0000
0001
0000
0000
0000
0000
,  // measure 53
1000
0000
0000
1000
0000
0000
0100
0010
,  // measure 54
0001
0000
0000
0100
0000
0000
0000
0000
0010
0000
0100
0000
,  // measure 55
0001
0000
0000
0000
1000
0100
1000
0001
,  // measure 56
0100
0000
0000
0001
0000
0000
1000
0000
,  // measure 57
0000
0100
0000
0000
0010
0000
0000
0000
,  // measure 58
0001
1000
0010
0100
0000
0010
0100
0001
,  // measure 59
0000
1000
0000
0001
0000
0000
0010
0100
,  // measure 60
1000
0000
0000
0001
0000
0000
0100
0000
,  // measure 61
M110
0010
1000
0100
0010
0100
1000
0000
,  // measure 62
0001
0000
0100
0010
0000
0100
0010
0000
2000
0000
0100
0000
3001
0000
0000
0000
,  // measure 63
1000
0000
0100
0010
0000
0100
0010
0000
0002
0000
0100
0000
1003
0000
0000
0000
,  // measure 64
0001
0000
0100
0000
0010
0000
0100
0000
0001
0010
0001
0000
1000
0010
1000
0000
,  // measure 65
0100
0000
0000
00M0
0000
0000
0000
0000
0000
00M0
00M0
0000
0000
0000
0000
00M0
00M0
00M0
1001
0000
0000
0000
0000
0000
,  // measure 66
1020
0000
0000
0130
0000
0000
0001
0000
0010
0100
0000
0100
0000
0000
1000
0000
,  // measure 67
1020
0000
0000
0130
0000
0000
0001
0000
0010
0000
0100
0000
0010
0000
0001
0000
,  // measure 68
1000
0000
0000
0010
0000
0100
0000
0010
0000
0000
1000
0000
0001
0000
0010
0000
,  // measure 69
0210
0000
0000
1300
0000
0001
0000
1000
0000
0000
0010
0000
0100
0000
0001
0000
,  // measure 70
0021
0000
0000
0130
0000
0000
1000
0000
0010
0100
0000
0100
0000
0000
0001
0000
,  // measure 71
0021
0000
0000
0130
0000
0000
1000
0000
0010
0000
0100
0000
0010
0000
1000
0000
,  // measure 72
0100
0001
0100
1000
0010
0100
0010
1000
,  // measure 73
1100
0000
0000
1100
0000
0000
0101
0000
0000
1100
0000
0000
1001
0000
0000
0000
,  // measure 74
2010
0000
0000
3100
0000
0000
0010
0000
0001
0100
0000
0100
0000
0000
0010
0000
,  // measure 75
2010
0000
0000
3100
0000
0000
0010
0000
0001
0000
0100
0000
0010
0000
0100
0000
,  // measure 76
0001
0000
0000
1000
0000
0010
0000
1000
0000
0000
0100
0000
0010
0000
0001
0000
,  // measure 77
2001
0000
0000
3010
0000
1000
0000
0001
0000
0000
1000
0000
0100
0000
0010
0000
,  // measure 78
0012
0000
0000
0103
0000
0000
0010
0000
1000
0100
0000
0100
0000
0000
0010
0000
,  // measure 79
0012
0000
0000
0103
0000
0000
0010
0000
1000
0000
0100
0000
0010
0000
0100
0000
,  // measure 80
1000
0010
0001
0010
1000
0100
0010
0100
,  // measure 81
2100
0000
0010
0000
3100
0010
0001
0100
,  // measure 82
0010
1000
0010
0100
0001
0010
1000
0001
,  // measure 83
0000
0101
0000
1100
0000
1010
0001
0012
,  // measure 84
0000
0000
0000
0000
,  // measure 85
0000
0000
0000
0000
,  // measure 86
0003
0000
0000
0000
;

//---------------dance-single - XMOD FS XO JU----------------
#NOTEDATA:;
#CHARTNAME:;
#CHARTSTYLE:;
#CREDIT:Talkion;
#STEPSTYPE:dance-single;
#DESCRIPTION:XMOD FS XO JU-;
#DIFFICULTY:Challenge;
#METER:17;
#METERF:17;
#RADARVALUES:0,0,0,0,0;
#NOTES:
// measure 0
0000
0000
0000
0000
,  // measure 1
0000
0000
0000
1001
,  // measure 2
0012
0000
0000
0003
1010
1000
0100
0210
,  // measure 3
0000
1300
0010
0120
0000
0130
1001
0000
,  // measure 4
2100
0000
0000
0000
0000
0000
3001
0010
0001
0000
1000
0000
0010
0000
0120
0000
,  // measure 5
0000
0000
1000
0000
0000
0000
0130
0000
0001
0000
0001
0000
1000
0000
1000
0100
,  // measure 6
0010
0000
0001
1000
0001
0000
0100
0000
0010
0100
0001
0000
1000
0000
0100
0010
,  // measure 7
0100
0000
1000
0000
0001
0100
0010
0000
0100
0000
0001
1000
0001
0000
0010
0000
,  // measure 8
0011
0000
0000
1010
0000
0000
0011
0000
0000
0101
0000
0000
1100
0000
0000
0000
,  // measure 9
1001
0000
0001
0000
0100
0010
0000
0010
0000
1000
0001
1000
0200
0000
0000
0000
,  // measure 10
1300
0001
0100
0010
,  // measure 11
1000
0000
0001
0000
0010
0100
1000
0100
,  // measure 12
0010
0001
1000
0010
,  // measure 13
0100
0000
0000
0000
0001
0000
0000
0000
1000
0000
0100
0010
0000
0100
0010
0000
,  // measure 14
0001
0010
0001
0000
1000
0010
1000
0000
0002
0000
0010
0000
2003
0000
0010
0000
,  // measure 15
3001
0100
0001
0000
1000
0100
1000
0000
0002
0000
0100
0000
2003
0000
0100
0000
,  // measure 16
3001
0010
0100
0000
1000
0010
0100
0000
0001
1000
0100
1000
0001
0100
0010
0100
,  // measure 17
0001
0000
1000
0100
0000
1000
0100
0000
0010
0100
1000
0000
1001
0000
0000
0000
,  // measure 18
1M10
0000
0000
0000
0000
0000
0001
0000
0012
0000
0000
0100
0000
0013
0000
0000
,  // measure 19
1001
0000
1000
0010
0100
0000
0001
0010
0001
0000
1000
0010
1000
0000
0100
0010
,  // measure 20
0001
0000
0010
0100
0000
0010
1000
0000
0010
0100
0000
0010
0001
0000
1000
0000
,  // measure 21
1010
0010
0100
0010
2000
0100
3001
0000
,  // measure 22
0M11
0000
0000
0000
0000
0000
1000
0000
2010
0000
0000
0100
0000
3010
0000
0000
,  // measure 23
1001
0000
0001
0010
0100
0000
1000
0010
1000
0000
0001
0010
0001
0000
0100
0010
,  // measure 24
1000
0001
0010
0001
1000
0010
1000
0001
1000
0100
0000
0010
0000
0010
0001
0000
,  // measure 25
1000
0010
0100
0000
0010
1000
0000
0010
0100
0001
1000
0001
0020
0000
0000
0000
,  // measure 26
0M32
0000
0103
0110
,  // measure 27
1001
0000
1000
0100
0010
0000
0001
0100
0001
0000
1000
0100
1000
0000
0010
0100
,  // measure 28
0001
0000
0100
0010
0000
0100
1000
0000
0100
0010
0000
0100
0001
0000
1000
0000
,  // measure 29
1100
0100
0010
0100
2000
0010
3001
1000
,  // measure 30
1010
0000
0000
0011
0000
0000
1010
0000
0000
0021
0000
0000
0130
0000
0010
0000
,  // measure 31
0011
0000
0000
1010
0000
0000
0011
0000
0000
1020
0000
0000
0130
0000
0000
0000
,  // measure 32
0001
0000
0000
1000
0000
0000
0001
0000
0000
0000
0000
0000
0010
0000
0000
0000
0000
0000
0100
0000
0000
0000
0000
0000
1000
0000
0000
0001
0000
0000
1000
0000
0000
0000
0000
0000
0010
0000
0000
0000
0100
0000
0000
0000
0010
0000
0000
0000
,  // measure 33
1000
0000
0100
0010
0100
1000
0002
0000
0000
0013
0001
0100
,  // measure 34
0020
0000
0000
0000
0030
M000
0010
0000
0001
0000
0100
0000
1000
0000
0000
0000
0110
0000
0000
0000
1001
0000
0000
0000
,  // measure 35
0021
0000
0000
0000
0030
0M00
0010
0000
1000
0000
0100
0000
0001
0000
0000
0000
0110
0000
0000
0000
1001
0000
0000
0000
,  // measure 36
1020
0000
0000
0000
0030
0M00
0010
0000
0001
0000
0100
0000
0010
0000
0000
0000
1010
0000
0000
0000
1000
0000
0001
0000
,  // measure 37
0020
0000
0000
0000
0030
0M00
0010
0000
1000
0000
0100
0000
0010
0000
0000
0000
0001
0000
0100
0000
0010
0000
1000
0000
,  // measure 38
0200
0000
0000
0000
0300
00M0
0100
0000
0001
0000
0010
0000
1000
0000
0000
0000
0110
0000
0000
0000
1001
0000
0000
0000
,  // measure 39
0201
0000
0000
0000
0300
00M0
0100
0000
1000
0000
0010
0000
0001
0000
0000
0000
0110
0000
0000
0000
1001
0000
0000
0000
,  // measure 40
1100
0000
0100
0010
0001
0010
0100
0001
1000
0010
0100
1000
,  // measure 41
0001
0010
0001
0200
0000
0000
0310
1000
0010
0100
0001
0010
,  // measure 42
0200
0000
0000
0000
0300
M000
0100
0000
0001
0000
0010
0000
1000
0000
0000
0000
1100
0000
0000
0000
1001
0000
0000
0000
,  // measure 43
0201
0000
0000
0000
0300
00M0
0100
0000
1000
0000
0010
0000
0001
0000
0000
0000
0101
0000
0000
0000
1001
0000
0000
0000
,  // measure 44
1200
0000
0000
0000
0300
00M0
0100
0000
0001
0000
0010
0000
0100
0000
0000
0000
1100
0000
0000
0000
1000
0000
0001
0000
,  // measure 45
0200
0000
0000
0000
0300
00M0
0100
0000
1000
0000
0010
0000
0100
0000
0000
0000
0001
0000
0010
0000
0100
0000
1000
0000
,  // measure 46
0020
0000
0000
0000
0030
0M00
0010
0000
0001
0000
0100
0000
1000
0000
0000
0000
1010
0000
0000
0000
1001
0000
0000
0000
,  // measure 47
0021
0000
0000
0000
0030
0M00
0010
0000
1000
0000
0100
0000
0001
0000
0000
0000
0011
0000
0000
0000
1001
0000
0000
0000
,  // measure 48
1010
0000
0010
0100
0001
0100
0010
0001
1000
0100
0010
1000
,  // measure 49
0002
0000
0000
0013
0000
0010
0100
0000
2100
0000
0000
0000
0000
0000
0000
0000
,  // measure 50
3001
0000
0000
0001
0000
0000
0000
0000
,  // measure 51
1000
0000
0000
1000
0000
0000
0000
0000
,  // measure 52
0001
0000
0000
0001
0000
0000
0000
0000
,  // measure 53
1000
0000
0000
0000
0000
0000
1000
0000
0000
0000
0000
0000
0001
0100
0010
1000
,  // measure 54
0001
0000
0000
0010
0000
0000
0000
0000
0100
0000
0010
0000
,  // measure 55
0001
0000
0000
0000
1000
0010
1000
0001
,  // measure 56
0010
0000
0000
0001
0000
0000
1000
0000
,  // measure 57
0000
0010
0000
0000
0100
0000
0000
0000
,  // measure 58
0001
1000
0100
0010
0000
0100
0010
0001
,  // measure 59
0000
1000
0000
0001
0000
0000
0100
0010
,  // measure 60
1000
0000
0000
0001
0000
0000
0010
0000
,  // measure 61
M110
0000
0100
0000
2000
0000
0010
0000
3001
0100
0010
0100
0001
0000
0001
0000
,  // measure 62
1000
0100
0010
0100
1000
0001
1000
0010
0100
0001
0010
0001
1000
0000
0000
0000
,  // measure 63
0001
0100
0010
0100
0001
1000
0001
0010
0100
1000
0010
1000
0001
0000
0000
0000
,  // measure 64
1000
0100
0010
0001
1000
0010
0100
0001
0010
0100
0010
0001
0100
0010
0100
0001
,  // measure 65
1000
0000
0000
0000
0000
0000
00M0
0000
0000
0000
0000
0000
0000
0000
0000
0000
0000
0000
00M0
0000
00M0
0000
0000
0000
0000
0000
0000
0000
0000
0000
00M0
0000
00M0
0000
00M0
0000
1000
0000
0000
0001
0000
0000
0010
0000
0000
0001
0000
0000
,  // measure 66
0200
0000
0000
0000
0300
00M0
0100
0000
0000
0000
1000
0000
0001
0000
0000
0000
0010
0000
0100
0000
0000
0000
0001
0000
0000
0000
0001
0000
0100
0000
0000
0000
,  // measure 67
1200
0000
0000
0000
0300
00M0
0100
0000
0000
0000
0001
0000
1000
0000
0000
0000
0010
0000
0100
0000
1000
0000
0000
0000
0100
0000
0010
0000
1000
0000
0000
0000
,  // measure 68
0001
0000
0010
0100
0000
0001
0000
0100
0010
0100
1000
0000
0001
0000
0100
0000
,  // measure 69
0201
0000
0000
0000
0300
00M0
0100
0000
0000
0000
1000
0000
0000
0000
0001
0000
0100
0000
0010
0000
1000
0000
0000
0000
0001
0000
0000
0000
0010
0000
0000
0000
,  // measure 70
0021
0000
0000
0000
0030
0M00
0010
0000
0000
0000
1000
0000
0001
0000
0000
0000
0100
0000
0010
0000
0000
0000
0001
0000
0000
0000
0001
0000
0010
0000
0000
0000
,  // measure 71
1020
0000
0000
0000
0030
0M00
0010
0000
0000
0000
0001
0000
1000
0000
0000
0000
0100
0000
0010
0000
1000
0000
0000
0000
0010
0000
0100
0000
1000
0000
0000
0000
,  // measure 72
0010
0100
0010
0001
0000
1000
0100
0010
0000
0100
0002
0000
0010
0000
1003
0000
,  // measure 73
1100
0000
0100
0010
0000
0100
0001
0000
0100
0010
0000
0100
1000
0000
0000
0000
,  // measure 74
1200
0000
0000
0000
0300
00M0
0100
0000
0000
0000
0001
0000
1000
0000
0010
0000
0100
0000
1000
0000
0000
0000
0100
0000
0000
0000
0100
0000
0001
0000
0000
0000
,  // measure 75
0201
0000
0000
0000
0300
00M0
0100
0000
0000
0000
1000
0000
0001
0000
0010
0000
0100
0000
0001
0000
0100
0000
0000
0000
0010
0000
0100
0000
1000
0000
0000
0000
,  // measure 76
0001
0000
0100
0010
0100
1000
0000
0100
0010
0100
0001
0000
1000
0000
0100
0000
,  // measure 77
1200
0000
0000
0000
0300
00M0
0100
0000
0000
0000
0001
0000
0000
0000
1000
0000
0100
0000
0010
0000
0001
0000
0000
0000
1000
0000
0000
0000
0010
0000
0000
0000
,  // measure 78
1020
0000
0000
0000
0030
0M00
0010
0000
0000
0000
0001
0000
1000
0000
0100
0000
0010
0000
1000
0000
0000
0000
0010
0000
0000
0000
0010
0000
0001
0000
0000
0000
,  // measure 79
0021
0000
0000
0000
0030
0M00
0010
0000
0000
0000
1000
0000
0001
0000
0100
0000
0010
0000
0001
0000
0010
0000
0000
0000
0100
0000
0010
0000
1000
0000
0000
0000
,  // measure 80
0100
0010
0100
0001
0000
1000
0010
0100
1000
0001
0100
0010
1000
0001
0010
0001
,  // measure 81
0200
0000
0000
0000
0310
0000
1000
0000
1100
0000
0100
0010
0001
0000
0100
0010
,  // measure 82
1000
0001
0010
0001
1000
0010
1000
0001
1000
0100
0010
0001
0010
0100
0001
0000
,  // measure 83
0000
0000
0011
0000
0000
0000
1010
0000
1000
0001
1000
0000
0100
0000
0102
0000
,  // measure 84
0000
0000
0000
0000
,  // measure 85
0000
0000
0000
0000
,  // measure 86
0003
0000
0000
0000
;
