#TITLE:Charcol's Sword Dance;
#SUBTITLE:;
#ARTIST:Zektbach;
#TITLETRANSLIT:;
#SUBTITLETRANSLIT:;
#ARTISTTRANSLIT:;
#GENRE:;
#CREDIT:Minxyz;
#MUSIC:Charcols Sword Dance.ogg;
#BANNER:Charcol's Sword Dance BN.png;
#BACKGROUND:Charcol's Sword Dance BG.png;
#CDTITLE:;
#SAMPLESTART:48.403;
#SAMPLELENGTH:13.714;
#SELECTABLE:YES;
#OFFSET:-0.401;
#BPMS:0.000=140.000
,79.250=280.000
,80.000=140.000
,87.250=280.000
,88.000=140.000
,95.250=280.000
,96.000=140.000
,103.250=280.000
,104.000=140.000
,105.250=280.000
,106.000=140.000
,107.250=280.000
,108.000=140.000
,109.250=280.000
,110.000=140.000
,111.250=280.000
,112.000=140.000
;
#STOPS:79.250=0.161
,87.250=0.161
,95.250=0.161
,103.250=0.161
,105.250=0.161
,107.250=0.161
,109.250=0.161
,111.250=0.161
;
#DISPLAYBPM:140.000;
#BGCHANGES:;
#FGCHANGES:;

//--------------- dance-single - Minxyz ----------------
#NOTES:
     dance-single:
     Minxyz:
     Easy:
     12:
     0,0,0,0,0:
0000
0000
0000
0000
,
0000
0000
0000
0000
,
0000
0000
0000
0000
,
0000
0000
0000
0000
,
0000
0000
0001
0000
0010
0000
0000
0010
0000
0000
0001
0000
1000
0000
0000
0000
,
0010
0000
0100
0001
0000
0000
0000
0101
0000
0000
0000
0000
1010
0000
0000
0000
,
0000
0000
0001
0000
0100
0000
0000
0100
0000
0000
0001
0000
1000
0000
0000
0000
,
0100
0000
0010
0001
0000
0000
0000
0011
0000
0000
0000
0000
1100
0000
0000
0000
,
1010
0000
0000
0000
0110
0000
0000
0000
0000
1001
0000
0000
1000
0000
0010
0000
,
0100
0000
0000
0001
0000
1000
0000
0000
0000
0000
0000
0000
0010
0000
0000
0100
,
0000
0000
0100
0000
0000
0000
0000
0010
0000
0010
0000
1000
0100
0000
0010
0000
,
0001
0010
0000
0001
0000
0000
0000
0100
0010
0000
0000
0100
0000
0000
0100
0000
,
0000
0000
0000
0001
0000
0000
1000
0000
0100
0000
0000
0001
0000
0000
0100
0000
,
0000
0000
0000
0000
0010
0000
0000
0001
0000
0000
0001
0000
0000
0000
0000
1000
,
0000
0010
0100
0000
0010
0000
0000
1000
0000
0000
0001
0000
0000
0000
0000
0000
,
0010
0000
0000
0100
0000
0000
0100
0000
0000
0000
1000
0000
0000
0001
0000
0000
,
1001
1010
1100
0101
,
0011
0000
0000
0000
1001
0000
0000
0000
0101
0000
0000
0000
1010
0000
0000
1000
,
0001
0000
0000
0010
0100
0000
0000
0001
0000
0100
0000
0010
0000
0001
0000
1000
,
0000
0000
0000
0010
0100
0000
0100
0001
0000
0000
0000
0010
0000
0110
0000
0000
,
0100
0000
0000
0010
0001
0000
0000
0100
0000
0010
0000
0001
0000
1000
0000
0100
,
0000
0000
0000
0001
1000
0000
0100
0010
0000
0001
0000
1000
0000
1001
0000
0000
,
0001
0000
0000
0100
0010
0000
0000
0001
0000
0010
0000
0100
0000
0001
0000
1000
,
0000
0000
0000
0100
0010
0000
0010
0001
0000
0000
0000
0100
0000
0110
0000
0000
,
0010
0000
0000
0100
0001
0000
0000
0010
0000
0100
0000
0001
0000
1000
0000
0010
,
0000
0000
0000
0001
1000
0000
0010
0100
0000
0001
0000
1000
0000
1001
0000
0000
,
1000
1000
0100
0100
,
0010
0010
0001
0001
,
1000
0000
0000
0010
0000
0100
0000
0000
0001
0000
0100
0000
0000
1000
0000
0000
,
0100
0000
0000
0001
0000
0010
0000
0000
0100
0000
1000
0000
0000
0100
0000
0000
,
0001
0000
0000
0100
0000
1000
0000
0000
0010
0000
0100
0000
0000
0001
0000
0000
,
1000
0000
0000
0010
0000
0001
0000
0000
0010
0000
0100
0000
0000
0100
0000
0000
,
0001
0000
0000
0100
0000
0010
0000
0000
1000
0000
0010
0000
0000
0001
0000
0000
,
0010
0000
0000
1000
0000
0100
0000
0000
0010
0000
0001
0000
0000
0010
0000
0000
,
1000
0000
0000
0010
0000
0001
0000
0000
0100
0000
0010
0000
0000
1000
0000
0000
,
0001
0000
0000
0100
0000
1000
0000
0000
0100
0000
0010
0000
0000
0010
0000
0000
,
0200
0000
0000
0000
0010
0000
0000
0000
0301
0000
0000
0001
2000
0000
0000
0000
,
0001
0000
0000
0000
3100
0000
0000
0100
0002
0000
0000
0000
1000
0000
0000
0000
,
0103
0000
0000
0100
0020
0000
0000
0000
0001
0000
0000
0000
0130
0000
0000
0100
,
1000
0000
0000
0000
0010
0000
0000
0000
0100
0000
0000
0100
0010
0000
1000
0000
,
0001
0000
0000
0000
0010
0000
0000
0000
0100
0000
0000
0100
0010
0000
0001
0000
,
0100
0000
0000
0101
0000
0000
0000
0000
0010
0000
0000
1010
0000
0000
0000
0000
,
0001
0000
0000
0000
0010
0100
0010
0000
0001
0000
0000
1000
0100
0000
0000
0000
,
1000
0000
0000
0000
0100
0000
0000
0000
0010
0000
0000
0010
0100
0000
1000
0000
,
0001
0000
0000
0000
0100
0000
0000
0000
0010
0000
0000
0010
0100
0000
0001
0000
,
0010
0000
0000
0011
0000
0000
0000
0000
0100
0000
0000
1100
0000
0000
0000
0000
,
0001
0000
0000
0000
0010
0100
0010
0000
0001
0000
0000
0010
0001
0000
0000
0000
,
0100
0000
0000
0010
0000
0000
0000
1000
0001
0000
0000
0100
0000
0001
1000
0000
,
0000
0010
0000
0000
1000
0000
0100
0000
0010
0000
0001
0000
0000
1000
0100
0000
,
0000
0110
0000
0000
0000
0010
0100
0000
1000
0000
0010
0000
0100
0000
0001
0100
,
0000
0000
0000
0010
0000
1010
0000
0000
0010
0000
0000
0100
0000
0000
0000
0001
,
1000
0000
0000
0010
0000
1000
0001
0000
0000
0100
0000
0000
0001
0000
0010
0000
,
0100
0000
1000
0000
0000
0001
0010
0000
0000
0110
0000
0000
0000
0100
0010
0000
,
0001
0000
0100
0000
0010
0000
1000
0010
0000
0000
0000
0100
0000
0101
0000
0000
,
1001
0000
0000
0000
0000
0000
1010
0000
0000
0000
0110
0000
0000
0101
0000
0000
,
0000
1010
0000
0000
0100
0000
0000
0000
0010
0000
0000
0000
1000
0000
0000
0000
,
0100
0000
0000
0000
0100
0000
0110
0000
0000
0000
0011
0000
0000
0101
0000
0000
,
0000
0110
0000
0000
1001
0000
0000
0000
0110
0000
0000
0000
1001
0000
0000
0000
,
0001
0000
0000
0000
0001
0000
0100
0000
1000
0000
0000
0100
0000
0000
0001
0000
,
0000
0000
1000
0000
0000
0100
0000
0000
0001
0000
0000
0100
0000
0000
0000
0000
,
1000
0000
0000
0000
1000
0000
0010
0000
0001
0000
0000
0010
0000
0000
1000
0000
,
0000
0000
0001
0000
0000
0010
0000
0000
1000
0000
0000
0010
0000
0000
0011
0000
;

//--------------- dance-single - Minxyz ----------------
#NOTES:
     dance-single:
     Minxyz:
     Medium:
     14:
     0,0,0,0,0:
0000
0000
0000
0000
,
0000
0000
0000
0000
,
0000
0000
0000
0000
,
0000
0000
0000
0000
,
0000
0000
0010
0000
1000
0000
0000
0100
0000
0000
0010
0000
0001
0000
0000
0000
,
1000
0010
0100
0001
0100
1000
0100
0001
,
0000
0000
0010
0000
0001
0000
0000
0010
0000
0000
0100
0000
1000
0000
0000
0000
,
0001
0010
0100
1000
0100
0001
0100
1000
,
1010
0000
0000
0000
0101
0000
0000
0000
0000
1001
0000
0000
0000
0000
0000
0001
,
0100
0000
0010
0000
0000
0000
1010
0000
0000
0000
0000
0000
0010
0000
0000
0100
,
0000
0000
0200
0000
0300
0000
0001
0000
1000
0010
1000
0000
0100
0000
0010
0000
,
0001
0010
0000
1000
0000
0000
0000
0010
0001
0000
0000
1000
0000
0000
1000
0000
,
0000
0010
0000
0010
0000
0010
0000
0000
0010
0000
0000
0100
0000
0000
0101
0000
,
0000
0000
0000
0000
0001
0000
0000
0100
0000
0000
0100
0000
0000
0000
0010
0000
,
1000
0001
0100
0000
0010
0000
0000
1000
0000
0000
0001
0000
0000
0000
0000
0000
,
0100
0000
0000
0010
0000
0000
0010
0000
0000
0100
0000
0100
0000
0100
0000
0000
,
0001
0010
0000
0000
0100
1000
0000
0000
0010
0100
0000
0000
0001
0100
0000
0000
,
0010
1000
0000
0000
0100
0010
0000
0000
0001
0010
0000
0000
0100
0010
0000
0001
,
1000
0000
0000
1000
0100
0000
0010
0100
0000
0010
0000
0001
0000
0100
0000
0001
,
0000
0000
0000
0000
0000
0000
0100
0000
0010
0000
0000
0000
0100
0000
0001
0000
0000
0000
0010
0000
0000
0000
0001
0000
0000
0000
2002
3003
0000
0000
0000
0000
,
1000
0000
0000
0010
0100
0000
0000
1000
0100
0010
0000
0100
0000
0001
0000
0010
,
0000
0000
0000
0000
0000
0000
0001
0000
0100
0000
0000
0000
0010
0000
1000
0000
0000
0000
0100
0000
0000
0000
0010
0000
0000
0000
0220
0330
0000
0000
0000
0000
,
0001
0000
0000
0001
0010
0000
0100
0010
0000
0100
0000
1000
0000
0010
0000
1000
,
0000
0000
0000
0000
0000
0000
0010
0000
0100
0000
0000
0000
0010
0000
1000
0000
0000
0000
0100
0000
0000
0000
1000
0000
0000
0000
2002
3003
0000
0000
0000
0000
,
0001
0000
0000
0100
0010
0000
0000
0001
0010
0100
0000
0010
0000
1000
0000
0100
,
0000
0000
0000
0000
0000
0000
1000
0000
0010
0000
0000
0000
0100
0000
0001
0000
0000
0000
0010
0000
0000
0000
0100
0000
0000
0000
0220
0330
0000
0000
0000
0000
,
0011
0000
0000
0000
0000
0000
0000
0000
0010
0000
0200
0300
0000
0000
0000
0000
0110
0000
0000
0000
0000
0000
0000
0000
0010
0000
0002
0003
0000
0000
0000
0000
,
0101
0000
0000
0000
0000
0000
0000
0000
0100
0000
0020
0030
0000
0000
0000
0000
1010
0000
0000
0000
0000
0000
0000
0000
1000
0000
0002
0003
0000
0000
0000
0000
,
0020
0000
0000
0000
0030
0001
0000
1000
0000
0100
0000
0000
0010
0000
0000
0000
,
0100
0000
1000
0100
0000
0010
0000
0001
0000
0010
0000
0100
0000
0010
0000
0000
,
0200
0000
0000
0000
0310
0000
0001
1000
0000
0100
0000
0100
0000
0001
0000
0000
,
0200
0000
0000
0000
0300
1000
0000
0000
0000
1000
0000
0010
0000
0001
0000
0000
,
0020
0000
0000
0000
0030
1000
0000
0001
0000
0100
0000
0000
0010
0000
0000
0000
,
0100
0000
0001
0100
0000
0010
0000
1000
0000
0010
0000
0100
0000
0010
0000
0000
,
0200
0000
0000
0000
0310
0000
1000
0001
0000
0100
0000
0100
0000
1000
0000
0000
,
0200
0000
0000
0000
0300
0001
0000
0000
0000
0001
0000
0010
0000
1000
0000
0000
,
0020
0032
2003
3200
0302
0203
2300
3020
,
0230
2300
3200
0302
0023
0230
0302
0203
,
2300
3200
0302
0203
0320
2030
3020
0032
,
0203
0000
0320
0000
1030
0000
1000
0100
0000
0010
0000
0010
0001
0000
1000
0000
,
0100
0000
1000
0000
0010
0100
0010
0100
0000
0001
0000
0001
0010
0000
0100
0000
,
1000
0000
0000
1000
0100
0000
0000
0000
0001
0000
0000
0001
0100
0000
0000
0000
,
1000
0000
0000
0100
0010
0100
0010
0001
0000
0000
0000
0001
0100
0000
0000
0000
,
0010
0000
0100
0000
0001
0000
0001
0010
0000
0100
0000
0100
1000
0000
0001
0000
,
0010
0000
0001
0000
0100
0010
0100
0010
0000
1000
0000
1000
0100
0000
0010
0000
,
0001
0000
0000
0001
0010
0000
0000
0000
1000
0000
0000
1000
0010
0000
0000
0000
,
0001
0000
0000
0010
0100
0010
0100
1000
0000
0000
0000
1000
0010
0000
0000
0000
,
1000
0000
0010
0100
0000
0000
0000
0001
0010
0000
0000
0001
0000
0100
0010
0000
,
0000
0100
0000
0000
0010
0000
1000
0000
0001
0000
1000
0000
0000
0010
0100
0000
,
0000
0001
0000
1001
0000
1000
0100
0000
0010
0000
0001
0100
0000
0010
0000
0010
,
0000
1000
0100
0000
0000
0110
0000
0000
0001
0000
0100
0010
0000
0000
0000
1000
,
0100
0000
0000
1000
0000
0010
0100
0000
0000
0010
0000
0000
0100
0000
0001
0000
,
1000
0000
0001
0000
0000
0100
0010
0000
0000
1000
0000
1001
0000
0001
0010
0000
,
0100
0000
1000
0010
0000
0100
0000
0100
0000
0001
0010
0000
0000
0110
0000
0000
,
0110
0000
0000
0000
0000
0000
1010
0000
0000
0000
1000
0100
0000
1100
0000
0000
,
0000
0110
0000
0000
0100
0010
0001
0000
1000
0100
1000
0000
0001
0100
0001
0000
,
1000
0010
1000
0000
0100
0000
0010
0001
0010
0000
0110
0000
0000
1100
0000
0000
,
0000
1001
0000
0000
0001
0100
0001
0000
1000
0100
1000
0000
0100
0010
0100
0000
,
1100
0000
0000
0000
1000
0000
0010
0000
0110
0000
0000
0101
0000
0000
1001
0000
,
0000
0000
0101
0000
0000
0110
0000
0000
1100
0000
0000
0110
0000
0000
0000
0000
,
1010
0000
0000
0000
1000
0000
0100
0000
0110
0000
0000
0011
0000
0000
1001
0000
,
0000
0000
0011
0000
0000
0110
0000
0000
1010
0000
0000
0011
0000
0000
1001
0000
;

//--------------- dance-single - Minxyz ----------------
#NOTES:
     dance-single:
     Minxyz:
     Hard:
     17:
     0,0,0,0,0:
0000
0000
0000
0000
,
0000
0000
0000
0000
,
0000
0000
0000
0000
,
0000
0000
0000
0000
,
0000
0000
1100
0000
0011
0000
0000
1001
0000
0000
1100
0000
0110
0000
0000
0000
,
0010
0001
0010
0100
1000
0100
1000
0010
0100
0010
0100
0001
1000
0000
2002
0000
,
3003
0000
0101
0000
1100
0000
0000
1001
0000
0000
0011
0000
0110
0000
0000
0000
,
0100
1000
0100
0010
0001
0010
0001
0100
0010
0100
0010
0100
0001
0100
0001
0100
,
0010
1000
0010
1000
0010
0100
0010
0100
0010
0100
0001
0100
0001
1000
0100
0010
,
0001
0000
0000
0010
0000
0100
0000
0000
0010
0001
0000
0100
0000
0100
0000
0000
,
0010
0000
1000
0000
0000
1000
0000
0100
1000
0100
0010
0001
1000
0000
0010
0000
,
1000
0100
0000
0200
0000
0300
0000
0001
0100
0000
0000
1000
0000
0000
1000
0000
,
1000
0000
0010
1000
0010
0100
0010
0000
1000
0000
0000
0100
0000
0010
0000
0000
,
0100
1000
0000
0010
0000
0010
0000
0000
0100
0000
0001
0000
0000
0001
0000
0010
,
0001
0010
0100
1000
0001
0000
0000
0010
0000
0000
0010
0000
0000
0000
0000
0000
,
0100
0000
0000
1000
0000
0000
1000
0000
0001
0000
0100
0001
0100
0010
0100
0000
,
0001
0010
0001
0100
0010
1000
0100
0000
0010
0001
0100
0000
0010
1000
0100
0000
,
0010
0001
0100
0000
0010
0100
0001
0000
0010
0100
1000
0000
1000
0100
0001
0100
,
1000
0000
0000
0010
0100
0000
0001
1000
0001
1000
0000
0010
0000
0010
0000
2000
,
0000
0000
3000
0000
0000
0000
0100
0000
0010
0000
0000
0000
0001
0000
1000
0000
0000
0000
0110
0000
0000
0000
0110
0000
0000
0000
2002
3003
0000
0000
0000
0000
,
0001
0000
0100
0010
0100
0000
0000
1000
0100
0001
0000
0010
0000
0100
0000
2000
,
0000
0000
3000
0000
0000
0000
0100
0000
0010
0000
0000
0000
0100
0000
0010
0000
0000
0000
1001
0000
0000
0000
1001
0000
0000
0000
0220
0330
0000
0000
0000
0000
,
0001
0000
0000
0100
0010
0000
1000
0001
1000
0001
0000
0100
0000
0100
0000
0002
,
0000
0000
0003
0000
0000
0000
0010
0000
0100
0000
0000
0000
1000
0000
0001
0000
0000
0000
0110
0000
0000
0000
0110
0000
0000
0000
2002
3003
0000
0000
0000
0000
,
1000
0000
0010
0100
0010
0000
0000
0001
0010
1000
0000
0100
0000
0010
0000
0002
,
0000
0000
0003
0000
0000
0000
0010
0000
0100
0000
0000
0000
0010
0000
0100
0000
0000
0000
1001
0000
0000
0000
1001
0000
0000
0000
0220
0330
0000
0000
0000
0000
,
1100
0000
0000
0000
0000
0000
0001
0000
0100
0000
0002
0003
0000
0000
0000
0000
1010
0000
0000
0000
0000
0000
0001
0000
0010
0000
0002
0003
0000
0000
0000
0000
,
0101
0000
0000
0000
0000
0000
1000
0000
0100
0000
2000
3000
0000
0000
0000
0000
0011
0000
0000
0000
0000
0000
1000
0000
0010
0000
2000
3000
0000
0000
0000
0000
,
2000
0000
0000
3000
0000
0010
0100
0010
0000
1000
0001
0010
0100
1000
0100
0010
,
0002
0000
0000
0003
0000
0010
0100
1000
0000
0010
0000
0001
0000
0010
0000
0000
,
2000
0000
0000
3000
0100
0010
0100
1000
0000
0010
0100
1000
0100
0001
0000
0010
,
0200
0000
0000
0300
0000
0010
0001
0100
0000
0010
1000
0010
0100
0010
1000
0000
,
0002
0000
0000
0003
0000
0100
0010
0100
0000
0001
1000
0100
0010
0001
0010
0100
,
2000
0000
0000
3000
0000
0100
0010
0001
0000
0100
0000
1000
0000
0100
0000
0000
,
0002
0000
0000
0003
0010
0100
0010
0001
0000
0100
0010
0001
0010
1000
0000
0100
,
0020
0000
0000
0030
0000
0100
1000
0010
0000
0100
0001
0100
0010
0100
0001
0000
,
1000
0010
1000
0010
0100
0001
0100
0001
1000
0100
1000
0100
0010
0001
0010
0001
,
1000
0100
1000
0100
0010
0100
0010
0001
1000
0010
1000
0010
0001
0010
0001
0010
,
1000
0100
1000
0100
0001
0100
0001
0100
0010
0100
0010
0100
1000
0100
0010
0001
,
1000
0000
0100
0000
1000
0000
0000
0000
0010
0000
0000
0000
0010
0000
0100
0000
0000
0000
0001
0000
0000
0000
1000
0000
0100
0000
0010
0001
0010
0000
0100
0000
,
1000
0010
0100
0001
0100
0010
0100
0010
0000
1000
0000
0001
0010
0100
1000
0000
,
0010
0000
0000
0010
1000
0000
0000
0000
0100
0000
0000
1000
0100
0000
0000
0000
,
0001
0000
0000
0100
0010
0001
0010
2000
0000
0000
3000
0010
0001
0000
0000
0000
,
0001
0000
0010
0000
0001
0000
0000
0000
0100
0000
0000
0000
0100
0000
0010
0000
0000
0000
1000
0000
0000
0000
0001
0000
0010
0000
0100
1000
0100
0000
0010
0000
,
0001
0100
0010
1000
0010
0100
0010
0100
0000
0001
0000
1000
0100
0010
0001
0000
,
0100
0000
0000
0100
0001
0000
0000
0000
0010
0000
0000
0001
0010
0000
0000
0000
,
1000
0000
0000
0010
0100
1000
0100
0002
0000
0000
0003
0100
1000
0000
0010
0000
,
1000
0001
1000
0010
0000
0100
0010
1000
0100
0000
0000
0100
0000
0010
0001
0000
,
0000
1000
0000
0000
0010
0000
0100
0000
0001
0000
1000
0000
0000
0010
1000
0010
,
0100
0010
0000
1000
0000
0100
0010
0100
0001
0100
0010
0001
0000
0010
0000
0100
,
0000
1000
0100
0000
0000
0020
0030
0000
0001
1000
0001
0100
0000
0010
0100
0001
,
0010
0000
0000
0010
0000
0100
1000
0000
0000
0001
0000
0000
0100
0000
0010
0000
,
1000
0000
0001
0000
0000
0100
0001
0100
0010
0100
0000
0001
0000
0010
0100
0010
,
1000
0010
0100
1000
0000
0100
0000
0010
0000
0001
0010
0000
0000
0002
0003
0000
,
0101
0000
0001
0000
0010
0000
0110
0000
0100
0000
1000
0100
0000
1100
0000
0100
,
0010
0001
0000
0000
0010
0100
1000
0000
0010
0100
0001
0000
1000
0100
0010
0000
,
0001
0100
0010
0000
1010
0000
0100
0010
0001
0000
0010
0001
0000
0010
0001
1000
,
0000
1010
0000
0000
1000
0100
0010
0000
0100
0010
0001
0000
0100
0010
1000
0000
,
1010
0000
0000
0000
1100
0000
0011
0000
1001
0000
0000
0110
0000
0000
1001
0000
,
0000
0000
1010
0000
0000
1100
0000
0000
0101
0000
0000
0110
0000
0000
0000
0000
,
0101
0000
0000
0000
0011
0000
1100
0000
1001
0000
0000
0110
0000
0000
1001
0000
,
0000
0000
0101
0000
0000
0011
0000
0000
1010
0000
0000
0110
0000
0000
1001
0000
;
