#VERSION:0.83;
#TITLE:Changing the ASIA;
#SUBTITLE:;
#ARTIST:CHEAP FOREST;
#TITLETRANSLIT:;
#SUBTITLETRANSLIT:;
#ARTISTTRANSLIT:;
#GENRE:ASIAN TRADITIONAL;
#ORIGIN:;
#CREDIT:;
#BANNER:Changing the ASIA.png;
#BACKGROUND:Changing the ASIA-bg.png;
#PREVIEWVID:;
#JACKET:Changing the ASIA-jacket.png;
#CDIMAGE:;
#DISCIMAGE:;
#LYRICSPATH:;
#CDTITLE:;
#MUSIC:Changing the ASIA.ogg;
#OFFSET:0.020000;
#SAMPLESTART:55.631870;
#SAMPLELENGTH:11.999998;
#SELECTABLE:YES;
#BPMS:0.000=95.000;
#STOPS:;
#DELAYS:;
#WARPS:;
#TIMESIGNATURES:0.000=4=4;
#TICKCOUNTS:0.000=4;
#COMBOS:0.000=1;
#SPEEDS:0.000=1.000=0.000=0;
#SCROLLS:0.000=1.000;
#FAKES:;
#LABELS:0.000=Song Start;
#BGCHANGES:0.000=Changing the ASIA.mp4=1.000=0=0=0=StretchNoLoop====,
99999=-nosongbg-=1.000=0=0=0 // don't automatically add -songbackground-
;
#KEYSOUNDS:;
#ATTACKS:
;

//---------------dance-single - ----------------
#NOTEDATA:;
#CHARTNAME:;
#STEPSTYPE:dance-single;
#DESCRIPTION:;
#CHARTSTYLE:;
#DIFFICULTY:Hard;
#METER:11;
#RADARVALUES:0.468003,0.524163,0.252721,0.149761,0.449283,350.000000,323.000000,27.000000,16.000000,0.000000,0.000000,0.000000,0.000000,0.000000,0.468003,0.524163,0.252721,0.149761,0.449283,350.000000,323.000000,27.000000,16.000000,0.000000,0.000000,0.000000,0.000000,0.000000;
#CREDIT:Ben Speirs;
#NOTES:
0000
0000
0000
0000
,
0000
0000
0000
0000
,
2000
3200
0320
0000
,
0031
1000
0001
1000
0001
1000
0001
1000
0001
1000
0001
1000
0001
1000
0001
1000
,
0010
0000
1000
0100
0010
0000
0001
0010
0100
0000
1000
0000
0010
0000
0100
0010
,
2000
0000
0000
0000
0001
0000
0000
0000
3010
0000
1000
0001
1000
0001
0000
0000
,
1000
0000
0001
0010
0100
0000
1000
0010
0100
0000
0001
0000
0100
0000
0010
0100
,
0002
0000
0000
0000
0023
0000
0000
0000
0130
0000
1000
0001
1000
0001
0000
0000
,
1000
0000
0010
1000
0001
0000
1000
0010
0100
0000
0010
1000
0001
0000
1000
0010
,
0100
0000
0010
1000
0001
0000
1000
0010
0100
0000
0001
1000
0001
1000
0000
0000
,
0001
0000
0100
0001
1000
0000
0001
0100
0010
0000
0100
0001
1000
0000
0001
0100
,
0020
0200
0000
0330
,
1001
0000
0001
0000
0010
0000
0100
1000
0100
0000
1000
0000
0010
0000
0100
0000
,
0001
0000
1000
0000
0010
0000
0100
0010
0100
0000
0001
0000
1000
0000
0000
0000
,
1010
1010
0000
1000
0001
0000
0000
0001
,
0011
0000
0011
0000
0000
0000
0001
0000
1000
0000
0010
0000
0100
0010
0100
0000
,
0002
0100
2003
0010
3002
0010
1003
0000
,
2000
0100
3002
0010
2003
0010
3001
0000
,
1001
0000
0000
0000
0000
0000
1010
0000
0000
1010
0000
0000
0001
0000
0000
0000
,
1001
0000
0000
0011
0000
0000
1000
0010
,
1001
0000
0000
0000
0000
0000
0101
0000
0000
0101
0000
0000
1001
0000
0000
0000
,
1000
0000
0001
0010
0000
0010
0100
0000
1000
0000
0010
0000
0200
0000
0000
0000
,
0301
1000
0001
0000
1000
0000
0100
0010
0001
0000
1001
0000
0000
1100
0000
0000
,
0001
0100
0001
0000
1000
0000
0001
0100
0010
0000
1000
0000
0001
0000
0000
0000
,
1030
0001
1000
0000
0001
0000
0010
0100
1000
0000
1001
0000
0000
0011
0000
0000
,
1000
0010
1000
0000
0001
0000
1000
0010
0100
0000
0001
0000
1000
0000
0000
0000
,
0001
0100
0000
0001
0100
0000
0001
0100
0001
0000
1000
0001
1000
0001
0000
0000
,
1000
0100
0000
1000
0100
0000
1000
0100
1000
0000
0001
1000
0001
1000
0000
0000
,
0001
0010
0000
0100
1000
0000
0001
0100
0010
0000
1000
0001
1000
0001
1000
0000
,
0020
0000
0000
0000
0000
0100
0130
0000
,
1001
0000
0001
0000
0010
0000
0001
1000
0010
0000
1010
0000
0000
0110
0000
0000
,
0101
0000
0100
0000
0010
0000
1000
0100
0010
0000
0001
1000
0001
1000
0000
0000
,
1001
0000
1000
0000
0100
0000
1000
0001
0100
0000
0101
0000
0000
0110
0000
0000
,
1010
0000
0010
0000
0100
0000
0001
0010
0100
0000
1000
0001
1000
0001
0000
0000
,
1000
0000
0001
0001
0000
0000
1000
1000
0000
0000
0010
0010
0000
0000
0100
0100
,
0000
0000
0001
0001
0000
0000
1000
1000
0000
0000
0001
0010
0100
1000
0000
0000
,
0001
0000
1000
1000
0000
0000
0010
0010
0000
0000
0100
0100
0000
0000
0001
0001
,
0000
0000
0010
0010
0000
0000
0100
0100
0000
0000
1000
0001
1000
0001
0000
0000
,
1000
0000
0001
0100
0010
0000
0100
0001
1000
0000
0001
0010
0100
0000
0010
0001
,
1000
0000
0001
0100
0010
0000
0100
0001
1000
0000
0001
1000
0001
1000
0000
0000
,
1001
0000
0000
0000
;

//---------------dance-single - ----------------
#NOTEDATA:;
#CHARTNAME:;
#STEPSTYPE:dance-single;
#DESCRIPTION:;
#CHARTSTYLE:;
#DIFFICULTY:Challenge;
#METER:13;
#RADARVALUES:0.627124,0.617764,0.168481,1.338488,1.422728,469.000000,451.000000,18.000000,143.000000,0.000000,0.000000,0.000000,0.000000,0.000000,0.627124,0.617764,0.168481,1.338488,1.422728,469.000000,451.000000,18.000000,143.000000,0.000000,0.000000,0.000000,0.000000,0.000000;
#CREDIT:Ben Speirs;
#NOTES:
0000
0000
0000
0000
,
0000
0000
0000
0000
,
2000
3002
3323
0000
,
0230
0300
0200
0300
0200
0300
0200
0300
0200
0300
0200
0300
0200
0300
0200
0300
0200
0300
0200
0300
0200
0300
0200
0300
0200
0300
0200
0300
0200
0300
0200
0300
,
0001
0000
0000
0000
0000
0000
0000
0000
0000
0000
0000
0000
0000
0000
0000
0000
0000
0000
0000
0000
0000
0000
0000
0000
1000
0000
0000
0000
0000
0000
0000
0000
0010
0000
0000
0000
0000
0000
0000
0000
1000
0000
0000
0000
0000
0000
0000
0000
0010
0000
0000
0000
0000
0000
0000
0000
0000
0000
0000
0000
0000
0000
0000
0000
0000
0000
0000
0000
0000
0000
0000
0000
1000
0000
0000
0000
0000
0000
0000
0000
0100
0000
0000
0000
0000
0000
0000
0000
0010
0000
0000
0000
0000
0000
0000
0000
0001
0000
0000
0000
0000
0000
0000
0000
0000
0000
0000
0000
0000
0000
0000
0000
0000
0000
0000
0000
0000
0000
0000
0000
0100
0000
0000
0000
0000
0000
0000
0000
0000
0000
0000
0000
0000
0000
0000
0000
0000
0000
0000
0000
0000
0000
0000
0000
0010
0000
0000
0000
0000
0000
0000
0000
0000
0000
0000
0000
0200
0000
0000
0000
0000
0000
0000
0000
0000
0000
0000
0000
0000
0000
0000
0000
0000
0000
0000
0000
0000
0000
0000
0000
0301
0000
0000
0000
0000
0000
1000
0000
0000
0000
0000
0000
,
0002
0000
0000
0000
0000
0000
0000
0000
0013
0000
0000
0000
0000
0000
0001
0000
1000
0000
0000
0000
0200
0300
0200
0300
0200
0300
0200
0300
0010
0000
0000
0000
,
1000
0000
0000
0000
0000
0000
0000
0000
0000
0000
0000
0000
0000
0000
0000
0000
0000
0000
0000
0000
0000
0000
0000
0000
0001
0000
0000
0000
0000
0000
0000
0000
0100
0000
0000
0000
0000
0000
0000
0000
0001
0000
0000
0000
0000
0000
0000
0000
0100
0000
0000
0000
0000
0000
0000
0000
0000
0000
0000
0000
0000
0000
0000
0000
0000
0000
0000
0000
0000
0000
0000
0000
0001
0000
0000
0000
0000
0000
0000
0000
0010
0000
0000
0000
0000
0000
0000
0000
0100
0000
0000
0000
0000
0000
0000
0000
1000
0000
0000
0000
0000
0000
0000
0000
0000
0000
0000
0000
0000
0000
0000
0000
0000
0000
0000
0000
0000
0000
0000
0000
0010
0000
0000
0000
0000
0000
0000
0000
0000
0000
0000
0000
0000
0000
0000
0000
0000
0000
0000
0000
0000
0000
0000
0000
0100
0000
0000
0000
0000
0000
0000
0000
0000
0000
0000
0000
0020
0000
0000
0000
0000
0000
0000
0000
0000
0000
0000
0000
0000
0000
0000
0000
0000
0000
0000
0000
0000
0000
0000
0000
1030
0000
0000
0000
0000
0000
0001
0000
0000
0000
0000
0000
,
2000
0000
0000
0000
0000
0000
0000
0000
3002
0000
0000
0000
0000
0000
0000
0000
0023
0000
0000
0000
0230
0300
0230
0300
0230
0300
0200
0300
0001
0000
0000
0000
,
1000
0000
0001
0000
0200
0300
0200
0300
1000
0000
0001
0000
0200
0300
0200
0300
1000
0000
0001
0000
0200
0300
0200
0300
1000
0000
0001
0000
0200
0300
0200
0300
,
1000
0000
0001
0000
0200
0300
0200
0300
1000
0000
0001
0000
0200
0300
0200
0300
1000
0000
0001
0000
0200
0300
0200
0300
0200
0300
0200
0300
0010
0000
0000
0000
,
0001
0000
1000
0000
0020
0030
0020
0030
0001
0000
1000
0000
0020
0030
0020
0030
0001
0000
1000
0000
0020
0030
0020
0030
0001
0000
1000
0000
0020
0030
0020
0030
,
0200
0000
0000
0000
0000
0000
0310
0001
1000
0001
1000
0001
1000
0000
0000
0000
0000
0000
0000
0000
0000
0000
0000
0000
,
1001
0000
0001
0000
0100
0000
0001
0010
0100
0000
0100
0000
1000
0000
0010
0000
,
0010
0000
1000
0000
0001
0000
1000
0100
0010
0000
0010
0000
0001
0000
0000
0000
,
2000
0000
0100
0000
0000
0000
3001
0100
0001
0000
0020
0000
0000
0000
0031
0000
,
0002
0000
0100
0000
0000
0000
1003
0100
1000
0000
0001
0100
0010
1000
0001
0000
,
2000
0000
0100
0000
3002
0000
0103
0010
0100
0000
0001
0000
1000
0000
0001
0000
,
0002
0000
0010
0000
2003
0000
3010
0100
0010
0000
1000
0000
0001
0000
1000
0001
,
0100
0000
0000
0000
0001
0000
0101
0000
0000
0101
0000
0000
1000
0000
0001
0000
,
0010
0000
0000
0001
1000
0000
1100
0000
0000
0000
1000
0000
0001
0000
0011
0000
,
1001
0000
0000
0000
1000
0000
1010
0000
0000
0110
0000
0001
1000
0000
0010
0000
,
0010
0000
1000
0100
0000
0010
0001
0000
1000
0001
1000
0001
0100
1000
0100
0001
,
1000
0000
0100
0010
0100
0000
1000
0000
0010
0000
0100
0000
0001
0000
1000
0000
0001
0000
0000
0000
0101
0000
0000
0000
1000
0000
1010
0000
0000
0000
0000
0000
,
0001
0000
0010
0100
0010
0000
0001
0000
1000
0000
0010
0000
0100
0000
0001
0000
2000
0000
0000
0000
0100
0000
0000
0000
3001
0000
0000
0000
0000
0000
0000
0000
,
1000
0000
0001
0100
0001
0000
1000
0000
0100
0000
0001
0000
0100
0000
1000
0000
0010
0000
0000
0000
1010
0000
0000
0000
0010
0000
0110
0000
0000
0000
0000
0000
,
0001
0000
1000
0100
1000
0000
0001
0000
0010
0000
1000
0000
0010
0000
0001
0000
2000
0000
0000
0000
0100
0000
0300
0000
3002
0000
0000
0000
0000
0000
0000
0000
,
0203
0300
0200
0300
1000
0000
0200
0300
0200
0300
0010
0000
0200
0300
0200
0300
2000
0000
0000
0000
3001
0000
3010
0000
0100
0000
2000
0000
0000
0000
0000
0000
,
3200
0300
0200
0300
0001
0000
0200
0300
0200
0300
0010
0000
0200
0300
0200
0300
0002
0000
0000
0000
1003
0000
0103
0000
0010
0000
0002
0000
0000
0000
0000
0000
,
1003
0000
0020
0030
0020
0030
0001
0000
0200
0300
0200
0300
1000
0000
0010
0000
0200
0000
0000
0000
0331
0000
0010
0000
0100
0000
1000
0000
0010
0000
0000
0000
,
2002
0000
0000
0000
0000
0000
0000
0000
0000
0000
0000
0000
0000
0000
0000
0000
0003
0000
0000
0000
3200
0300
0200
0300
0200
0300
0200
0300
0000
0000
0000
0000
,
0001
0001
0100
1000
0100
0010
1000
0100
0010
0001
0011
0000
1000
1010
0000
0001
,
1000
1000
0100
0010
0010
0001
0100
0100
0010
0000
1000
0010
0001
0010
1000
0000
,
1000
1000
0010
0001
0010
0100
0001
0010
0100
1000
1100
0000
0001
0101
0000
1000
,
0001
0001
0010
0100
0100
1000
0010
0010
0100
0000
0001
0100
1000
0100
0001
0000
,
1000
0000
0010
0000
0200
0300
0200
0300
1000
0000
0001
0000
0200
0300
0200
0300
1000
0000
0010
0000
0200
0300
0200
0300
1000
0000
0001
0000
0200
0300
0200
0300
,
0010
0000
0001
0000
0200
0300
0200
0300
1000
0000
0010
0000
0200
0300
0200
0300
1000
0000
0001
0000
0200
0300
0200
0300
0200
0300
0200
0300
0010
0000
0001
0000
,
1000
0000
0100
0000
0020
0030
0020
0030
1000
0000
0001
0000
0020
0030
0020
0030
1000
0000
0100
0000
0020
0030
0020
0030
1000
0000
0001
0000
0020
0030
0020
0030
,
0100
0000
0001
0000
0020
0030
0020
0030
1000
0000
0100
0000
0020
0030
0020
0030
1000
0000
0001
0000
0020
0030
0020
0030
0020
0030
0020
0030
0100
0000
0000
0000
,
0001
0000
1000
0000
0200
0300
0200
0300
0001
0000
1000
0000
0020
0030
0020
0030
0001
0000
1000
0000
0200
0300
0200
0300
0001
0000
1000
0000
0020
0030
0020
0030
,
0001
0000
0100
0000
0020
0030
0020
0030
0001
0000
1000
0000
0200
0300
0200
0300
0010
0000
1000
0000
0200
0300
0200
0300
0200
0300
0200
0300
0010
0000
0000
0000
,
1001
0000
0000
0000
;

//---------------dance-single - ----------------
#NOTEDATA:;
#CHARTNAME:;
#STEPSTYPE:dance-single;
#DESCRIPTION:;
#CHARTSTYLE:;
#DIFFICULTY:Medium;
#METER:7;
#RADARVALUES:0.292836,0.355682,0.159121,0.159121,0.117001,219.000000,202.000000,17.000000,17.000000,0.000000,0.000000,0.000000,0.000000,0.000000,0.292836,0.355682,0.159121,0.159121,0.117001,219.000000,202.000000,17.000000,17.000000,0.000000,0.000000,0.000000,0.000000,0.000000;
#CREDIT:Ben Speirs;
#NOTES:
0000
0000
0000
0000
,
0000
0000
0000
0000
,
0002
0203
0320
0030
,
2002
0000
0000
3003
,
1000
0100
0001
0100
1000
0001
0100
0010
,
2000
0000
0010
0000
3001
1000
1001
0000
,
0001
0010
1000
0010
0001
0100
0010
1000
,
0002
0023
0230
0000
,
1300
0010
0000
1010
0000
0010
0000
0110
,
0000
0100
0000
0101
0000
0001
1000
0000
,
0001
0010
0000
0011
0000
0010
0000
0110
,
0000
2000
0002
3003
,
0001
0100
0010
0000
1000
0010
0100
0000
,
0001
0010
0100
0000
1000
0100
0010
0000
,
0001
0001
0000
1000
0100
0000
0000
1000
,
1000
1000
0000
0001
0100
0000
0000
0000
,
0001
1000
0010
0000
1000
0001
0010
0000
,
0001
0010
0100
0000
1000
0010
0100
0000
,
1001
0000
0000
0000
0000
0000
1000
0000
0000
1000
0000
0000
1000
0000
0000
0000
,
0100
0000
0000
0100
0000
0000
0000
0000
,
1001
0000
0000
0000
0000
0000
0001
0000
0000
0001
0000
0000
0001
0000
0000
0000
,
0100
0000
0100
0000
0010
0010
0010
0000
,
1000
0001
1000
0010
0200
0000
0300
0000
,
0001
0100
0001
1000
0020
0000
0030
0000
,
1000
0001
1000
0100
0020
0000
0030
0000
,
0001
0010
0001
1000
0020
0000
0030
0000
,
1000
0000
0000
0100
0000
0000
0010
0000
0000
0000
0010
0000
0010
0000
0000
0000
,
0001
0000
0000
0100
0000
0000
0010
0000
0000
0000
0010
0000
0010
0000
0000
0000
,
1000
0000
0000
0001
0000
0000
0100
0000
0000
0000
0100
0000
0100
0000
0000
0000
,
2002
0000
0000
3003
,
0011
0000
0001
0000
1000
0000
0010
0000
0100
0000
0110
0000
0000
0110
0000
0000
,
1000
0001
0010
0100
1000
0010
0010
0000
,
1010
0000
1000
0000
0001
0000
0010
0000
0100
0000
0110
0000
0000
0110
0000
0000
,
0001
1000
0010
0100
0001
0010
0010
0000
,
0001
0000
1000
0100
0000
0000
1000
0100
0000
0000
1000
0100
0000
0000
1000
0100
,
0000
0000
1000
0100
0000
0000
1000
0100
0000
0000
1000
0000
0001
0000
0000
0000
,
1000
0000
0001
0100
0000
0000
0001
0100
0000
0000
0001
0100
0000
0000
0001
0100
,
0000
0000
0001
0100
0000
0000
0001
0100
0000
0000
0001
0000
1000
0000
0000
0000
,
0001
0000
1000
0010
0000
0000
1000
0010
0000
0000
1000
0001
0000
0000
1000
0001
,
0000
0000
1000
0100
0000
0000
1000
0100
0000
0000
1000
0000
0001
0000
0000
0000
,
1001
0000
0000
0000
;

//---------------dance-single - ----------------
#NOTEDATA:;
#CHARTNAME:;
#STEPSTYPE:dance-single;
#DESCRIPTION:;
#CHARTSTYLE:;
#DIFFICULTY:Easy;
#METER:4;
#RADARVALUES:0.175167,0.187201,0.037440,0.102961,0.000000,131.000000,127.000000,4.000000,11.000000,0.000000,0.000000,0.000000,0.000000,0.000000,0.175167,0.187201,0.037440,0.102961,0.000000,131.000000,127.000000,4.000000,11.000000,0.000000,0.000000,0.000000,0.000000,0.000000;
#CREDIT:Ben Speirs;
#NOTES:
0000
0000
0000
0000
,
0000
0000
0000
0000
,
1000
0100
0020
0030
,
2002
0000
0000
3003
,
0001
0100
0010
0010
,
2000
0000
0000
0000
3000
0001
0001
0000
,
1000
0100
0010
0001
,
0200
0000
0000
0300
,
0000
0001
0000
0001
0000
1000
0000
1000
,
0000
0100
0000
0100
0000
0010
0010
0000
,
0000
0001
0000
0001
0000
0100
0000
0100
,
0000
0020
0000
0030
,
1001
1000
0100
0000
,
0010
0010
0001
0000
,
1000
1000
0000
0010
0010
0000
0000
0000
,
0100
0100
0000
0001
0001
0000
0000
0000
,
1000
0001
0010
0100
,
1000
0010
0100
0001
,
1001
0000
0000
1000
0000
0000
0000
0000
,
0001
0000
0000
0001
0000
0000
0000
0000
,
0100
0000
0000
0100
0000
0000
0000
0000
,
0010
0010
1000
0000
,
0001
0010
0200
0300
,
1000
0010
0200
0300
,
0010
1000
0002
0003
,
1000
0100
0020
0030
,
0001
0100
0001
0001
,
1000
0100
0010
0000
,
0001
0010
0100
1000
,
0020
0000
0000
0030
,
1000
0000
0001
0000
0100
0100
0100
0000
,
0001
0000
1000
0000
0100
0100
0000
0000
,
1000
0000
0001
0000
0010
0010
0010
0000
,
0001
0000
1000
0000
0010
0010
0000
0000
,
0000
1000
0000
1000
0000
0001
0000
0001
,
0000
0010
0000
0010
0000
0010
0010
0000
,
0000
0001
0000
0001
0000
1000
0000
1000
,
0000
0010
0000
0010
0000
0010
0010
0000
,
0000
1000
0000
0100
0000
0010
0000
0001
,
0000
0100
0000
0010
0000
0100
0100
0000
,
1001
0000
0000
0000
;

//---------------dance-single - ----------------
#NOTEDATA:;
#CHARTNAME:;
#STEPSTYPE:dance-single;
#DESCRIPTION:;
#CHARTSTYLE:;
#DIFFICULTY:Beginner;
#METER:2;
#RADARVALUES:0.120344,0.168481,0.037440,0.065520,0.000000,90.000000,86.000000,4.000000,7.000000,0.000000,0.000000,0.000000,0.000000,0.000000,0.120344,0.168481,0.037440,0.065520,0.000000,90.000000,86.000000,4.000000,7.000000,0.000000,0.000000,0.000000,0.000000,0.000000;
#CREDIT:Ben Speirs;
#NOTES:
0000
0000
0000
0000
,
0000
0000
0000
0000
,
0001
0000
0100
0000
,
0020
0000
0000
0030
,
1000
0000
0100
0000
,
0100
0000
0000
0000
,
0010
0000
0001
0000
,
0001
0000
0000
0000
,
1000
1000
1000
0000
,
1000
1000
1000
0000
,
0010
0010
0010
0000
,
0010
0000
0000
0000
,
1001
0000
1000
0000
,
0100
0000
0100
0000
,
0010
0010
0000
0000
,
0010
0010
0000
0000
,
0001
0000
0001
0000
,
0100
0000
0100
0000
,
0010
0000
0000
0000
,
0010
0000
0000
0000
,
0100
0000
0000
0000
,
0100
0100
0100
0000
,
1001
0000
2000
3000
,
0100
0000
0200
0300
,
0010
0000
0020
0030
,
0001
0000
0002
0003
,
1000
1000
0000
0000
,
0010
0010
0000
0000
,
0100
0100
0000
0000
,
2002
0000
0000
3003
,
0001
0001
0001
0000
,
0010
0010
0010
0000
,
0100
0100
0100
0000
,
1000
1000
1000
0000
,
0001
0001
0001
0001
,
0001
0001
0001
0000
,
1000
1000
1000
1000
,
1000
1000
1000
0000
,
0010
0010
0010
0010
,
0010
0010
0010
0000
,
1001
0000
0000
0000
;

//---------------dance-double - ----------------
#NOTEDATA:;
#CHARTNAME:;
#STEPSTYPE:dance-double;
#DESCRIPTION:;
#CHARTSTYLE:;
#DIFFICULTY:Challenge;
#METER:14;
#RADARVALUES:0.627124,0.599043,0.308882,1.347848,1.389968,469.000000,436.000000,33.000000,144.000000,0.000000,0.000000,0.000000,0.000000,0.000000,0.627124,0.599043,0.308882,1.347848,1.389968,469.000000,436.000000,33.000000,144.000000,0.000000,0.000000,0.000000,0.000000,0.000000;
#CREDIT:Ben Speirs;
#NOTES:
00000000
00000000
00000000
00000000
,
00000000
00000000
00000000
00000000
,
20000000
30200000
00320000
00000000
,
00032000
00003000
00002000
00003000
00002000
00003000
00002000
00003000
00002000
00003000
00002000
00003000
00002000
00003000
00002000
00003000
00002000
00003000
00002000
00003000
00002000
00003000
00002000
00003000
00002000
00003000
00002000
00003000
00002000
00003000
00002000
00003000
,
00000010
00000000
00000000
00000000
00000000
00000000
00000000
00000000
00000000
00000000
00000000
00000000
00000000
00000000
00000000
00000000
00000000
00000000
00000000
00000000
00000000
00000000
00000000
00000000
00001000
00000000
00000000
00000000
00000000
00000000
00000000
00000000
00000100
00000000
00000000
00000000
00000000
00000000
00000000
00000000
00001000
00000000
00000000
00000000
00000000
00000000
00000000
00000000
00000100
00000000
00000000
00000000
00000000
00000000
00000000
00000000
00000000
00000000
00000000
00000000
00000000
00000000
00000000
00000000
00000000
00000000
00000000
00000000
00000000
00000000
00000000
00000000
00001000
00000000
00000000
00000000
00000000
00000000
00000000
00000000
00000010
00000000
00000000
00000000
00000000
00000000
00000000
00000000
00000100
00000000
00000000
00000000
00000000
00000000
00000000
00000000
00000002
00000000
00000000
00000000
00000000
00000000
00000000
00000000
00000000
00000000
00000000
00000000
00000000
00000000
00000000
00000000
00000000
00000000
00000000
00000000
00000000
00000000
00000000
00000000
00000010
00000000
00000000
00000000
00000000
00000000
00000000
00000000
00000000
00000000
00000000
00000000
00000000
00000000
00000000
00000000
00000000
00000000
00000000
00000000
00000000
00000000
00000000
00000000
00001003
00000000
00000000
00000000
00000000
00000000
00000000
00000000
00000000
00000000
00000000
00000000
00000000
00000000
00000000
00000000
00000000
00000000
00000000
00000000
00000000
00000000
00000000
00000000
00000000
00000000
00000000
00000000
00000000
00000000
00000000
00000000
00000000
00000000
00000000
00000000
00000001
00000000
00000000
00000000
00000000
00000000
00000100
00000000
00000000
00000000
00000000
00000000
,
00000001
00000000
00000000
00000000
00000100
00000000
00000000
00000000
00000010
00000000
00000000
00000000
00000000
00000000
00001000
00000000
00000100
00000000
00000000
00000000
00002000
00003000
00002000
00003000
00002000
00003000
00002000
00003000
00010000
00000000
00000000
00000000
,
00001000
00000000
00000000
00000000
00000000
00000000
00000000
00000000
00000000
00000000
00000000
00000000
00000000
00000000
00000000
00000000
00000000
00000000
00000000
00000000
00000000
00000000
00000000
00000000
00100000
00000000
00000000
00000000
00000000
00000000
00000000
00000000
00010000
00000000
00000000
00000000
00000000
00000000
00000000
00000000
00100000
00000000
00000000
00000000
00000000
00000000
00000000
00000000
00010000
00000000
00000000
00000000
00000000
00000000
00000000
00000000
00000000
00000000
00000000
00000000
00000000
00000000
00000000
00000000
00000000
00000000
00000000
00000000
00000000
00000000
00000000
00000000
10000000
00000000
00000000
00000000
00000000
00000000
00000000
00000000
00010000
00000000
00000000
00000000
00000000
00000000
00000000
00000000
01000000
00000000
00000000
00000000
00000000
00000000
00000000
00000000
00100000
00000000
00000000
00000000
00000000
00000000
00000000
00000000
00000000
00000000
00000000
00000000
00000000
00000000
00000000
00000000
00000000
00000000
00000000
00000000
00000000
00000000
00000000
00000000
10000000
00000000
00000000
00000000
00000000
00000000
00000000
00000000
00000000
00000000
00000000
00000000
00000000
00000000
00000000
00000000
00000000
00000000
00000000
00000000
00000000
00000000
00000000
00000000
00310000
00000000
00000000
00000000
00000000
00000000
00000000
00000000
00000000
00000000
00000000
00000000
00000000
00000000
00000000
00000000
00000000
00000000
00000000
00000000
00000000
00000000
00000000
00000000
00000000
00000000
00000000
00000000
00000000
00000000
00000000
00000000
00000000
00000000
00000000
00000000
10000000
00000000
00000000
00000000
00000000
00000000
00010000
00000000
00000000
00000000
00000000
00000000
,
20000000
00000000
00000000
00000000
00000000
00000000
00000000
00000000
30020000
00000000
00000000
00000000
00000000
00000000
00000000
00000000
00130000
00000000
00000000
00000000
00020000
00033000
00020000
00030000
00020000
00030000
00020000
00030000
00001000
00000000
00000000
00000000
,
00100000
00000000
00001000
00000000
00020000
00030000
00020000
00030000
00100000
00000000
00001000
00000000
00020000
00030000
00020000
00030000
00100000
00000000
00001000
00000000
00020000
00030000
00020000
00030000
00100000
00000000
00001000
00000000
00020000
00030000
00020000
00030000
,
00100000
00000000
00001000
00000000
00020000
00030000
00020000
00030000
00100000
00000000
00001000
00000000
00020000
00030000
00020000
00030000
00100000
00000000
00001000
00000000
00020000
00030000
00020000
00030000
00020000
00030000
00020000
00030000
00100000
00030000
00000000
00000000
,
00000010
00000000
00010000
00000000
00002000
00003000
00002000
00003000
00000010
00000000
00010000
00000000
00002000
00003000
00002000
00003000
00000010
00000000
00010000
00000000
00002000
00003000
00002000
00003000
00000010
00000000
00010000
00000000
00002000
00003000
00002000
00003000
,
00000020
00000000
00000000
00000000
00000000
00000000
00000130
00000001
00001000
00000001
00001000
00000001
00001000
00000000
00000000
00000000
00000000
00000000
00000000
00000000
00000000
00000000
00000000
00000000
,
00000011
00000000
00000010
00000000
00001000
00000000
00000010
00000100
00000010
00000000
00000100
00000000
00010000
00000000
00001000
00000000
,
01000000
00000000
01000000
00000000
00100000
00000000
10000000
01000000
00100000
00000000
00010000
00000000
10000000
00000000
00000000
00000000
,
10010000
12000000
03100000
00120000
01030000
00001000
00010000
00010010
,
00002010
00000000
00003002
00000000
00000000
00000000
00000013
00000100
00000010
00000000
00000001
00000100
00000010
00001000
00000001
00000000
,
00002000
00000300
00000100
00000000
00003002
00000000
00000103
00000010
00000100
00000000
00001000
00000000
00010000
00000000
00100000
00000000
,
20000000
00000000
01000000
00000000
30020000
00000000
00130000
01000000
00100000
00000000
00010000
00000000
00001000
00000000
00000100
00000000
,
00020100
00000000
00000000
00000000
00031000
00000000
01001000
00000000
00000000
00101000
00000000
00000000
00012000
00000000
01000000
00000000
,
01003000
00000000
00000000
00001000
00010000
00000000
00010200
00000000
00000000
00000000
00000000
00000000
00001300
00000000
00001010
00000000
,
00020010
00000000
00000000
00000000
00030100
00000000
00001100
00000000
00000000
00010100
00000000
00010000
00001000
00000000
01001000
00000000
,
01010000
00000000
10000000
01000000
00000000
01000000
00100000
00000000
00010000
10000000
00010000
10000000
00100000
01000000
00001000
00000000
,
00010000
00000000
00000100
00001000
00000100
00000000
00001000
00000000
00000010
00000000
00000100
00000000
00000001
00000000
00001000
00000000
00000100
00000000
00000000
00000000
00001100
00000000
00000000
00000000
00000000
00000000
00000011
00000000
00000000
00000000
00000000
00000000
,
00001000
00000000
00000001
00000100
00000001
00000000
00001000
00000000
00000010
00000000
00000001
00000000
00000010
00000000
00001000
00000000
00000100
00000000
00000000
00000000
00010000
00000000
00000000
00000000
00020100
00000000
00000000
00000000
00000000
00000000
00000000
00000000
,
00031000
00000000
00100000
00010000
00100000
00000000
00010000
00000000
01000000
00000000
00100000
00000000
10000000
00000000
00010000
00000000
00100000
00000000
00000000
00000000
00110000
00000000
00000000
00000000
00000000
00000000
11000000
00000000
00000000
00000000
00000000
00000000
,
00010000
00000000
10000000
00100000
10000000
00000000
00010000
00000000
01000000
00000000
10000000
00000000
01000000
00000000
00010000
00000000
00100000
00000000
00000000
00000000
00001000
00000000
00000000
00000000
00102000
00000000
00000000
00000000
00000000
00000000
00000000
00000000
,
00023000
00030000
00020000
00030000
00100000
00000000
00020000
00030000
00020000
00030000
00000010
00000000
00020000
00030000
00020000
00030000
02000000
00000000
00000000
00000000
03100000
00000000
00010000
00000000
00001000
00000000
00010000
00000000
00000000
00000000
00000000
00000000
,
00002000
00003000
00002000
00003000
00000010
00000000
00002000
00003000
00002000
00003000
00100000
00000000
00002000
00003000
00002000
00003000
00000200
00000000
00000000
00000000
00000310
00000000
00001000
00000000
00010000
00000000
00001000
00000000
00000000
00000000
00000000
00000000
,
00020000
00030000
00020000
00030000
00100000
00000000
00002000
00003000
00002000
00003000
00000010
00000000
00020000
00030000
00020000
00030000
02000000
00000000
00000000
00000000
03100000
00000000
00010000
00000000
00001000
00000000
00010000
00000000
00000000
00000000
00000000
00000000
,
00022000
00000000
00000000
00000000
00000000
00000000
00000000
00000000
00000000
00000000
00000000
00000000
00000000
00000000
00000000
00000000
00003000
00000000
00000000
00000000
00030200
00000300
00000200
00000300
00000200
00000300
00000200
00000300
00000000
00000000
00000000
00000000
,
00001001
00000001
00000100
00001000
00000100
00000010
00001000
00000100
00010000
00000000
00010100
00000000
00000000
00101000
00000000
00000000
,
00011000
00001000
00100000
00010000
01000000
00100000
10000000
00010000
00100000
00000000
00010000
01000000
10000000
01000000
00010000
00000000
,
10010000
10000000
00100000
00010000
00100000
01000000
00010000
00100000
00001000
00000000
00101000
00000000
00000000
00010100
00000000
00000000
,
00011000
00010000
00000100
00001000
00000010
00000100
00000001
00001000
00000100
00000000
00001000
00000010
00000001
00000010
00001000
00000000
,
00000100
00000000
00010000
00000000
00002000
00003000
00002000
00003000
00000010
00000000
00010000
00000000
00002000
00003000
00002000
00003000
00000100
00000000
00010000
00000000
00002000
00003000
00002000
00003000
00000010
00000000
00010000
00000000
00002000
00003000
00002000
00003000
,
00000100
00000000
00010000
00000000
00002000
00003000
00002000
00003000
00000010
00000000
00010000
00000000
00002000
00003000
00002000
00003000
00000100
00000000
00010000
00000000
00002000
00003000
00002000
00003000
00002000
00003000
00002000
00003000
00000100
00000000
00000000
00000000
,
00100000
00000000
00001000
00000000
00020000
00030000
00020000
00030000
01000000
00000000
00001000
00000000
00020000
00030000
00020000
00030000
00100000
00000000
00001000
00000000
00020000
00030000
00020000
00030000
01000000
00000000
00001000
00000000
00020000
00030000
00020000
00030000
,
00100000
00000000
00001000
00000000
00020000
00030000
00020000
00030000
01000000
00000000
00001000
00000000
00020000
00030000
00020000
00030000
00100000
00000000
00001000
00000000
00020000
00030000
00020000
00030000
00020000
00030000
00020000
00030000
00000000
00000000
00000000
00000000
,
00100000
00000000
00000010
00000000
00020000
00030000
00020000
00030000
00100000
00000000
00000010
00000000
00002000
00003000
00002000
00003000
00100000
00000000
00000010
00000000
00020000
00030000
00020000
00030000
00100000
00000000
00000010
00000000
00002000
00003000
00002000
00003000
,
01000000
00000000
00000100
00000000
00020000
00030000
00020000
00030000
01000000
00000000
00000100
00000000
00002000
00003000
00002000
00003000
01000000
00000000
00000100
00000000
00020000
00030000
00020000
00030000
00020000
00030000
00020000
00030000
00000000
00000000
00000000
00000000
,
00011000
00000000
00000000
00000000
;

//---------------dance-double - ----------------
#NOTEDATA:;
#CHARTNAME:;
#STEPSTYPE:dance-double;
#DESCRIPTION:;
#CHARTSTYLE:;
#DIFFICULTY:Hard;
#METER:11;
#RADARVALUES:0.473351,0.505443,0.177841,0.215281,0.458643,354.000000,335.000000,19.000000,23.000000,0.000000,0.000000,0.000000,0.000000,0.000000,0.473351,0.505443,0.177841,0.215281,0.458643,354.000000,335.000000,19.000000,23.000000,0.000000,0.000000,0.000000,0.000000,0.000000;
#CREDIT:Ben Speirs;
#NOTES:
// measure 0
00000000
00000000
00000000
00000000
,  // measure 1
00000000
00000000
00000000
00000000
,  // measure 2
00000002
00000023
00002030
00000000
,  // measure 3
00013000
00001000
00010000
00001000
00010000
00001000
00010000
00001000
00010000
00001000
00010000
00001000
00010000
00001000
00010000
00001000
,  // measure 4
00100000
00000000
00010000
00100000
00010000
00000000
10000000
00100000
10000000
00000000
00010000
00000000
01000000
00000000
00100000
00000000
,  // measure 5
00020000
00000000
00000000
00000000
00001000
00000000
00000000
00000000
00030010
00000000
00010000
00001000
00010000
00001000
00010000
00000000
,  // measure 6
00000100
00000000
00001000
00000100
00001000
00000000
00000001
00000100
00000001
00000000
00001000
00000000
00000010
00000000
00000100
00000000
,  // measure 7
00002000
00000000
00000000
00000000
00023000
00000000
00000000
00000000
00130000
00000000
10300000
00010000
10000000
00010000
00000000
00000000
,  // measure 8
10000000
00000000
00010000
01000000
00100000
00000000
00100000
10000000
01000000
00000000
01000000
00100000
00010000
00000000
00010000
01000000
,  // measure 9
00001000
00000000
00001000
00010000
00000100
00000000
00000100
00001000
00000010
00000000
00001000
00000001
00001000
00000001
00000000
00000000
,  // measure 10
00001000
00000000
00000001
00000010
00000100
00000000
00000100
00001000
00000010
00000000
00000010
00010000
00001000
00000000
00001000
00100000
,  // measure 11
00020000
01000000
20000000
30030000
,  // measure 12
10010000
00000000
10000000
00000000
01000000
00000000
00100000
01000000
00100000
00000000
00010000
00000000
01000000
00000000
00000000
00000000
,  // measure 13
00010000
00000000
01000000
00000000
00001000
00000000
00010000
00001000
00010000
00000000
00000100
00000000
00001000
00000000
00000000
00000000
,  // measure 14
00000001
00000002
00000103
00000010
00000020
00001030
00000100
00010000
,  // measure 15
00020000
00000000
00031000
00000000
00100000
00000000
00010000
10000000
00010000
00000000
02000000
00000000
00000000
00000000
00000000
00000000
,  // measure 16
03100000
10000000
00100000
01000000
00100000
00010000
00100000
01000000
,  // measure 17
00010000
00000000
00100000
00000000
00001000
00000000
00010000
00000100
00000010
00000000
00000010
00000000
00000001
00000000
00000000
00000000
,  // measure 18
00002001
00000000
00000000
00000000
00003010
00000000
00001010
00000000
00000000
00001010
00000000
00000000
00010000
00000000
00001000
00000000
,  // measure 19
00012000
00000000
00103000
00210000
00000000
00000000
00310000
10000000
,  // measure 20
10020000
00000000
00000000
00000000
01030000
00000000
01010000
00000000
00000000
01010000
00000000
00000000
00001000
00000000
00010000
00000000
,  // measure 21
00001000
00000000
00100000
00001000
00000000
00001000
00010000
00000000
00000010
00000100
00000010
00000000
00000200
00000000
00000000
00000000
,  // measure 22
00000301
00000010
00000100
00000000
00001000
00000000
00000001
00000100
00000010
00000000
00002000
00000000
00000000
00003200
00000000
00000000
,  // measure 23
00010300
00001000
00010000
00000000
00001000
00000000
00100000
00010000
00100000
00000000
00010000
00000000
01000000
00000000
00100000
00000000
,  // measure 24
10300000
01000000
00100000
00000000
00010000
00000000
10000000
00100000
01000000
00000000
00020000
00000000
00000000
00230000
00000000
00000000
,  // measure 25
00301000
00010000
00001000
00000000
00010000
00000000
00000100
00001000
00000100
00000000
00001000
00000000
00000010
00000000
00000100
00000000
,  // measure 26
00000001
00000100
00000000
00000001
00001000
00000000
00000001
00000010
00000100
00000000
00001000
00000100
00001000
00000100
00000000
00000000
,  // measure 27
00010000
00000100
00000000
00010000
00001000
00000000
00010000
00001000
00100000
00000000
00001000
00010000
00001000
00010000
00000000
00000000
,  // measure 28
00001000
01000000
00000000
00010000
01000000
00000000
00010000
00100000
01000000
00000000
10000000
00010000
10000000
00010000
00000000
00000000
,  // measure 29
02200000
00000000
00000000
00000000
00000000
00000000
00000000
00000000
33330000
00000000
10000000
00010000
10000000
00010000
00000000
00000000
,  // measure 30
01010000
00000000
01000000
00000000
00100000
00000000
10000000
01000000
00100000
00000000
00110000
00000000
00000000
00011000
00000000
00000000
,  // measure 31
00001100
00000000
00000100
00000000
00000010
00000000
00000001
00001000
00000010
00000000
00001000
00000001
00001000
00000001
00000000
00000000
,  // measure 32
00001010
00000000
00000010
00000000
00000100
00000000
00000001
00000010
00000100
00000000
00001100
00000000
00000000
00011000
00000000
00000000
,  // measure 33
00110000
00000000
00100000
00000000
01000000
00000000
10000000
00010000
01000000
00000000
00010000
10000000
00010000
10000000
00000000
00000000
,  // measure 34
00010000
00000000
01000000
01000000
00000000
00000000
00001000
00001000
00000000
00000000
00010000
00010000
00000000
00000000
00000010
00000010
,  // measure 35
00000000
00000000
00001000
00001000
00000000
00000000
00000100
00000100
00000000
00000000
00001000
00000001
00001000
00000001
00000000
00000000
,  // measure 36
00001000
00000000
00000010
00000010
00000000
00000000
00010000
00010000
00000000
00000000
00001000
00001000
00000000
00000000
00100000
00100000
,  // measure 37
00000000
00000000
00010000
00010000
00000000
00000000
10000000
10000000
00000000
00000000
00010000
10000000
00010000
10000000
00000000
00000000
,  // measure 38
00010000
00000000
10000000
00100000
01000000
00000000
01000000
00010000
00100000
00000000
00100000
00001000
00010000
00000000
00010000
00000100
,  // measure 39
00001000
00000000
00001000
00000100
00000010
00000000
00000010
00000001
00001000
00000000
00000001
00001000
00000001
00001000
00000000
00000000
,  // measure 40
00001001
00000000
00000000
00000000
;

//---------------dance-double - ----------------
#NOTEDATA:;
#CHARTNAME:;
#STEPSTYPE:dance-double;
#DESCRIPTION:;
#CHARTSTYLE:;
#DIFFICULTY:Medium;
#METER:7;
#RADARVALUES:0.311556,0.318242,0.084240,0.215281,0.159121,233.000000,224.000000,9.000000,23.000000,0.000000,0.000000,0.000000,0.000000,0.000000,0.311556,0.318242,0.084240,0.215281,0.159121,233.000000,224.000000,9.000000,23.000000,0.000000,0.000000,0.000000,0.000000,0.000000;
#CREDIT:Ben Speirs;
#NOTES:
00000000
00000000
00000000
00000000
,
00000000
00000000
00000000
00000000
,
00002000
00023000
00230000
00300000
,
20020000
00000000
00000000
30030000
,
10000000
01000000
00010000
01000000
10000000
00100000
00010000
00001000
,
00000200
00000000
00000000
00000000
00000000
00000010
00000310
00000000
,
00000100
00000001
00000010
00001000
00000010
00000100
00010000
00001000
,
00200000
02300000
20000000
33000000
,
00010000
00000000
10000000
01000000
00000000
00000000
10000000
01000000
00000000
00000000
00100000
00010000
00000000
00000000
00100000
00010000
,
00000000
00000000
01000000
00001000
00000000
00000000
01000000
00001000
00000000
00000000
00010000
00000000
00010000
00000000
00000000
00000000
,
00000100
00000000
00001000
00000100
00000000
00000000
00001000
00000100
00000000
00000000
00000010
00000001
00000000
00000000
00000010
00000000
,
00000002
00000203
00000320
00000000
,
00001030
00000001
00001000
00000000
00000001
00000010
00000100
00000000
,
00010000
00010000
00001000
00100000
00010000
00010000
01000000
00000000
,
00010000
02000000
00000000
03100000
20000000
00000000
30010000
00000000
,
10000000
02000000
00000000
03100000
00020000
00000000
01030000
00000000
,
00010000
01000000
00010000
01000000
00001000
00010000
00000100
00000000
,
00001000
00000100
00001000
00000100
00000010
00000001
00001000
00000000
,
00001001
00000000
00000000
00000000
00000000
00000000
00001000
00000000
00000000
00001000
00000000
00000000
00000010
00000000
00010000
00000000
,
00010000
00000000
00000000
00001000
00000000
00000000
00000000
00000000
,
00011000
00000000
00000000
00000000
00000000
00000000
00001000
00000000
00000000
00001000
00000000
00000000
00001000
00000000
00100000
00000000
,
00010000
01000000
01000000
10000000
01000000
01000000
00010000
00000000
,
10000000
00000000
01000000
00000000
00100000
00000000
00010000
00000000
01000000
00000000
01010000
00000000
00000000
01010000
00000000
00000000
,
01000000
00001000
00010000
00000100
00000020
00000000
00000030
00000000
,
00000001
00000000
00000010
00000000
00000001
00000000
00001000
00000000
00000010
00000000
00001010
00000000
00000000
00001010
00000000
00000000
,
00001000
00000100
00010000
00001000
00200000
00000000
00310000
00000000
,
10000000
00000000
00000000
10000000
00000000
00000000
00010000
00000000
02000000
00000000
00000000
00000000
03001000
00000000
00000000
00000000
,
00001000
00000000
00000000
00001000
00000000
00000000
00010000
00000000
00000200
00000000
00000000
00000000
00001300
00000000
00000000
00000000
,
00000001
00000000
00000000
00000001
00000000
00000000
00001000
00000000
00000020
00000000
00000000
00000000
00000130
00000000
00000000
00000000
,
00002002
00000000
00000000
00003003
,
00000001
00000100
00001000
00000100
00000010
00001000
00000100
00010000
,
00001000
00100000
00010000
01000000
00100000
10000000
00010000
00000000
,
10000000
01000000
00010000
01000000
10000000
00100000
01000000
00010000
,
00100000
00001000
00010000
00000100
00000010
00000001
00001000
00000000
,
00000000
00000000
00000001
00000100
00000000
00000000
00000001
00000100
00000000
00000000
00000010
00001000
00000000
00000000
00000010
00001000
,
00000000
00000000
00000100
00010000
00000000
00000000
00000100
00010000
00000000
00000000
00001000
00000000
00001000
00000000
00000000
00000000
,
00100000
00000000
00010000
00100000
00000000
00000000
00010000
00100000
00000000
00000000
01000000
10000000
00000000
00000000
01000000
10000000
,
00000000
00000000
00010000
01000000
00000000
00000000
00010000
01000000
00000000
00000000
00001000
00000000
00001000
00000000
00000000
00000000
,
00010000
00000000
00000100
00001000
00000000
00000000
00000100
00001000
00000000
00000000
00000001
00000010
00000000
00000000
00000001
00000010
,
00000000
00000000
00000001
00000100
00000000
00000000
00000001
00000100
00000000
00000000
00000010
00000000
00000010
00000000
00000000
00000000
,
00001001
00000000
00000000
00000000
;

//---------------dance-double - ----------------
#NOTEDATA:;
#CHARTNAME:;
#STEPSTYPE:dance-double;
#DESCRIPTION:;
#CHARTSTYLE:;
#DIFFICULTY:Easy;
#METER:4;
#RADARVALUES:0.161795,0.187201,0.046800,0.131041,0.000000,121.000000,116.000000,5.000000,14.000000,0.000000,0.000000,0.000000,0.000000,0.000000,0.161795,0.187201,0.046800,0.131041,0.000000,121.000000,116.000000,5.000000,14.000000,0.000000,0.000000,0.000000,0.000000,0.000000;
#CREDIT:Ben Speirs;
#NOTES:
00000000
00000000
00000000
00000000
,
00000000
00000000
00000000
00000000
,
00010000
00010000
00001000
00000000
,
00022000
00000000
00000000
00033000
,
00001000
00100000
00010000
10000000
,
00200000
00000000
00300000
00000000
,
10000000
00010000
00100000
00001000
,
00020000
00000000
00030000
00000000
,
00000000
00001000
00000000
00001000
00000000
00010000
00000000
00010000
,
00000000
00000100
00000000
00000100
00000000
00001000
00001000
00000000
,
00000000
00000100
00000000
00000100
00000000
00010000
00000000
00010000
,
00000000
00000000
00000000
00000000
,
00001000
01000000
00100000
00000000
,
10000000
01000000
00100000
00000000
,
00010000
10000000
00010000
00000000
,
00100000
00001000
00010000
00000000
,
00001000
00010000
00000010
00001000
,
00000100
00000010
00000001
00000000
,
00001001
00000000
00001000
00000100
,
00010000
00000000
00000000
00010000
00000000
00000000
00000000
00000000
,
00011000
00000000
00001000
01000000
,
00100000
00000000
00000000
00100000
00000000
00000000
00000000
00000000
,
20000000
31000000
00200000
00300000
,
00002000
00013000
00000200
00000300
,
00002000
00003010
00000200
00000300
,
00000002
00000013
00000200
00000300
,
00010000
00001000
00100000
00000000
,
00001000
00010000
00000010
00000000
,
00010000
00001000
01000000
00000000
,
00022000
00000000
00000000
00033000
,
00001000
00100000
01000000
10000000
,
00100000
01000000
00001000
00000000
,
00001000
00010000
00000100
00000010
,
00000001
00001000
00000010
00000000
,
00000000
00010000
00000000
00010000
00000000
00001000
00000000
00001000
,
00000000
00100000
00000000
00100000
00000000
00010000
00010000
00000000
,
00000000
10000000
00000000
10000000
00000000
00010000
00000000
00010000
,
00000000
01000000
00000000
01000000
00000000
00001000
00001000
00000000
,
00000000
00010000
00000000
00010000
00000000
00000100
00000000
00000100
,
00000000
00000010
00000000
00000010
00000000
00000001
00000001
00000000
,
00001001
00000000
00000000
00000000
;
