#TITLE:Cake;
#SUBTITLE:;
#ARTIST:Flo Rida & 99 Percent;
#TITLETRANSLIT:;
#SUBTITLETRANSLIT:;
#ARTISTTRANSLIT:;
#GENRE:;
#CREDIT:Braeden;
#MUSIC:Cake.ogg;
#BANNER:ban.png;
#BACKGROUND:bg.png;
#CDTITLE:;
#SAMPLESTART:0.000;
#SAMPLELENGTH:0.000;
#SELECTABLE:YES;
#OFFSET:-0.462;
#BPMS:0.000=105.000
,112.000=101.000
,113.000=105.000
,128.000=106.000
,132.000=105.000
;
#STOPS:;
#DISPLAYBPM:105.000;
#BGCHANGES:;
#FGCHANGES:;

//--------------- dance-single - ----------------
#NOTES:
     dance-single:
     :
     Beginner:
     2:
     0,0,0,0,0:
0000
0000
0000
0000
,
0000
0000
0000
0000
,
0000
0000
0001
0000
,
0000
0000
1000
0000
,
0000
0000
0001
0000
,
0100
0000
0010
0000
,
1000
0000
0001
0000
,
0100
0000
0010
0000
,
2000
0000
3000
0000
,
0002
0000
0003
0000
,
0000
0000
0100
0000
,
0001
0000
1000
0000
,
0000
1001
0000
0000
,
0001
0000
1000
0000
,
0000
0000
0001
0000
,
0100
0000
0010
0000
,
0000
0000
1000
0000
,
0100
0000
0010
0000
,
0000
0000
0001
0000
,
1000
0000
0000
0000
,
0000
1001
0000
0000
,
0001
0000
1000
0000
,
0010
0000
0100
0000
,
0001
0000
1000
0000
,
0001
0000
1000
0000
,
0100
0000
0010
0000
,
0001
0000
1000
0000
,
0001
0000
0000
0000
,
0000
1000
0000
0000
,
0000
0001
0000
0000
,
0000
1000
0000
0000
,
0000
1000
0000
0000
,
0000
0001
0000
0001
,
0000
0100
0000
0100
,
0000
0010
0000
1000
,
0000
0000
0000
0000
,
0000
1001
0000
0000
,
1000
0000
0000
0000
,
0001
0000
0000
0000
,
0100
0000
0000
0000
,
0010
0000
0000
0000
,
0100
0000
0000
0000
,
0010
0000
0000
0000
,
0100
0000
0000
0100
;

//--------------- dance-single - ----------------
#NOTES:
     dance-single:
     :
     Easy:
     4:
     0,0,0,0,0:
0000
0000
0000
0000
,
0000
0000
0000
0000
,
0000
0000
0001
0001
,
0000
0000
1000
1000
,
0001
1001
1000
0010
,
0100
0001
0010
0100
,
1000
0010
1000
0001
,
0100
0001
1000
0100
,
0020
0000
0031
1000
,
0020
0000
1030
0001
,
1000
0100
0010
0001
,
1000
0010
2000
3000
,
0001
1001
1000
0100
,
0010
0001
2000
0000
,
3010
0100
0001
0010
,
0100
1000
0002
0000
,
1003
0010
1000
0100
,
0010
0001
2000
0000
,
3001
0100
0001
1000
,
0100
0010
0000
0001
,
1001
1000
0010
0010
,
0100
0001
1000
1000
,
0100
0010
0001
0001
,
1000
0010
1000
0001
,
1001
1000
0010
0010
,
0100
0001
0010
0010
,
0100
1000
0001
0001
,
1000
0001
0000
1000
,
1001
0001
0010
0100
,
1000
0001
1000
0000
,
0000
0001
0010
0001
,
0010
0100
0010
0000
,
0000
0001
1000
0010
,
1000
0001
0100
0010
,
1000
0100
0010
0001
,
1000
0001
0000
1000
,
1001
1001
0001
0100
,
0010
1000
0002
0000
,
0103
0001
1000
0100
,
0010
0001
2000
0000
,
3001
0010
0001
1000
,
0010
0100
0002
0000
,
1003
0010
0100
0001
,
0010
0100
0000
0100
,
1000
0000
0000
0000
;

//--------------- dance-single - JA ----------------
#NOTES:
     dance-single:
     JA:
     Medium:
     9:
     0,0,0,0,0:
0000
0000
0000
0000
,
0000
0000
0000
0000
,
0000
0000
0000
1000
1000
0010
0100
0001
,
0000
0000
0000
0100
0100
0010
1000
0001
,
1000
0100
1000
0010
1000
0001
0010
0001
,
1000
0100
0010
0001
1000
0010
1000
0000
,
0001
0100
0001
0010
0001
1000
0010
0100
,
0001
0010
0100
1000
0001
0100
0001
1000
,
0100
0020
0000
0000
0031
0000
0100
0010
,
1000
0002
0000
0000
1003
0000
0001
0100
,
0010
1000
0010
0100
0001
0010
0100
1000
,
0001
0010
0001
1000
0020
0000
0030
0000
,
1000
0020
0000
0130
0001
0100
0010
0100
,
0001
0010
0100
1000
0001
2000
0000
3001
,
0100
0020
0000
1030
0100
0010
0001
0010
,
0100
1000
0001
0100
0001
0020
0000
0130
,
1000
0002
0000
0103
0010
0100
0001
0100
,
0010
1000
0100
0010
0001
2000
0000
3001
,
0010
0200
0000
0310
0001
1000
0010
0100
,
0001
1000
0100
0000
0000
0010
0001
0000
,
1001
0000
1000
0001
0001
0100
0100
0010
,
1000
0000
0001
0100
0100
0010
0010
1000
,
0100
0000
0010
0001
0001
1000
1000
0010
,
0100
0000
0001
0000
0010
0001
1000
0010
,
1000
0000
0001
1000
1000
0010
0010
0100
,
0001
0000
0010
0100
0100
1000
1000
0001
,
0100
0000
0010
1000
1000
0001
0001
1000
,
0100
0000
0010
0001
0001
1000
0010
0100
,
0001
0000
1000
1000
0100
0100
0010
0010
,
0001
0001
1000
1000
0010
0010
0000
0000
,
0000
0000
1000
1000
0001
0001
0010
0010
,
0100
0100
1000
1000
0001
0001
0000
0000
,
0000
0000
1000
1000
0100
0100
0010
0010
,
0001
0001
0100
0100
0010
0010
1000
0001
,
0010
0001
1000
1000
0100
0100
0010
0010
,
0001
0001
0000
0000
0000
1000
0001
0000
,
1000
0020
0000
1030
0100
0010
0001
0010
,
0100
0010
0001
1000
0010
0200
0000
0301
,
1000
0200
0000
1300
0100
0010
0001
1000
,
0010
0100
0001
0010
0100
2000
0000
3001
,
0100
0002
0000
1003
0100
0010
0100
1000
,
0001
0100
0010
1000
0001
0020
0000
0031
,
1000
0200
0000
0310
0001
1000
0010
0100
,
0001
0010
0100
0000
0000
0010
0001
0000
,
1001
0000
0000
0000
;

//--------------- dance-single - XO- ----------------
#NOTES:
     dance-single:
     XO-:
     Hard:
     12:
     0,0,0,0,0:
0000
0000
0000
0000
,
0000
0000
0000
0000
,
0000
0000
0000
0000
0000
0000
0001
1000
0001
0000
0001
0000
0100
0000
0100
0000
,
0010
0000
0000
0000
1000
0000
0001
1000
0001
0000
0001
0000
1000
0000
1000
0000
,
0001
0100
0101
0001
0100
0010
1000
0100
,
0110
0000
0010
0000
0001
0000
1000
0001
1000
0000
0010
0000
1000
0000
0000
0000
,
0101
0100
0010
0010
1000
0100
0010
0010
,
0001
0000
1000
0000
0010
0000
1000
0000
0001
0100
0001
0000
0100
0000
0001
0000
,
1000
0100
0002
0000
0000
0000
0103
0000
1000
0000
0000
0000
1000
0000
0001
0000
,
1000
0100
0002
0000
0000
0003
0100
0000
0010
0000
0001
0000
1000
0000
0001
0000
,
0100
0010
0100
0000
0001
0000
0010
0000
0100
0000
1000
0000
0001
0010
0001
0010
,
0100
1000
0001
0000
0100
0000
0010
0000
1000
0000
0001
0000
0010
0000
0001
0000
,
1001
0000
2000
0000
0000
0000
3001
0100
0010
0000
0010
0000
1000
0000
0001
0100
,
0001
0000
0100
0000
0010
0000
1000
0100
0010
0000
0002
0000
0000
0000
1003
0000
,
1001
0000
0001
0100
0001
0000
1000
0000
1000
0000
0010
0000
0010
0000
0100
0001
,
1000
0000
0001
0000
0100
0000
0010
1000
0010
0000
2000
0000
0000
0000
3001
0000
,
0101
0000
0200
0000
0000
0000
0310
1000
0001
0000
0001
0000
1000
0000
0100
0010
,
0001
0000
0100
0000
0010
0000
1000
0001
1000
0000
0002
0000
0000
0000
0103
0000
,
0110
0000
0010
1000
0010
0000
1000
0000
1000
0000
0001
0000
0001
0000
0100
0000
,
0100
0010
0010
0000
0000
1000
0001
1000
,
1001
0000
0000
0000
0001
0000
1000
0010
0100
0000
0100
0000
0001
0000
0001
1000
,
0001
0000
0010
0000
0100
0000
1000
0010
1000
0000
1000
0000
0001
0000
0001
0100
,
0001
0000
0100
0010
0100
0000
0010
1000
0001
0000
0001
0000
1000
0000
1000
0100
,
0010
0000
0001
0100
0001
0000
1000
0000
0001
1000
0010
1000
0001
0000
1000
0100
,
1000
0000
0000
0000
1001
0000
0001
0100
0010
0000
0010
0000
1000
0000
1000
0001
,
0010
0000
0001
0100
0001
0000
1000
0010
0100
0000
0100
0000
0001
0000
0001
1000
,
0001
0000
0100
0001
0100
0000
0010
1000
0001
0000
0001
0000
0010
0000
0010
0100
,
1000
0000
0001
1000
0001
0000
0100
0010
0100
0000
0001
0000
1000
0000
0010
0000
,
1000
0000
0001
0100
1000
0100
0001
0010
,
1000
0000
0010
0000
0001
0000
1000
0000
0100
0000
0010
0000
0000
0001
0000
0000
,
1000
0001
1000
0010
0001
0010
1000
0100
,
0001
0000
0100
0000
1000
0000
0010
0000
0100
0000
0001
0000
0000
1000
0000
0000
,
0001
0000
1000
0000
0001
0100
0001
0100
0010
1000
0010
1000
0001
0010
0100
1000
,
0001
0100
0001
0100
0010
1000
0010
1000
0001
1000
0001
0000
0000
0100
0000
0000
,
0010
0000
1000
0000
0001
0010
0001
0010
0100
1000
0100
1000
0001
0100
0001
0010
,
0100
1000
0001
1000
0001
0000
0000
0000
0000
0000
1000
0000
0010
0000
1000
0000
,
1001
0000
0001
0000
0101
0000
0100
0010
0100
0000
0001
0000
0100
0000
0010
1000
,
0010
0000
1000
0001
1000
0000
0001
0100
0001
0000
0020
0000
0000
0000
0130
1000
,
0100
0000
1000
0001
1000
0000
0001
0100
0010
0000
1000
0000
0010
0000
1000
0001
,
1000
0000
0001
0100
0001
0000
0100
0010
0100
0000
0020
0000
0000
0000
1030
0001
,
1000
0000
0001
0000
0100
0000
0010
1000
0001
0000
1000
0000
0010
0000
1000
0100
,
1000
0000
0100
0010
0100
0000
0010
0001
1000
0000
0020
0000
0000
0000
1030
0001
,
1000
0000
0001
0100
0010
0000
1000
0000
0001
0000
1000
0000
0100
0000
0010
0000
,
0001
0100
0010
0000
0000
0010
1000
0001
,
1000
0000
0000
0000
;

//--------------- dance-single - FS BU XO DS- ----------------
#NOTES:
     dance-single:
     FS BU XO DS-:
     Challenge:
     15:
     0,0,0,0,0:
0000
0000
0000
0000
,
0000
0000
0000
0000
,
0000
0000
0000
0000
0000
0000
0001
0001
0100
0000
0100
0000
0010
1000
0010
0000
,
1000
0000
0000
0000
0001
0000
1000
1000
0100
0000
0010
0000
0001
0000
0001
0000
,
1000
0001
0100
0001
2000
0000
0100
0000
3001
0100
0010
1000
0001
0010
0001
0000
,
1000
0001
0100
0000
0110
0000
0010
1000
0001
0000
0100
0000
0010
1000
0001
0000
,
1000
0100
0010
0001
2000
0000
0001
0000
3010
0100
0010
1000
0001
0010
0001
0000
,
1000
0100
1000
0001
0100
0000
0001
0100
0100
1000
0001
0000
1000
0100
0010
0001
,
0010
0000
0001
0000
2000
0000
0000
0000
0010
0000
0000
0000
3001
0000
0100
00M0
0100
0000
0000
0000
1000
0000
0000
0000
0001
0000
0010
0000
0100
0000
1000
0000
,
0001
0000
0100
0000
0002
0000
0000
0000
0010
0000
0000
0000
1003
0000
0010
0M00
0020
0000
0000
0000
0031
0000
0000
0000
1000
0000
0010
0000
0100
0000
0001
0000
,
1000
0000
0010
0000
1000
0000
0001
0100
0001
0000
0100
0000
0010
0000
1000
0000
0001
0000
0010
0000
0100
0000
1000
0000
0001
0000
0100
0000
0001
0000
0100
0000
,
0100
0000
1000
0000
0010
0000
0100
0000
0001
0000
0010
0000
0100
0000
1000
0000
0100
0000
0010
0000
0100
0000
0010
0000
0001
0000
1000
0000
0010
0000
1000
0001
,
2000
0000
0000
0000
3001
0000
0000
0000
1001
0000
0000
0000
1000
0000
0100
00M0
0100
0000
0000
0000
0101
0000
0000
0000
0001
0000
0000
0000
1000
0010
1000
0010
,
1000
0000
0000
0000
0001
0000
0100
0000
0010
0000
0000
0000
1000
0000
0010
0M00
0010
0000
0000
0000
0002
0000
0000
0000
0000
0000
1003
0000
0001
0000
1000
0000
,
0200
0000
0000
0000
0310
0001
0010
0001
0010
0000
0000
0000
0001
0000
0010
0M00
0010
0000
0000
0000
1010
0000
0000
0000
1000
0000
0000
0000
0001
0000
0100
0000
,
1000
0000
0000
0000
0100
0000
0010
0000
1000
0000
0000
0000
0001
0000
0010
0M00
0010
0000
0000
0000
2010
0000
0000
0000
0000
0000
0000
0000
3001
1000
0001
1000
,
0001
0000
0000
0000
2000
0000
0000
0000
0100
0000
0000
0000
3001
0000
0100
00M0
0100
0000
0000
0000
1100
0000
0000
0000
1000
0000
0000
0000
0001
1000
0001
1000
,
0001
0000
0010
0100
0010
0000
1000
0010
0001
0000
2000
0000
3000
0001
0100
0010
,
1000
0000
0000
0000
0001
1000
0001
1000
0001
0000
0000
0000
1000
0000
0100
00M0
0100
0000
0000
0000
0101
0000
0000
0000
0001
0000
0010
0000
0100
0000
1000
0000
,
0001
0000
0100
0010
0100
0000
0000
0000
0000
0001
1000
0010
1000
0000
0001
0010
,
0022
0000
0000
0000
0033
0000
0000
0000
1001
0000
0000
0000
1000
0000
0010
0M00
0010
0000
0000
0000
0011
0000
0000
0000
0001
0000
0000
0000
1000
0100
1000
0100
,
1000
0000
0000
0000
0001
0000
0100
0000
0010
0000
0000
0000
1000
0000
0010
0M00
0010
0000
0000
0000
0011
0000
0000
0000
0001
0000
0000
0000
1000
0000
0001
0000
,
1001
0000
0000
0000
1000
0010
1000
0010
1000
0000
0000
0000
0010
0000
0100
000M
0100
0000
0000
0000
1100
0000
0000
0000
1000
0000
0000
0000
0001
0000
0100
0000
,
1000
0000
0100
0001
1000
0000
0001
0010
0001
1000
0100
0010
0001
0000
1000
0010
,
1000
0000
0000
0000
0001
0000
0000
0000
0100
0000
0000
0000
0001
0000
0010
0M00
0010
0000
0000
0000
1010
0000
0000
0000
1000
0000
0000
0000
0001
1000
0001
1000
,
0001
0000
0000
0000
0010
0000
0100
0000
0010
0000
0000
0000
0001
0000
0010
0M00
0010
0000
0000
0000
1010
0000
0000
0000
1000
0000
0000
0000
0001
0000
0100
0000
,
0010
0000
0000
0000
1000
0001
1000
0001
1000
0000
0000
0000
0001
0000
0010
0M00
0010
0000
0000
0000
1010
0000
0000
0000
1000
0000
0000
0000
0001
0000
0100
0000
,
0010
0000
0000
0000
1000
0000
0001
0000
1000
0000
0000
0000
0100
00M0
0100
0000
0001
0000
0010
0000
0100
0000
1000
0000
0001
0000
0000
0000
1000
0000
0010
0000
,
1000
0000
0001
0100
1000
0100
0001
0010
,
1000
0000
0010
0000
0001
0000
0100
0000
1000
0000
0100
0000
0000
1000
0000
0000
,
0001
0000
1000
0001
1000
0000
0100
0000
0001
0000
0100
0000
1000
0000
0010
0000
,
0001
0000
0010
0000
1000
0000
0100
0000
0001
0000
0100
0000
0000
1000
0000
0000
,
0001
0000
1000
0001
1000
0100
0010
0100
0001
0100
0010
0001
1000
0010
0100
0010
,
0001
0000
0010
0000
1000
0000
0001
0000
1000
0000
0100
0000
0010
0000
0001
1000
0001
0000
0100
0000
0010
0000
1000
0000
0010
0000
0100
0000
0001
0000
0100
0000
,
0001
0010
0100
1000
0001
0010
0100
0010
1000
0010
0001
1000
0001
0100
0010
0100
,
1000
0100
0001
1000
0000
0000
0000
0000
0000
0001
0100
0010
1000
0000
0001
1000
,
1001
0000
0000
0000
1000
0000
0000
0000
1010
0000
0000
0000
0010
0M00
0010
0000
0001
0000
0000
0000
1001
0000
0000
0000
2000
0000
0000
0000
3001
0100
0001
0100
,
0001
0000
0000
0000
0100
0000
0010
0000
1000
0000
0000
0000
0001
0000
0100
00M0
0100
0000
0000
0000
2100
0000
0000
0000
0000
0000
0000
0000
3001
0000
0010
0000
,
0001
0000
0000
0000
1000
0100
1000
0100
1000
0000
0000
0000
0100
0000
0010
000M
0010
0000
0000
0000
1010
0000
0000
0000
1000
0000
0000
0000
0001
0000
0100
0000
,
1000
0000
0000
0000
0100
0000
0001
0000
1000
0000
0000
0000
0001
0000
0100
00M0
0100
0000
0000
0000
2100
0000
0000
0000
0000
0000
0000
0000
3010
0100
0010
0100
,
0010
0000
0000
0000
0100
0000
0001
0000
2000
0000
0000
0000
3010
0000
0100
00M0
0100
0000
0000
0000
2100
0000
0000
0000
3002
0000
0000
0000
1003
0001
1000
0001
,
1000
0000
0000
0000
0010
0000
1000
0000
0001
0000
0000
0000
0010
0000
0100
M000
0100
0000
0000
0000
0102
0000
0000
0000
0000
0000
0000
0000
1003
0000
0100
0000
,
1000
0000
0000
0000
0010
1000
0010
1000
0020
0000
0000
0000
0130
0000
0010
000M
0010
0000
0000
0000
0012
0000
0000
0000
1003
0000
0100
0000
1000
0000
0001
0000
,
1000
0000
0001
0100
0001
0000
0000
0000
0000
1000
0100
0010
0001
0000
1000
0001
,
1000
0000
0000
0000
;

//--------------- dance-double - ----------------
#NOTES:
     dance-double:
     :
     Challenge:
     14:
     0,0,0,0,0:
00000000
00000000
00000000
00000000
,
00000000
00000000
00000000
00000000
,
00000000
00000000
00000000
00000000
00000000
00000000
00001000
00010000
00001000
00000000
00100000
00000000
00010000
00000000
10000000
00000000
,
00010000
00000000
00000000
00000000
01000000
00000000
00001000
00010000
00001000
00000000
00010000
00000000
00000100
00000000
00001000
00000000
,
00000001
00000100
00000010
00000100
00001000
00000000
00000100
00000000
00000010
00010000
00001000
00010000
00000100
00010000
00001000
00000000
,
01000000
00100000
01000000
00000000
10000000
00000000
01000000
00010000
01000000
00000000
00100000
00000000
10000000
00000000
00010000
00000000
,
10000000
00010000
00100000
01000000
00010000
00000000
01000000
00000000
10000000
00100000
01000000
00010000
01000000
00000000
00001000
00000000
,
00010000
00001000
00010000
00000100
00001000
00000000
00000001
00000010
00000100
00001000
00000100
00000000
00010000
00000000
00001000
00010000
,
00001000
00010000
00100000
00000000
00010000
00000000
00001000
00100000
00001000
00000000
00010000
00000000
00001000
00010000
00001000
00000100
,
00001000
00000000
00020000
00000000
00030100
00000000
00001000
00000001
00001000
00000000
00000100
00000000
00000010
00000001
00000010
00001000
,
00000010
00000001
00001000
00000000
00000001
00000010
00000100
00001000
00000100
00010000
00001000
00010000
00001000
00100000
00010000
01000000
,
00010000
00100000
01000000
10000000
00010000
01000000
00100000
10000000
00010000
00100000
01000000
00100000
00010000
00100000
00001000
00010000
,
00001000
00000000
00000000
00000000
00010000
00000000
00000000
00000000
00001100
00000000
00000000
00000000
00000100
0000M000
00000100
00000000
00000001
00000000
00000000
00000000
00000011
00000000
00000000
00000000
00000010
00000000
00000000
00000000
00000100
00000000
00010000
00000000
,
00000100
00000000
00010000
00001000
01000000
00000000
00010000
10000000
10010000
00000000
00020000
00000000
00000000
00000000
01030000
10000000
,
01000000
00000000
00000000
00000000
00010000
00000000
00100000
00000000
00001000
00000000
00000000
00000000
00010000
0000M000
00010000
00000000
00100000
00000000
00000000
00000000
01100000
00000000
00000000
00000000
01000000
00000000
00000000
00000000
10000000
00000000
01000000
00000000
,
00010000
00000000
01000000
00100000
01000000
00000000
10000000
00010000
01010000
00000000
02000000
00000000
00000000
00000000
00001000
03010000
,
00001000
00000000
00000000
00000000
00020000
00000000
00000000
00000000
00030100
00000000
00000000
00000000
00000100
0000M000
00000100
00000000
00000001
00000000
00000000
00000000
00000101
00000000
00000000
00000000
00000100
00000000
00000000
00000000
00000010
00000000
00000100
00000000
,
00001000
00000000
00000100
00000010
00001000
00000000
00000100
00010000
00010100
00000000
00000200
00000000
01000300
00100000
01000000
00100000
,
10000000
00000000
00000000
00000000
00010000
00000000
00100000
00000000
00001000
00000000
00000000
00000000
00010000
00M00000
00010000
00000000
01000000
00000000
00000000
00000000
11000000
00000000
00000000
00000000
10000000
00000000
00100000
00000000
01000000
00000000
00001000
00000000
,
00010000
00000000
00000010
00000100
00000001
00000000
00000000
00000000
00000000
00000010
00000100
00000001
00001000
00000000
00000100
00010000
,
00010100
00000000
00000000
00000000
00101000
00000000
00001000
00001000
00100000
00000000
00110000
00000000
00010000
00000000
10000000
01000000
,
00100000
00000000
00010000
01000000
00010000
00000000
10000000
10000000
01000000
00000000
00100000
00000000
00010000
00000000
00001000
00000100
,
00000010
00000000
00000100
00001000
00000010
00000000
00001000
00001000
00000001
00000000
00000100
00000000
00001000
00000000
00010000
00001000
,
00010000
00000000
00001000
01000000
00100000
00000000
10000000
00000000
00010000
00100000
00010000
01000000
00010000
00000000
10000000
00100000
,
01000000
00000000
00001000
00000000
00011000
00000000
00010000
00010000
00000100
00000000
00001100
00000000
00001000
00000000
00000100
00000010
,
00000001
00000000
00000100
00000010
00010000
00000000
00001000
00001000
00100000
00000000
00101000
00000000
00001000
00000000
00100000
00010000
,
10000000
00000000
00010000
00100000
01000000
00000000
10000000
10000000
01000000
00000000
01100000
00000000
00100000
00000000
00010000
00100000
,
00001000
00000000
00010000
00001000
00010000
00000000
00000000
00001000
00000000
00010000
00001000
00010000
00000100
00000000
00001000
00000001
,
00001000
00000000
00000001
00000100
00001000
00010000
00100000
10000000
,
01000000
00000000
00010000
00000000
00001000
00000000
00000010
00000000
00000001
00000000
00001000
00000000
00000000
00000010
00000000
00000000
,
00001000
00000000
00000001
00000100
00001000
00010000
00001000
00100000
,
00010000
00000000
00001000
00000000
00010000
00000000
00100000
00000000
00010000
00000000
10000000
00000000
00000000
00010000
00000000
00000000
,
00100000
00000000
00001000
00000000
10000000
01000000
00100000
00010000
01000000
00010000
01000000
00001000
00010000
00000100
00001000
00000100
,
00001000
00000001
00000010
00000100
00001000
00000010
00000100
00000001
00001000
00000100
00000010
00000100
00001000
00000100
00010000
00001000
,
00010000
00000100
00010000
00001000
00100000
00010000
00100000
01000000
10000000
00100000
01000000
00010000
10000000
01000000
00100000
00010000
,
00100000
00001000
00100000
00000100
00001000
00000000
00000000
00000000
00000000
00000001
00000100
00000010
00001000
00000000
00000001
00000000
,
00001001
00000000
00000000
00000000
00000001
00000000
00000000
00000000
00000101
00000000
00000000
00000000
00000100
0000000M
00000100
00000000
00001000
00000000
00000000
00000000
00011000
00000000
00000000
00000000
00010000
00000000
00000000
00000000
00001000
00000000
01000000
00000000
,
00100000
00000000
10000000
01000000
00100000
00000000
00010000
01000000
01010000
00000000
00020000
00000000
00000000
00000000
01030000
00001000
,
00010000
00000000
00000000
00000000
00000100
00000000
00010000
00000000
00001000
00000000
00000000
00000000
00010000
0M000000
00010000
00000000
00100000
00000000
00000000
00000000
01100000
00000000
00000000
00000000
01000000
00000000
00000000
00000000
10000000
00000000
00010000
00000000
,
01000000
00000000
00001000
00010000
00001000
00000000
00010000
00000100
00001100
00000000
00002000
00000000
00000000
00000000
00003010
00010000
,
00000100
00000000
00000000
00000000
00001000
00000000
00000001
00000000
00001000
00000000
00000000
00000000
00001000
00000000
00000100
000000M0
00000100
00000000
00000000
00000000
00000101
00000000
00000000
00000000
00000001
00000000
00000000
00000000
00010000
00000000
00001000
00000000
,
00010000
00000000
00001000
00100000
00010000
00000000
10000000
00100000
10100000
00000000
20000000
00000000
00000000
00000000
30001000
00010000
,
00001000
00000000
00010000
00001000
00010000
00000000
00001000
00010000
00000100
00000000
00001100
00000000
00001000
00000000
00000001
00000100
,
00000010
00000000
00010000
00001000
00010000
00000000
00000000
00000000
00000000
00001000
00010000
00001000
00100000
00000000
00001000
00010000
,
00000001
00000000
00000000
00000000
;
