#VERSION:0.83;
#TITLE:COTTON-EYE JOE;
#SUBTITLE:;
#ARTIST:REDNEX;
#TITLETRANSLIT:;
#SUBTITLETRANSLIT:;
#ARTISTTRANSLIT:;
#GENRE:;
#ORIGIN:;
#CREDIT:;
#BANNER:COTTON-EYE JOE.png;
#BACKGROUND:COTTON-EYE JOE-bg.png;
#PREVIEWVID:;
#JACKET:COTTON-EYE JOE-jacket.png;
#CDIMAGE:;
#DISCIMAGE:;
#LYRICSPATH:;
#CDTITLE:;
#MUSIC:COTTON-EYE JOE.mp3;
#OFFSET:-0.049000;
#SAMPLESTART:23.620001;
#SAMPLELENGTH:15.000000;
#SELECTABLE:YES;
#DISPLAYBPM:132.000000;
#BPMS:0.000=132.000,
139.000=130.000,
140.000=132.000,
158.000=131.900,
185.000=131.950,
195.000=129.950,
196.000=133.000,
199.000=132.000,
208.000=136.000,
209.000=138.000,
210.000=128.000;
#STOPS:;
#DELAYS:;
#WARPS:;
#TIMESIGNATURES:0.000=4=4;
#TICKCOUNTS:0.000=4;
#COMBOS:0.000=1;
#SPEEDS:0.000=1.000=0.000=0;
#SCROLLS:0.000=1.000;
#FAKES:;
#LABELS:0.000=Song Start;
#BGCHANGES:;
#KEYSOUNDS:;
#ATTACKS:
;

//---------------dance-single - Highflyer----------------
#NOTEDATA:;
#CHARTNAME:Highflyer;
#STEPSTYPE:dance-single;
#DESCRIPTION:Highflyer;
#CHARTSTYLE:;
#DIFFICULTY:Medium;
#METER:10;
#RADARVALUES:0.428839,0.457340,0.010176,0.254396,0.178077,295.000000,294.000000,1.000000,25.000000,0.000000,0.000000,1.000000,0.000000,0.000000,0.428839,0.457340,0.010176,0.254396,0.178077,295.000000,294.000000,1.000000,25.000000,0.000000,0.000000,1.000000,0.000000,0.000000;
#CREDIT:Highflyer;
#DISPLAYBPM:132.000000;
#NOTES:
0000
0000
0000
0000
,
0000
0000
0000
0000
,
0000
0000
0000
0000
,
0000
0000
0000
0000
,
0000
0000
0000
0000
,
1000
0000
0000
0000
0010
0000
0000
0100
0000
0000
0001
0000
0010
0000
0000
0000
,
0100
1000
0010
0100
0001
0010
0100
0000
,
0010
0000
0000
0001
1000
0000
1000
0000
0010
0000
0000
0100
0002
0000
0003
0000
,
1000
0000
0000
0100
0010
0000
0010
0000
0001
0000
1000
0000
0010
0000
0000
0000
,
0200
0000
0000
0310
2000
0000
0000
3001
0010
0000
0100
0000
2000
0000
0000
3001
,
0100
0010
0100
0001
1000
0100
0010
0010
,
0002
0000
0000
1003
0020
0000
0000
0130
0001
0000
0010
0000
0002
0000
0000
1003
,
0010
0100
0010
1000
0001
0010
0100
0100
,
1000
0001
0000
0000
0100
0000
0000
0010
0000
0000
0100
0000
0002
0000
0003
0000
,
1000
0100
0010
0010
0100
1000
0001
0000
,
1000
0000
0000
0010
0100
0000
0100
0000
0001
0000
0000
1000
0100
0000
0000
0000
,
0010
0000
0000
0100
1000
0000
1000
0000
0001
0000
0100
0000
0010
0000
0000
0000
,
0100
0010
0000
0000
1000
0000
0000
0001
0000
0000
0010
0000
0100
0000
0000
0000
,
0010
0001
1000
1000
0010
0100
0010
0000
,
1000
0000
0000
0001
0010
0000
0010
0000
0001
0000
0000
0100
0010
0000
0000
0000
,
0100
0000
0000
0010
1000
0000
1000
0000
0100
0000
0010
0000
0001
0000
0000
0000
,
2000
0010
0000
0001
0000
0010
0000
0001
,
0000
0010
0000
0001
0000
3200
0000
0310
,
0002
1000
0000
0100
0000
1000
0000
0010
,
0000
1000
0000
0100
0000
0023
0000
0030
,
0200
0000
0310
0001
2000
0000
3010
0100
,
0010
1000
0000
0002
0000
0003
0010
0100
,
4000
0000
3010
0100
0010
0000
0000
0100
,
0001
0000
1000
0000
0200
0000
0310
0001
,
0010
0010
0010
0100
,
1000
0001
0000
0200
0000
0300
0010
1000
,
0001
0010
0100
0010
,
0001
1000
0001
0000
0010
0000
1001
0000
,
0001
1000
0000
0000
0100
0000
0000
0010
0000
0000
0100
0000
2000
0000
3000
0000
,
0001
0100
0010
0010
0100
0001
1000
0000
,
0001
0000
0000
0010
0100
0000
0100
0000
1000
0000
0000
0001
0100
0000
0000
0000
,
0010
0000
0000
0100
0001
0000
0001
0000
1000
0000
0100
0000
0010
0000
0000
0000
,
0100
0010
0000
0000
0001
0000
0000
1000
0000
0000
0010
0000
0100
0000
0000
0000
,
0010
1000
0001
0001
0010
0100
0010
0000
,
0001
0000
0000
1000
0010
0000
0010
0000
1000
0000
0000
0100
0010
0000
0000
0000
,
0100
0000
0000
0010
0001
0000
0001
0000
0100
0000
0010
0000
1000
0000
0000
0000
,
0002
0010
0000
1000
0000
0010
0000
1000
,
0000
0010
0000
1000
0000
0203
0000
0310
,
2000
0001
0000
0100
0000
0001
0000
0010
,
0000
0001
0000
0100
0000
3020
0000
0030
,
0100
0001
1000
0001
0010
0100
1000
0001
,
1000
0100
0010
0001
1000
0002
0000
0003
,
0010
0001
1000
0001
0100
0010
1000
0001
,
1000
0010
0100
0001
1000
0200
0000
0000
,
0310
0001
0000
0000
1000
0000
0000
0010
0000
0000
0100
0000
0010
0000
0000
0000
,
1000
0001
0010
0100
0010
0010
0001
0000
,
1000
0000
0000
0010
0100
0000
0100
0000
0001
0000
0000
0010
0100
0000
0000
0000
,
0010
0000
0000
0001
1000
0000
0010
0000
0100
0000
0100
0000
0002
0000
0003
0000
;

//---------------dance-single - FS DS----------------
#NOTEDATA:;
#CHARTNAME:FS DS;
#STEPSTYPE:dance-single;
#DESCRIPTION:FS DS;
#CHARTSTYLE:;
#DIFFICULTY:Hard;
#METER:13;
#RADARVALUES:0.616365,0.618023,0.020352,0.488440,0.493528,424.000000,422.000000,2.000000,48.000000,18.000000,0.000000,1.000000,0.000000,0.000000,0.616365,0.618023,0.020352,0.488440,0.493528,424.000000,422.000000,2.000000,48.000000,18.000000,0.000000,1.000000,0.000000,0.000000;
#CREDIT:Highflyer;
#DISPLAYBPM:132.000000;
#NOTES:
// measure 0
0000
0000
0000
0000
,  // measure 1
0000
0000
0000
0000
,  // measure 2
0000
0000
0000
0000
,  // measure 3
0000
0000
0000
0000
,  // measure 4
0000
0000
0000
0000
,  // measure 5
1000
0100
0000
1000
0001
0000
1000
0010
0000
0100
0001
0000
0010
0000
0100
0000
,  // measure 6
0010
0000
0001
0000
0100
0000
0010
1000
0010
0000
1000
0100
1000
0000
0001
0000
,  // measure 7
1000
0010
0M00
0010
0001
0000
1000
0000
0001
0010
0M00
0010
1000
0000
0001
0000
,  // measure 8
1000
0010
0M00
0010
0001
0000
1000
0000
0100
0010
0100
0000
0010
0000
0000
0000
,  // measure 9
0002
0100
1003
0000
2000
0100
3001
0000
,  // measure 10
2000
0100
3002
0100
2003
0100
3002
0100
,  // measure 11
2003
0010
3001
0000
0002
0010
1003
0000
,  // measure 12
2000
0010
3002
0010
2003
0010
3001
0000
,  // measure 13
1000
0100
0000
1000
0001
0000
1000
0010
0000
0100
0001
0000
0010
0000
0100
0000
,  // measure 14
0010
0000
0001
0000
1000
0000
0010
0100
0010
0000
1000
0001
1000
0000
0010
0000
,  // measure 15
1000
0100
00M0
0100
0001
0000
1000
0000
0001
0100
00M0
0100
2000
0000
3000
0000
,  // measure 16
0001
0100
00M0
0100
1000
0000
0010
0000
0100
0001
0100
0000
0010
0000
0100
0000
,  // measure 17
0001
0100
0000
0001
1000
0000
0001
0010
0000
0100
1000
0000
0010
0000
0100
0000
,  // measure 18
0010
0000
1000
0000
0001
0000
0010
0100
0010
0000
0001
1000
0001
0000
0010
0000
,  // measure 19
0001
0100
00M0
0100
1000
0000
0001
0000
1000
0100
00M0
0100
0002
0000
1003
0000
,  // measure 20
0001
0100
00M0
0100
1000
0000
0010
0000
0100
0001
0100
0000
0010
0000
0100
0000
,  // measure 21
0002
0000
0010
0000
1003
0000
0010
0100
0002
0000
0010
0000
1003
0000
0010
0100
,  // measure 22
0002
0100
2003
0100
3002
0010
1003
0010
,  // measure 23
2000
0000
0010
0000
3001
0000
0010
0100
2000
0000
0010
0000
3001
0000
0010
0100
,  // measure 24
2000
0100
3002
0100
2003
0010
3001
0010
,  // measure 25
0200
0000
0310
0001
0200
0000
0310
1000
,  // measure 26
0001
0010
0000
2002
0000
3003
1000
0010
,  // measure 27
4000
0000
3001
0010
0100
0000
0010
0001
,  // measure 28
0100
0100
0020
0000
2030
0000
3001
0010
,  // measure 29
0100
0000
0100
0000
0100
0000
0010
0001
,  // measure 30
1000
0010
0100
0020
0000
0030
1000
0001
,  // measure 31
0010
0001
1000
0010
0100
0010
1000
0000
,  // measure 32
0001
1000
0100
0000
0010
0000
1001
0000
,  // measure 33
1000
0010
0000
1000
0100
0000
0010
0001
0000
0100
0001
0000
1000
0000
0001
0000
,  // measure 34
0010
0000
0100
0000
0010
0000
0001
0100
0001
0000
1000
0100
1000
0000
0010
0000
,  // measure 35
1000
0010
0M00
0010
0001
0000
1000
0000
0001
0100
00M0
0100
1000
0000
0010
0000
,  // measure 36
1000
0100
00M0
0100
0001
0000
0010
0000
0100
0010
0100
0000
1000
0000
0001
0000
,  // measure 37
1000
0100
0000
0010
0001
0000
1000
0010
0000
0100
0001
0000
0010
0000
0100
0000
,  // measure 38
0010
0000
0001
0000
1000
0000
0010
0100
0010
0000
1000
0001
1000
0000
0100
0000
,  // measure 39
1000
0010
0M00
0010
0100
0000
1000
0000
0001
0010
0M00
0010
0200
0000
0300
0000
,  // measure 40
0100
0010
0M00
0010
0001
0000
1000
0000
0100
0010
0100
0000
1000
0000
0010
0000
,  // measure 41
2000
0000
0100
0000
3001
0000
0100
0010
2000
0000
0100
0000
3001
0000
0100
0010
,  // measure 42
2000
0010
3002
0010
2003
0100
3001
0100
,  // measure 43
0002
0000
0100
0000
1003
0000
0100
0010
0002
0000
0100
0000
1003
0000
0100
0010
,  // measure 44
0002
0010
2003
0010
3002
0100
1003
0100
,  // measure 45
0010
0001
2000
0000
0100
0000
3001
0000
0100
0010
1000
0000
0010
0100
0001
0000
,  // measure 46
1000
0100
0020
0000
0100
0000
0031
0000
1000
0010
0200
0000
0000
0000
0310
0000
,  // measure 47
1000
0001
0020
0000
0100
0000
0031
0000
1000
0010
0200
0000
0010
0000
0301
0000
,  // measure 48
1000
0001
0010
0000
0100
1000
0001
0000
1000
0000
0010
0000
0100
0001
0100
0001
,  // measure 49
1000
0100
0000
1000
0001
0000
1000
0010
0000
1000
0001
0000
0020
0000
0030
0000
,  // measure 50
0100
0000
0010
0000
0001
0000
1000
0010
1000
0000
0001
1000
0001
0000
0010
0000
,  // measure 51
0001
0100
00M0
0100
1000
0000
0001
0000
1000
0100
00M0
0100
0001
0000
1000
0000
,  // measure 52
0001
0010
0M00
0010
1000
0000
0001
0000
0010
0100
0010
0000
0002
0003
0000
0000
;

//---------------dance-single - FS DS STR-----------------
#NOTEDATA:;
#CHARTNAME:I sing, I dance, I mosh - I am multi-faceted;
#STEPSTYPE:dance-single;
#DESCRIPTION:FS DS STR-;
#CHARTSTYLE:;
#DIFFICULTY:Challenge;
#METER:15;
#RADARVALUES:0.790808,0.889877,0.000000,0.427385,1.088815,544.000000,544.000000,0.000000,42.000000,22.000000,0.000000,1.000000,0.000000,0.000000,0.790808,0.889877,0.000000,0.427385,1.088815,544.000000,544.000000,0.000000,42.000000,22.000000,0.000000,1.000000,0.000000,0.000000;
#CREDIT:Highflyer;
#DISPLAYBPM:132.000000;
#NOTES:
0000
0000
0000
0000
,
0000
0000
0000
0000
,
0000
0000
0000
0000
,
0000
0000
0000
0000
,
0000
0000
0000
0000
,
2000
0100
0000
3002
0100
0000
2003
0100
0000
3002
0100
0000
1003
0000
0001
0000
,
0010
0000
0100
0000
1000
0000
0010
0100
0001
0000
1000
0100
0010
0000
0001
0000
,
1000
0100
00M0
0100
0001
0000
1000
0000
0001
0100
00M0
0100
1000
0000
0000
0000
,
0001
0010
0M00
0010
1000
0000
0001
0000
0010
0100
0010
0000
0001
0000
0000
0000
,
1000
0010
0000
1000
0001
0000
0010
0100
1000
0001
0100
0000
0020
0000
0000
0130
,
0001
1000
0001
0100
0010
0100
0001
1000
0010
0100
0001
0010
0100
0000
0100
0000
,
0010
0001
0000
1000
0001
0000
1000
0010
0100
0001
1000
0000
0200
0000
0300
0010
,
0001
1000
0001
0010
0100
1000
0001
1000
0100
0010
0001
1000
0010
0100
0001
1000
,
0002
0100
0000
2003
0100
0000
3002
0100
0000
2003
0100
0000
3001
0000
0100
0000
,
0010
0000
1000
0000
0001
0000
0001
0010
0100
0000
0010
0001
1000
0000
0010
0000
,
1000
0100
00M0
0100
0001
0000
0010
0000
0001
0100
00M0
0100
1000
0000
0001
0000
,
1000
0100
00M0
0100
0001
0000
0010
0000
0001
0100
0001
0000
1000
0010
1000
0010
,
2000
0100
0000
3002
0100
0000
2003
0010
0000
3002
0010
0000
1003
0000
0100
0000
,
0010
0000
0100
0000
1000
0000
1000
0010
0100
0000
0010
1000
0001
0000
0100
0000
,
0001
0010
0M00
0010
0100
0000
0001
0000
0100
0010
0M00
0010
0001
0000
1000
0001
,
1000
0100
00M0
0100
0010
1000
0001
0000
0010
0100
1000
0000
0001
0100
0001
1000
,
0100
0010
0100
1000
0002
0000
0103
0010
0100
0001
1000
0100
0020
0000
0000
0130
,
1000
0001
1000
0010
0100
0010
1000
0001
0010
0001
1000
0010
0100
0001
1000
0100
,
0010
0001
1000
0010
0200
0000
0310
1000
0001
0010
0100
1000
0002
0010
0000
1003
,
0010
0100
0010
1000
0001
1000
0100
1000
0001
0010
0001
0100
0010
1000
0001
0010
,
0200
0000
1300
0001
0200
0000
0310
1000
,
0001
0010
0100
2000
0010
0000
3001
0010
,
0400
0000
0310
0001
0200
0000
0310
0100
,
0001
0000
1000
0000
0100
0010
0100
0010
0001
0000
0001
0000
1000
0010
1000
0010
,
0100
0000
0100
0010
0100
0000
0010
0100
,
0001
0000
1000
0000
0100
0000
0020
0000
0100
0000
0000
0000
0031
0000
1000
0010
,
1000
0001
0010
0001
1000
0010
0100
0000
,
0010
1000
0002
0000
1003
0000
MMMM
0000
,
2000
0010
0000
3002
0100
0000
2003
0100
0000
3002
0010
0000
1003
0000
0010
0100
,
0001
0000
1000
0001
0010
0000
0001
1000
0010
0000
0100
0001
1000
0000
0100
0000
,
1000
0010
0M00
0010
0001
0000
0100
0000
0001
0010
0M00
0010
1000
0000
0001
0000
,
1000
0010
0M00
0010
0001
1000
0001
0000
0100
0010
1000
0000
0001
0010
0001
0010
,
0200
1000
0000
0320
0100
0000
0032
0100
0000
2003
0010
0000
3001
0000
1000
0010
,
1000
0000
0001
0010
0100
0000
0010
0001
1000
0000
0010
0100
0001
0000
1000
0001
,
1000
0010
0M00
0010
0100
0000
1000
0000
0001
0010
0M00
0010
0100
0000
0001
1000
,
0100
0010
0M00
0010
1000
0001
1000
0010
1000
0001
0010
0000
0100
0010
0100
0010
,
0001
1000
0001
0100
0020
0000
0130
0001
1000
0100
0010
0001
0200
0000
0000
0310
,
1000
0001
1000
0100
1000
0001
0100
0010
0100
0001
1000
0100
0010
0001
0100
0010
,
1000
0001
0010
0100
2000
0000
3010
0100
0010
1000
0001
0010
0200
0000
0000
1300
,
0001
1000
0010
0100
0001
0010
0100
0010
0001
1000
0001
0100
0010
0100
0001
1000
,
0100
0010
0001
1000
0001
0100
0010
0100
0001
0010
0100
1000
0001
1000
0100
0010
,
0001
1000
0010
0100
0001
1000
0001
0100
0010
1000
0001
0010
0200
0000
0010
0000
,
1300
0010
1000
0001
1000
0100
0010
0100
1000
0010
0100
0001
1000
0001
0100
0010
,
1000
0001
0010
0100
1000
0001
1000
0100
0010
0001
1000
0010
0100
0010
1000
0001
,
0020
0100
0000
0032
1000
0000
0203
0010
0000
0301
2000
0000
3100
0010
0001
0000
,
1000
0000
0010
0000
0100
0000
0001
0010
0100
0000
0010
0001
1000
0000
0010
0000
,
1000
0100
00M0
0100
0001
0000
1000
0000
0001
0100
00M0
0100
1000
0000
0001
0000
,
1000
0010
0M00
0010
0001
0000
0001
0000
1000
0010
0100
0000
0020
0000
0000
0000
,
0030
0000
0000
0000
;
