#VERSION:0.83;
#TITLE:CHAOTIC SUNBIRD;
#SUBTITLE:;
#ARTIST:Tanchiky;
#TITLETRANSLIT:;
#SUBTITLETRANSLIT:;
#ARTISTTRANSLIT:;
#GENRE:;
#CREDIT:;
#MUSIC:Tanchiky - CHAOTIC SUNBIRD.ogg;
#BANNER:chaoticsunbird-bn.png;
#BACKGROUND:chaoticsunbird-bg.png;
#CDTITLE:cdtitle.png;
#SAMPLESTART:63.312;
#SAMPLELENGTH:11.779;
#SELECTABLE:YES;
#OFFSET:-1.473;
#BPMS:0.000=163.000;
#STOPS:;
#BGCHANGES:;
#FGCHANGES:;

//--------------- dance-single - 12ths ----------------
#NOTEDATA:;
#STEPSTYPE:dance-single;
#DESCRIPTION:12ths;
#DIFFICULTY:Medium;
#METER:13;
#RADARVALUES:0,0,0,0,0;
#CREDIT:valgrind | 13+ |;
#CHARTNAME:invisible in every difficulty;
#NOTES:
0000
0000
0000
0000
,
0000
0000
0000
0000
,
0000
0000
0000
0000
,
0000
0000
0000
0000
,
0000
0000
0000
0000
,
0001
0000
1000
0100
1000
0000
0010
0000
,
1000
0000
0001
0100
0001
0000
0010
0000
,
0001
1000
0001
1000
0000
0000
0010
0100
0010
0100
0000
0000
,
0001
1000
0001
1000
0001
1000
0002
0000
0000
0003
0000
0000
,
1000
0000
0010
0000
0100
0000
0000
0001
0000
0100
0001
0000
1000
0000
0000
0000
,
0001
0000
0010
0000
0100
0000
0000
1000
0000
0100
0000
1000
0001
0000
0100
0000
,
0001
0000
0010
0000
0100
0000
0000
1000
0000
0100
1000
0000
0001
0000
0000
0000
,
1000
0000
0010
0000
0100
0001
0000
1000
0000
1000
0001
0000
0020
0000
0030
0000
,
0001
0000
0100
0000
0010
0000
0000
1000
0000
0010
1000
0000
0001
0000
0000
0000
,
1000
0000
0100
0000
0010
0000
0000
0001
0000
0010
0000
0001
1000
0000
0100
0000
,
1000
0000
0010
0000
0100
0010
0000
0100
0000
0000
0010
0000
1000
0000
0100
0000
,
0020
0000
0000
0030
0001
0010
0001
0000
1000
0000
0010
0000
,
0200
0000
0000
0300
0001
1000
0001
0010
0100
1000
0000
0000
,
0001
0000
1000
0000
0100
0010
0001
0000
,
1000
0000
0001
0000
0100
0010
0010
0000
,
1000
0000
0001
0000
0010
0100
1000
0000
,
1001
0000
0000
0000
0001
0000
0000
0001
0000
0000
1000
0000
0100
0000
0010
0000
,
0001
0100
0010
1000
0001
0010
0100
1000
,
0001
0100
0001
0010
0100
1000
0010
0100
,
0001
0000
0000
0000
0001
0000
0000
0000
1000
0000
0000
1000
0000
0000
1000
0000
,
0200
0000
0000
0310
0100
1000
0002
0000
0000
0103
0000
0000
,
0001
0000
0000
1000
0000
0000
0200
0000
0300
0000
0100
0000
0010
0000
0100
0000
,
1000
0000
0000
0001
0000
0000
0200
0000
0000
0000
0310
0000
0100
0000
0001
0000
,
1000
0000
0000
0100
0000
0000
0020
0000
0030
0000
0010
0000
0100
0000
1000
0000
,
0001
0000
0000
0100
0000
0000
0020
0000
0000
0130
0001
0000
1000
0000
0010
0000
,
1000
0000
0000
0001
0000
0000
0020
0000
0030
0000
0010
0000
0100
0000
0010
0000
,
0001
0000
0000
1000
0000
0000
0020
0000
0000
0000
0130
0000
0010
0000
1000
0000
,
0001
0000
0000
0010
0000
0000
0100
0000
0000
1000
0000
0000
0001
0000
1000
0000
0001
0000
0010
0000
0100
0000
0010
0000
,
0001
1000
0001
0000
0100
0000
0120
0000
0000
0030
0000
0000
,
2000
0000
0000
0000
,
3002
0000
0000
0000
,
0023
0000
0000
0000
,
0230
0000
0000
0000
1300
0001
0100
0010
,
1000
0000
0001
0100
0001
0000
0010
0000
,
0001
0000
1000
0100
1000
0000
0010
0000
,
1000
0001
1000
0001
0000
0000
0010
0100
0010
0100
0000
0000
,
1000
0001
0100
0010
1000
0001
2000
0000
0000
3000
0000
0000
,
0001
0000
0010
0000
0100
0000
0000
0010
0000
0001
1000
0000
0010
0000
0000
0000
,
1000
0000
0100
0000
0010
0001
0000
1000
0000
0010
0000
0100
0001
0000
0100
0000
,
0002
0000
0000
0013
0000
0000
0100
0000
2000
0000
0000
3010
0000
0000
0100
0000
,
0001
0000
1000
0000
0100
0000
0010
0001
0000
0000
0100
0000
0010
0000
0000
0000
,
1000
0000
0010
0000
0100
0000
0000
0010
0000
1000
0001
0000
0010
0000
0000
0000
,
0001
0000
0100
0000
0010
1000
0000
0001
0000
0010
0000
0100
0000
1000
0100
0000
,
2000
0000
0000
3001
0000
0000
0100
0000
0002
0000
0000
1003
0000
0000
0010
0000
,
0200
0000
0000
0310
1000
0010
2000
0000
0000
3100
0000
0000
,
1000
0000
0010
0000
0100
0001
0000
1000
0000
0000
1000
0000
0100
0000
0010
0000
,
0001
0000
0100
0000
0010
1000
0000
0001
0000
0000
0001
0000
0010
0000
0100
0000
,
2000
0000
0000
3010
0000
0000
0100
0000
0002
0000
0000
0013
0000
0000
0100
0000
,
1000
0001
0000
0100
0000
0010
0000
2000
0000
0000
3001
0000
0010
0000
0100
0000
,
1000
0000
0100
0000
0010
0001
0000
1000
0000
0000
1000
0000
0010
0000
0100
0000
,
0001
0000
0010
0000
0100
1000
0000
0001
0000
1000
0000
0001
0100
0000
0010
0000
,
2000
0000
0000
3100
0000
0010
0000
0001
0000
0100
0000
0010
1000
0000
0001
0000
,
1002
0000
0000
1003
0010
0100
0010
0100
0001
2000
0000
0000
,
3001
0000
1000
0100
1000
0000
0010
0000
,
1000
0000
0000
0000
0001
0000
0000
0100
0000
0000
0000
0000
0000
0000
0000
0000
,
0001
0000
1000
0010
1000
0000
0100
0000
,
1000
0000
0000
0000
0001
0000
1000
0100
0000
0010
0001
0000
2000
0000
3000
0000
,
0001
0000
0001
0100
0000
0100
0010
0000
0010
1000
0000
1000
,
0100
0000
0100
0010
0000
0010
0001
0000
0001
1000
0000
1000
,
0010
0100
0010
0200
0000
0300
0001
1000
0001
2000
0000
3000
,
0100
0010
0001
0100
0010
1000
0200
0000
0000
0300
0000
0000
,
1000
0000
0100
0000
0010
0000
0000
0001
0000
0010
0001
0000
1000
0000
0000
0000
,
0001
0000
0100
0000
0010
0000
0000
1000
0000
0010
0000
1000
0001
0000
0010
0000
,
0001
0000
0100
0000
0010
0000
0000
1000
0000
0010
1000
0000
0001
0000
0000
0000
,
1000
0000
0100
0000
0010
0001
0000
1000
0000
1000
0001
0000
0200
0000
0300
0000
,
0001
0000
0010
0000
0100
0000
0000
1000
0000
0100
1000
0000
0001
0000
0000
0000
,
1000
0000
0010
0000
0100
0000
0000
0001
0000
0100
0000
0001
1000
0000
0010
0000
,
1000
0000
0100
0000
0010
0100
0000
0010
0000
0000
0100
0000
1000
0000
0001
0000
,
2002
3003
2002
3003
,
2002
0000
3003
0000
1001
0001
0001
0000
,
1000
0000
0100
0010
0000
0100
1000
0000
0001
0100
0000
0010
0000
0100
0001
0000
,
1000
0000
0010
0100
0000
0010
1000
0000
0001
0010
0000
0100
0000
0010
0001
0000
,
1000
0000
0001
0000
1000
0000
0000
0000
0000
1001
0000
0000
2002
0000
0000
0000
0000
0000
0000
0000
0000
0000
0000
0000
,
3003
0000
0000
0000
;

//--------------- dance-single - 12ths FS SJ- ----------------
#NOTEDATA:;
#STEPSTYPE:dance-single;
#DESCRIPTION:12ths FS SJ-;
#DIFFICULTY:Hard;
#METER:15;
#RADARVALUES:0,0,0,0,0;
#CREDIT:valgrind | 15+ |;
#CHARTNAME:i'm so rhythm;
#NOTES:
0000
0000
0000
0000
,
0000
0000
0000
0000
,
0000
0000
0000
0000
,
0000
0000
0000
0000
,
0000
0000
0000
0000
,
1000
0000
0010
0000
1000
0000
0000
0001
0000
0100
0000
0000
0010
0000
1000
0000
,
0001
0000
0010
0000
0001
0000
0000
1000
0000
0100
0000
0000
0010
0000
0001
0000
,
1000
0001
1000
0002
0000
0003
0001
1000
0001
2000
0000
3000
,
1000
0100
1000
0001
0100
0001
0010
0000
0000
0110
0000
0000
,
1000
0000
0001
0000
0100
0010
0000
1000
0000
0001
0010
0000
0100
0000
0010
0000
,
0001
0000
1000
0000
0010
0100
0000
0001
0000
1000
0000
0100
0010
0100
0010
0000
,
0001
0000
0100
0000
0010
1000
0000
0001
0000
0010
0100
0000
0010
0000
0001
0000
,
1000
0000
0010
0000
0100
0001
0000
0101
0000
0001
1000
0000
2001
0000
3000
0000
,
0001
0000
1000
0000
0100
0010
0000
0001
0000
1000
0010
0000
0100
0000
0010
0000
,
1000
0000
0001
0000
0010
0100
0000
1000
0000
0001
0000
0100
0010
1000
0010
0100
,
0001
0000
0010
0000
0100
1000
0000
0001
0000
0010
0100
0010
0001
0000
0100
0000
,
0020
0000
0000
1030
0010
1000
0010
0000
1000
0000
0001
0000
,
0020
0000
0000
0130
1000
0100
0010
0001
1000
0020
0000
0000
,
1030
0000
0001
0000
0100
0010
1000
0000
,
0001
0000
1000
0000
0100
0010
0010
0000
,
0001
0000
1000
0000
0010
0100
0001
0000
,
1000
0100
0000
0000
1100
0000
0000
0110
0000
0000
0010
0000
0001
0000
1000
0000
,
0001
0000
0100
0000
0010
1000
0010
1000
0000
0000
0001
0000
0010
0100
0010
0100
,
1000
0000
0010
0000
0100
0001
0100
0001
0000
0000
1000
0000
0100
0010
0100
0010
,
0001
0000
0000
0000
1001
0000
0000
0000
0101
0000
0000
1100
0000
0000
0101
0000
,
1002
0000
0003
1000
0100
0010
0002
0000
0000
1003
0000
0000
,
0001
0000
0100
0010
0000
0100
0002
0000
0000
0000
1003
0000
0100
0000
0010
0001
,
1000
0000
0010
0100
0000
0010
2000
0000
0000
0000
3001
0000
0100
0000
0010
0000
,
1000
0000
0100
0010
0000
0100
2000
0000
0000
0000
3001
0000
0100
0000
0010
1000
,
0001
0000
0010
0100
0000
0010
0002
0000
0000
1003
0010
1000
0010
0100
0001
0100
,
0001
0000
0010
0100
0000
0010
0002
0000
0000
0000
1003
0000
0010
0000
0100
0001
,
1000
0000
0100
0010
0000
0100
2000
0000
0000
0000
3001
0000
0010
0000
0100
0000
,
1000
0000
0000
0000
0000
0000
0001
0000
0000
0100
0000
0000
0001
0000
0000
0000
0000
0000
1000
0000
0000
0000
0000
0000
0001
0000
0000
0000
0010
0000
0000
0000
0001
0000
0000
0000
1000
0000
0000
0000
0100
0000
0000
0000
1000
0000
0000
0000
,
0010
0100
0010
0000
0110
0000
1002
0000
0000
0003
0000
0000
,
2000
0000
0000
0000
,
3002
0000
0000
0000
,
0203
0000
0000
0000
,
0320
0000
0000
0000
0000
0000
0000
0000
1030
0000
0001
0000
0010
0100
0010
0000
,
0001
0000
0100
0000
0001
0000
0000
1000
0000
0010
0000
0000
0100
0000
0001
0000
,
1000
0000
0100
0000
1000
0000
0000
0001
0000
0010
0000
0000
0001
0000
0100
0000
,
0010
0100
0010
0200
0000
0300
0100
0010
0100
0020
0000
0030
,
0010
0000
0000
0000
1000
0000
0000
0000
0001
0000
0000
0000
0010
0000
0000
0000
0001
0000
0000
0000
0100
0000
0000
0000
0010
0000
0000
0000
0000
0000
0000
0000
0000
0000
0000
0000
0120
0000
0000
0000
0000
0000
0000
0000
0000
0030
0000
0000
,
1000
0000
0001
0000
0010
0100
0000
1000
0000
0100
0010
0000
0001
0000
0100
0000
,
0001
0000
1000
0000
0010
0100
0010
1000
0000
0001
0000
0010
0100
1000
0100
0000
,
1000
0000
0001
0010
0M00
0010
1000
0000
0001
0000
1000
0010
0M00
0010
0001
0000
,
1000
0000
0100
0000
0010
0000
0001
0100
0000
0010
1000
0010
2000
0000
0000
3000
,
0001
0000
1000
0000
0100
0010
0000
0001
0000
0010
0100
0000
1000
0000
0010
0000
,
1000
0000
0001
0000
0100
0010
0100
0001
0000
1000
0000
0100
0000
0010
0001
0010
,
0001
0000
1000
0010
0000
0100
0001
0000
1000
0000
0100
0010
0100
0000
1000
0000
,
0020
0230
0302
2003
,
3001
0000
0010
0000
0100
1000
0000
0001
0000
0000
0001
0000
0100
0000
0010
0000
,
1000
0000
0100
0000
0010
0001
0000
1000
0000
0000
1000
0000
0010
0000
0100
0000
,
0001
0000
1000
0100
00M0
0100
0001
0000
1000
0000
0001
0100
00M0
0100
1000
0000
,
0001
0100
0000
0010
0000
0110
0000
1002
0000
0000
1003
0000
0100
0000
0010
0000
,
0001
0000
0100
0000
0010
1000
0000
0001
0000
0000
0001
0000
0010
0000
0100
0000
,
1000
0000
0010
0000
0100
0001
0000
1000
0000
0001
0000
1000
0100
0000
0010
0000
,
0001
0000
1000
0100
0000
0010
0000
0001
0000
0100
0000
0010
1000
0000
0001
0000
,
1000
0100
1000
0001
0100
0001
0010
0100
1000
0010
0000
0000
,
1000
0000
0010
0000
1000
0000
0000
0001
0000
0100
0000
0000
0010
0000
1000
0000
,
0001
0000
0010
0000
0001
0000
0000
1000
0000
0000
0100
0000
0100
0000
1000
0000
,
0001
0000
0100
0000
0001
0000
0000
1000
0000
0010
0000
0000
0100
0000
0001
0000
,
0010
0000
0100
0000
0110
0000
0010
0001
0000
0001
1000
0000
0020
0000
0030
0000
,
1000
0010
1000
0001
0010
0001
1000
0100
1000
0001
0100
0001
,
0010
0100
1000
0010
0100
0001
0010
0001
0100
0010
1000
0001
,
0010
0100
0010
0200
0000
0300
0100
0010
0100
0020
0000
0030
,
0010
0001
0100
0010
1000
0100
0020
0000
0030
0110
0000
0000
,
0001
0000
1000
0000
0010
0100
0000
0001
0000
1000
0100
0000
0010
0000
0100
0000
,
1000
0000
0001
0000
0100
0010
0000
1000
0000
0001
0000
0010
0100
0010
0100
0000
,
1000
0000
0010
0000
0100
0001
0000
1000
0000
0100
0010
0000
0100
0000
1000
0000
,
0001
0000
0100
0000
0010
1000
0000
1010
0000
1000
0001
0000
1002
0000
0003
0000
,
1000
0000
0001
0000
0010
0100
0000
1000
0000
0001
0100
0000
0010
0000
0100
0000
,
0001
0000
1000
0000
0100
0010
0000
0001
0000
1000
0000
0010
0100
0010
0100
0000
,
0001
0000
0010
0000
0100
1000
0000
0001
0000
0001
0100
0000
0010
0000
0100
0000
,
2002
0000
0000
0000
0000
0000
0000
0000
0000
3003
0000
0000
0000
0000
0000
0000
0000
0000
0000
0000
0000
0000
0000
0000
2002
0000
0000
0000
0000
0000
0000
0000
0000
0000
0000
0000
3003
0000
0000
0000
0001
0000
0000
0000
1000
0000
0000
0000
,
2002
0000
0000
0000
3003
0000
0000
0000
1000
0000
0001
0000
1001
0000
0000
0101
0000
0000
1100
0000
0000
1000
0000
0000
,
0001
0000
0100
0001
0000
1000
0100
0010
0001
1000
0000
0010
0000
0100
0010
1000
,
0001
0000
0010
0001
0000
1000
0010
0100
0001
1000
0000
0100
0000
0010
0100
1000
,
0010
0000
0100
0000
0010
0000
0000
0000
0000
0110
0000
0000
2002
0000
0000
0000
0000
0000
0000
0000
0000
0000
0000
0000
,
3003
0000
0000
0000
;

//--------------- dance-single - SJ+ JA+ DS FS BU- XO- ----------------
#NOTEDATA:;
#STEPSTYPE:dance-single;
#DESCRIPTION:SJ+ JA+ DS FS BU- XO-;
#DIFFICULTY:Challenge;
#METER:18;
#RADARVALUES:0,0,0,0,0;
#CREDIT:valgrind | 18- |;
#CHARTNAME:sunbird, earthpower;
#NOTES:
0000
0000
0000
0000
,
0000
0000
0000
0000
,
0000
0000
0000
0000
,
0000
0000
0000
0000
,
0000
0000
0000
0000
,
1000
0000
1000
0000
0001
0200
0000
0010
0000
0310
0000
1000
0001
0000
0010
0000
,
0100
0000
0100
0000
0010
0002
0000
1000
0000
1003
0000
0010
0100
0000
0001
0000
,
1000
1000
1000
2000
0000
3000
0001
0001
0001
0002
0000
0003
,
0100
0000
0000
0000
0100
0000
0000
0000
0100
0000
0000
0000
0010
0000
0000
0000
0010
0000
0000
0000
0010
0000
0000
0000
1002
0000
0000
0000
0000
0000
0000
0000
0003
0000
0000
0000
1000
0000
0000
0100
0000
0000
0010
0000
0000
0001
0000
0000
,
0100
0000
0010
0000
2000
0100
0000
0001
0000
3010
1000
0000
0001
0000
0010
0000
,
0100
0000
0010
0000
0002
0100
0000
1000
0000
0013
0000
0001
0010
0100
1000
0000
,
0010
0000
0100
0000
0002
1000
0000
0010
0000
0103
0001
0000
1000
0000
0100
0000
,
1000
0001
0100
0010
1000
0100
0000
0110
0000
0010
0001
0000
1002
0000
0103
0000
,
0010
0000
0100
0000
0002
0010
0000
1000
0000
0103
0001
0000
1000
0000
0100
0000
,
0010
0000
0100
0000
2000
0010
0000
0001
0000
3100
0000
1000
0001
0100
0010
1000
,
0100
0000
1000
0000
0010
1000
0000
1020
0000
0130
0001
0100
0001
0000
0010
0000
,
0110
0000
0100
1000
0001
0001
0001
0000
0101
0000
0110
0000
,
1020
0000
0030
1000
0010
1000
0100
0010
0001
0200
0000
0000
,
0301
0000
1000
0000
0100
0010
0000
0100
0000
1000
0000
0001
1000
0000
0010
0000
,
1000
0000
0001
0000
0010
0100
0000
0010
0000
0001
1000
0100
1000
0000
0010
0000
,
1000
0000
0001
0000
0100
0010
0000
0100
0000
0001
0000
1000
0001
0000
0010
0000
,
0001
0100
0000
0000
0110
0000
0000
1010
0000
0000
1000
0000
0100
0000
0010
0000
,
0001
0000
1000
0010
0100
0010
1000
0001
0000
0010
0100
0010
0001
1000
0010
0100
,
0001
0000
0010
0100
1000
0001
1000
0010
0000
0100
0010
1000
0001
1000
0100
0010
,
0001
0000
0000
0000
1001
0000
0000
0000
1010
0000
0000
0110
0000
0000
1010
0000
,
1002
0000
0000
0000
0000
0000
0000
0000
0000
0000
0000
0000
0013
0000
0000
0000
0100
0000
0000
0000
0010
0000
0000
0000
0120
0000
0000
0000
0000
0000
0000
0000
0000
0000
0000
0000
0130
0000
0000
1000
0000
0000
0001
0000
0000
0100
0000
0000
,
0001
0000
0100
0010
M000
0010
0001
0000
2000
0000
0010
0000
3001
0000
1000
0100
,
1000
0000
0100
0010
000M
0010
1000
0000
0002
0000
1000
0000
0013
0000
0100
0000
,
1000
0000
0001
0010
M000
0010
0100
0000
0002
0000
0100
0000
1003
0000
0001
0010
,
0001
0000
1000
0010
000M
0010
0200
0000
0000
0301
0100
0010
0001
1000
0010
0100
,
0001
0000
0010
0100
M000
0100
0001
0000
2000
0000
0100
0000
3001
0000
1000
0010
,
1000
0000
0010
0100
000M
0100
1000
0000
0002
0000
1000
0000
0013
0000
0100
0000
,
2000
0000
0000
0000
0000
0000
3001
0000
0000
0010
0000
0000
0100
0000
0000
0010
0000
0000
0001
0000
0000
1000
0000
0000
0010
0000
0000
0000
0010
0000
0000
0000
0010
0000
0000
0000
0100
0000
0000
0000
0100
0000
0000
0000
0100
0000
0000
0000
,
0001
0001
1001
0000
0110
0000
2002
0000
0000
3003
0000
0000
,
1000
0000
0000
0010
0000
0000
0100
0000
0001
0000
0000
0010
0000
0100
1000
0000
,
0001
0000
0000
0100
0000
0000
0010
0000
1000
0100
0000
0010
0000
0001
1000
0000
,
0001
0000
0000
0010
0000
0000
0100
0000
1000
0000
0000
0010
0000
1000
0001
0100
,
0001
0000
0000
0010
0000
0000
0000
0000
0000
0100
0000
0000
0000
0000
0000
1000
0000
0000
0001
0000
0000
0100
0000
0000
0010
0000
0000
1000
0000
0000
0100
0000
0000
1000
0000
0000
0001
0000
0100
0000
0001
0000
0100
0000
0000
0010
0000
0000
,
1000
0000
1000
0000
0001
0020
0000
0100
0000
0130
0000
1000
0001
0000
0100
0000
,
0010
0000
0010
0000
0100
0002
0000
1000
0000
1003
0000
0100
1000
0000
0010
0000
,
0100
0100
0100
0200
0000
0300
0010
0010
0010
0020
0000
0030
,
1010
0010
0100
0101
0001
0010
0120
0000
0030
2001
0000
0000
,
3001
0000
0100
0000
0010
2000
0000
0100
0000
3002
0100
0000
1003
0000
0010
0000
,
1000
0000
0100
0000
0010
0100
2000
0010
0000
0001
0000
3100
0010
0001
1000
0001
,
0100
00M0
0100
0010
0000
0001
1000
0001
0100
00M0
0100
0010
0000
0001
1000
0010
,
0100
0010
1000
0001
0010
0100
1000
0001
0100
0001
0010
0100
1000
0010
0100
0001
,
1000
0000
0100
0000
0010
0002
0000
0100
0000
2003
0100
0000
3001
0000
0010
0000
,
0001
0000
0100
0000
0010
1000
0002
0010
0000
0100
0000
1000
0000
0013
0100
1000
,
0001
0000
0000
0000
0000
0000
1000
0000
0000
0010
0000
0000
0M00
0000
0000
0010
0000
0000
0001
0000
0000
0000
0000
0000
0100
0000
0000
0000
0000
0000
0010
0000
1000
0000
0010
0000
1000
0000
0000
0000
0000
0000
0001
0000
0000
0000
0000
0000
,
1002
0000
0000
0003
0000
0000
1000
0000
0100
0000
0010
0000
0012
0000
0000
0003
0000
0000
2001
0000
0000
3000
0000
0000
,
0002
0000
0010
0000
2003
0100
0000
3001
0000
0100
0010
2000
0100
0000
3001
0000
,
2000
0000
0010
0000
3002
0100
0000
1003
0000
0100
0010
0001
0100
0010
1000
0001
,
0010
0M00
0010
0100
0000
0001
1000
0001
0010
0M00
0010
0100
0000
0001
1000
0100
,
0010
0100
0000
0110
0000
1100
0000
1002
0000
0013
0001
0100
0001
1000
0100
0010
,
0002
0000
0100
0000
2003
0010
0000
3001
0000
0010
0100
2000
0010
0000
3001
0000
,
2000
0000
0100
0000
3002
0010
0000
1000
0000
0100
0003
0001
1000
0000
0100
0000
,
0010
0000
0002
0010
0000
2003
0000
0100
0000
0010
0000
3001
0100
0000
0010
0000
,
1010
1000
0001
0011
0010
0100
1100
1000
1000
1001
0000
0000
,
0001
0000
0001
0000
1000
0200
0000
0010
0000
0310
0000
0001
1000
0000
0010
0000
,
1000
0000
1000
0000
0001
0200
0000
0310
0000
0000
1010
0000
1000
0000
0100
1000
,
0001
0000
0001
0000
1000
0020
0000
0100
0000
0130
0001
1000
0100
0000
0010
0000
,
0001
1000
0001
0010
0001
0000
0001
1000
0000
1000
0010
0000
0120
0000
1030
0000
,
0001
0010
0010
0100
1000
1000
0010
0100
0100
0001
1000
1000
,
1100
0100
0010
0011
0001
1000
1010
0010
0100
0101
0001
1000
,
1100
0100
0100
0100
0000
0000
0011
0010
0010
0010
0000
0000
,
1001
0001
0001
0110
0100
0100
1001
0000
0000
2000
0000
0000
,
3010
0000
0100
0000
0002
0010
0000
1000
0000
0103
0001
0000
1000
0000
0100
0000
,
0010
0000
0100
0000
2000
0010
0000
0001
0000
3100
0000
1000
0100
0010
0001
0000
,
0100
0000
0010
0000
2000
0001
0000
0100
0000
3010
1000
0000
0001
0000
0010
0000
,
0001
1000
0010
0100
0001
0010
0000
0110
0000
0100
1000
0000
2001
0000
3010
0000
,
0100
0000
0010
0000
2000
0100
0000
0001
0000
3010
1000
0000
0001
0000
0010
0000
,
0100
0000
0010
0000
0002
0100
0000
1000
0000
0013
0000
0100
1000
0001
0100
0000
,
0010
0000
1000
0000
0001
0020
0000
0100
0000
0130
2000
0000
0100
0000
3001
0000
,
2002
0000
0000
0000
0000
0000
0000
0000
0000
3003
0000
0000
1000
0000
0000
0000
0001
0000
0000
0000
1000
0000
0000
0000
2001
0000
0000
0000
0000
0000
0000
0000
0000
0000
0000
0000
3001
0000
0000
0000
0100
0000
0000
0000
0010
0000
0000
0000
,
0120
0000
0000
0000
0000
0000
1030
0000
0100
0000
0010
0000
0110
0000
0000
0011
0000
0000
1001
0000
0000
1000
0000
0000
,
0001
0000
0010
0001
0000
1000
0001
0100
0010
1000
0000
0100
0000
1000
0001
0010
,
0001
0000
0100
0001
0000
1000
0001
0010
0100
1000
0000
0010
0000
1000
0001
0010
,
0110
0000
0100
0000
0110
0000
0000
0000
0000
0110
0000
0000
2002
0000
0000
0000
0000
0000
0000
0000
0000
0000
0000
0000
,
3003
0000
0000
0000
;
