#TITLE:ボンビースキップ!!;
#SUBTITLE:;
#ARTIST:good-cool feat. すわひでお;
#TITLETRANSLIT:Bonbiskip!!;
#SUBTITLETRANSLIT:;
#ARTISTTRANSLIT:good-cool feat. Hideo Suwa;
#GENRE:;
#CREDIT:;
#MUSIC:Bonbiskip.ogg;
#BANNER:Bonbiskip-bn.png;
#BACKGROUND:Bonbiskip-bg.png;
#CDTITLE:;
#SAMPLESTART:48.963;
#SAMPLELENGTH:14.516;
#SELECTABLE:YES;
#OFFSET:-0.049;
#BPMS:0.000=120.000
,51.000=164.000
,110.000=142.000
,112.000=124.000
,143.000=160.000
,211.000=80.000
,219.000=160.000
;
#STOPS:50.250=0.500;
#BGCHANGES:;
#FGCHANGES:;

//--------------- dance-single - Highflyer ----------------
#NOTES:
     dance-single:
     Highflyer:
     Medium:
     12:
     0,0,0,0,0:
0000
0000
0000
0000
,
0000
0000
0000
0000
,
0000
0000
0000
0000
,
0000
0000
0000
0000
,
0000
0000
0000
0000
,
1000
0010
0100
0001
0010
0100
1100
1010
,
0010
0100
0001
0010
0001
1000
1010
0110
,
0100
0001
1000
0001
0010
0100
0110
1100
,
1000
0000
0001
0000
1000
0000
1010
0000
0000
0001
0000
1000
0010
0000
0100
0000
,
0001
0001
0110
0000
1000
0100
0010
0010
,
0001
0100
0010
1000
0001
0010
0100
0100
,
1000
0010
1001
0010
0100
0010
2001
3001
,
1000
0000
0000
0000
0000
0000
0001
0000
0000
0100
0000
0000
0001
0000
0000
0000
0000
0000
1000
0000
0000
0000
0000
0000
0100
0000
0000
0010
0000
0000
0000
0000
0000
0000
0000
0000
0001
0000
0000
0000
0000
0000
0000
0000
1000
0000
0000
0000
,
0010
0000
0000
0100
0001
0100
0001
0000
0000
1000
0000
0000
,
0200
0300
0000
0010
0000
0001
1000
0000
0001
0100
0000
0000
,
0020
0030
0000
0100
0000
0000
0001
0000
0000
1000
0000
0001
,
0100
0000
0010
0100
0000
0010
1000
0000
0000
0100
0000
1000
,
0002
0003
0000
0010
0100
0010
0100
0000
0000
1000
0000
0010
,
0200
0300
0000
0010
0000
1000
0001
0000
1000
0100
0000
0000
,
0020
0030
0100
1000
0000
0001
1000
0000
0000
0010
0100
0010
,
1000
0000
0000
1010
0000
0000
0011
0000
0000
0001
0000
0010
,
0200
2300
3020
0230
,
0301
0000
1000
0000
0000
0001
0010
0000
0000
0200
0000
0000
,
0320
0032
2003
3020
,
0230
0000
0000
0301
1000
0001
1000
0000
0010
0100
0000
0001
,
0010
0000
0000
0100
1000
0100
1000
0000
0010
0100
0000
0001
,
1000
0000
0000
0100
0010
0100
0010
0000
0000
0001
0000
0100
,
0000
0010
0000
1000
0000
0100
0020
0000
0000
0030
0000
0000
,
0001
0000
1000
0000
1100
0000
0000
1001
0000
0000
0101
0000
0000
0000
0001
0000
,
0010
0100
0010
0001
1000
1001
0000
0001
,
0100
0000
0010
0000
1010
0000
0000
1001
0000
0000
0011
0000
0000
0000
0001
0000
,
1000
0010
0100
0010
0000
0200
0000
0301
,
0010
0000
0100
0000
1100
0000
0000
0110
0000
0000
0011
0000
1000
0000
1000
0000
,
0010
1000
1000
0100
0000
0010
0001
0100
,
0010
0000
0100
0001
0000
0000
1000
0000
0100
0000
0010
0001
0000
0000
1000
0000
,
0010
0100
0010
1000
0200
0000
0320
0000
,
0000
0032
0000
0000
1003
0000
0010
0100
,
0001
0010
0200
0000
0310
0001
2000
0000
,
3010
0100
0001
1000
0200
0000
1300
0010
,
1000
0010
1000
0001
0010
0100
2000
0000
,
3010
0100
0001
0010
0011
0000
0001
0100
,
0010
1000
0002
0000
0013
0100
0020
0000
,
0031
0100
0010
1000
1010
0000
0010
0100
,
0010
1000
0010
0100
0001
0010
0110
0000
,
1000
0001
0110
0000
1001
0000
1000
0001
,
0010
0001
0200
0000
0310
0100
0001
1000
,
0100
0010
0002
0000
1003
0000
0010
0100
,
0010
1000
0200
0000
0320
0000
0031
1000
,
0010
1000
0001
0010
0200
0000
1300
0010
,
0100
0010
1000
0001
0010
0200
0000
0310
,
0001
1000
0020
0000
0030
0100
0001
0000
,
0000
0000
0110
0000
1001
0000
2000
0200
,
0000
3300
0102
0000
0023
0000
0230
0000
,
0310
0000
0001
1000
0010
0000
0100
0000
,
0010
0000
0100
0001
1000
0000
2002
0000
,
3003
0000
0000
2002
,
3003
0000
0000
0000
0000
0000
0000
0000
0000
0000
0000
0000
1000
0000
0000
0100
,
0000
0000
0010
0000
0000
0001
0000
0000
1000
0000
0010
0000
1000
0000
0000
0001
,
0000
0000
1000
0000
0000
0010
0000
0000
0100
0000
0001
0000
0100
0000
0100
0000
,
0010
0010
1000
1000
0001
0010
0100
0010
,
0001
0000
0000
1000
0000
0000
0010
0000
0100
0000
0000
0000
0010
0000
0100
0000
,
0001
1000
0100
1000
0010
0010
0100
0001
,
1000
0100
0010
0001
0100
0000
0010
1000
,
0010
0100
0001
0010
0001
0000
1000
0100
,
1000
0001
0100
0010
0100
0000
0001
0010
,
0001
1000
0010
1000
0100
0100
0010
0001
,
1000
0001
0100
0010
1000
0001
0020
0000
,
0000
0130
0100
0000
1000
2002
0000
0000
,
0000
3003
0000
0000
;

//--------------- dance-single - Highflyer ----------------
#NOTES:
     dance-single:
     Highflyer:
     Hard:
     17:
     0,0,0,0,0:
0000
0000
0000
0000
,
0000
0000
0000
0000
,
0000
0000
0000
0000
,
0000
0000
0000
0000
,
0000
0000
0000
0000
,
1000
0000
0000
0100
0000
0000
0010
0000
0000
0001
0000
0000
1000
0000
0000
0010
0000
0000
1000
0000
0000
0001
0000
0000
0010
0000
0000
0100
0000
0000
1000
0000
0000
0010
0000
0000
0100
0000
0000
0001
0000
0000
0100
0000
0010
0000
1000
0000
,
0001
0010
0001
1000
0010
0100
0001
0010
0100
1000
0001
1000
0010
0100
0010
1000
,
0001
0000
0000
1000
0000
0000
0001
0000
0000
0010
0000
0000
0100
0000
0000
1000
0000
0000
0100
0000
0000
0010
0000
0000
0001
0000
0000
1000
0000
0000
0010
0000
0000
1000
0000
0000
0100
0000
0000
0010
0000
0000
0001
0000
0100
0000
0010
0000
,
1000
0000
0001
0000
1000
0000
0010
0000
0100
0000
0001
0000
0010
0000
0000
0000
0100
0000
1000
0001
1000
0000
0010
0000
0100
0000
0010
0000
1000
0000
0001
0000
,
1000
0100
0010
0001
0200
0000
0310
1000
0001
0010
0100
1000
0010
0100
0020
0000
,
0130
0000
0000
0001
0000
0000
1000
0000
0000
0001
0000
0000
0010
0000
0000
0100
0000
0000
1000
0000
0001
0000
0100
0000
0001
0000
0000
1000
0000
0000
0100
0000
0000
1000
0000
0000
0010
0000
0000
0100
0000
0000
0001
0000
1000
0000
0100
0000
,
0010
0000
0001
0000
1000
0010
1000
0000
0001
0000
1000
0100
1000
0000
0001
0000
0100
0000
0010
1000
0010
0000
0100
0000
0001
0000
0010
0000
0200
0000
0000
0000
,
0310
0000
0000
0001
0000
0000
1000
0000
0000
0100
0000
0000
0001
0000
0000
0100
0000
0000
1000
0000
0000
0001
0000
0000
0100
0000
0000
1000
0000
0000
0000
0000
0000
0000
0000
0000
0100
0000
0000
0000
0010
0000
0000
0000
1000
0000
0000
0000
,
0200
0300
0010
0001
1000
0010
0100
0010
1000
0001
0010
0100
,
2000
3000
0100
1000
0010
0100
1000
0100
0001
0100
0010
1000
,
0200
0300
0010
0001
1000
0100
1000
0001
0100
0001
0010
0100
,
0001
0100
1000
0010
0100
1000
0200
0000
0300
0001
0100
0010
,
0002
0003
0010
0100
0001
1000
0010
0100
0001
1000
0100
0010
,
2000
3000
0010
0100
1000
0010
0100
0001
0100
0010
1000
0100
,
0002
0003
0100
0010
0001
1000
0010
0100
0001
1000
0010
0001
,
0010
1000
0001
0020
0000
0000
0230
0000
0000
1300
0100
1000
,
0001
0100
0010
0100
0001
1000
0100
0010
0001
1000
0001
0100
,
0010
1000
0001
0010
0100
1000
0001
0100
0001
1000
0100
0010
,
0100
1000
0001
0100
0010
1000
0001
0010
0001
1000
0001
0100
,
0010
1000
0001
0010
0100
1000
0010
0100
0001
1000
0100
1000
,
0001
0100
0001
1000
0010
1000
0001
0010
0001
1000
0010
0100
,
0001
1000
0100
0010
0001
1000
0001
0100
0010
1000
0100
0010
,
0001
0100
0010
0100
0001
0010
0200
0000
0000
0300
0000
0000
,
1000
0000
0100
0000
1000
0000
0001
0000
0000
0100
0000
0000
0010
0000
0000
0000
0000
0000
1000
0000
0000
1001
0000
0000
0000
0000
0000
0001
0000
0000
0021
0000
0000
0000
0000
0000
0000
0000
0000
0000
0000
0000
0130
0000
0000
0000
0000
0000
,
1000
0010
0100
0001
0010
0000
0100
0000
0000
0000
1001
0000
0000
0000
1000
0010
,
0100
1000
0100
0001
0010
0000
0100
1100
0000
1000
1001
0000
0000
0000
0001
0000
,
1000
0010
1000
0001
0100
0000
0010
0000
0000
0000
1001
0000
0000
0000
0001
0010
,
0100
0001
0100
1000
0010
0100
0001
0010
0001
0100
0010
0000
1000
0100
1000
0100
,
0010
0000
0001
0100
0001
0100
0010
0000
0000
0000
1000
0001
0010
0100
0010
0001
,
1000
0010
0100
0010
0000
0000
0100
0001
1000
0100
0010
0001
0000
0000
1000
0010
,
1000
0001
0010
0000
0100
1000
0001
1000
0020
0000
0000
0130
0001
1000
0001
0010
,
0100
1000
0001
0100
0010
1000
0001
0010
0100
1000
0001
0100
0010
0000
0100
0000
,
0010
1000
0200
0010
1300
0010
0200
0010
,
0301
0000
1000
0000
0100
0000
0010
0000
0012
0000
0000
0000
1003
0000
0010
0100
,
0010
2000
0001
3100
0010
0002
0100
1003
,
0010
0000
0100
0001
1000
0000
0100
0000
0110
0000
0000
0000
1000
0000
0100
0000
,
1000
0002
0010
1003
0001
0200
0010
0301
,
1000
0000
0001
0000
0100
0000
0010
0000
2010
0000
0000
0000
3001
0000
0010
0100
,
0010
0002
1000
0103
0010
2000
0100
3001
,
0010
0100
1000
0001
0100
0000
0010
0000
0220
0000
0330
0000
0001
0000
0010
0100
,
1000
0001
1000
0000
0010
0000
0100
0000
0001
0010
0100
0000
0010
0001
1000
0010
,
0100
0001
1000
0001
0010
0100
1000
0001
0100
0000
0010
0000
1000
0000
0001
0010
,
0100
1000
0001
0000
1000
0000
0010
0000
0100
0001
1000
0000
0001
0010
0001
1000
,
0001
0100
0010
1000
0001
0010
0001
1000
0200
0000
0000
0000
1300
0000
0001
1000
,
0001
0100
0010
0000
0100
0000
0010
0000
1000
0100
0010
0000
0100
0000
1000
0001
,
0100
0001
1000
0010
0100
0001
1000
0100
0010
0001
1000
0000
0010
0000
0100
0001
,
0100
0010
1000
0000
0001
0000
0010
0100
1000
0001
0100
0000
0010
0100
0001
1000
,
0100
1000
0001
0100
0010
1000
0100
0010
0001
0010
0100
1000
0002
0000
1003
0010
,
0100
0000
0001
0010
0001
1000
0001
0000
0100
0000
0010
0000
1000
0000
0001
1000
,
0010
0000
0100
0001
1000
0100
0010
0000
0001
0000
0000
0000
2002
0000
0000
0000
,
3003
0000
0000
0000
0000
0000
0000
0000
1000
0010
1000
0010
0200
0000
0000
0000
,
0300
0000
0000
0001
1000
0100
0010
0100
1000
0010
0100
0000
0010
1000
0010
0100
,
0001
1000
0001
0100
0010
1000
0001
1000
0010
0100
0001
0000
0010
0100
1000
0100
,
0010
0001
1000
0001
0010
0100
1000
0001
1000
0100
0010
0000
0001
0000
0100
0000
,
0010
0000
0010
0000
1000
0000
0001
0010
0001
0000
1000
0000
0010
0000
1000
0000
,
0100
0000
0010
0001
0000
0010
0000
0100
1000
0000
0001
0000
0100
0000
0010
0000
,
1000
0000
0001
0000
0010
0100
0010
0100
1000
0000
0001
0000
0100
0000
0001
0000
,
1000
0010
1000
0000
0001
1000
0001
1000
0001
0000
0010
0100
1000
0001
1000
0010
,
0100
0000
0010
0000
0100
0001
1000
0001
0020
0000
0000
0000
0130
1000
0001
1000
,
0100
0000
0100
0000
0010
0001
0000
1000
0010
0000
0100
0000
0001
1000
0001
1000
,
0010
0000
0010
0000
0100
0001
1000
0010
0100
0000
1000
0000
0100
0010
1000
0001
,
0010
0100
0010
0001
1000
0010
0100
0010
1000
0001
0010
0100
2000
0000
0002
0000
,
3003
0000
0100
0010
0100
0000
0000
0000
0010
0000
2002
0000
0000
0000
0000
0000
,
0000
3003
0000
0000
0000
0000
0000
0000
;
