#TITLE:Boil;
#SUBTITLE:;
#ARTIST:POLYSICS;
#TITLETRANSLIT:;
#SUBTITLETRANSLIT:;
#ARTISTTRANSLIT:;
#GENRE:;
#CREDIT:;
#MUSIC:Boil.ogg;
#BANNER:Boil.png;
#BACKGROUND:Boil-bg.png;
#CDTITLE:;
#SAMPLESTART:4.246;
#SAMPLELENGTH:12.699;
#SELECTABLE:YES;
#OFFSET:-0.013;
#BPMS:0.000=170.090;
#STOPS:;
#BGCHANGES:;
#FGCHANGES:;

//--------------- dance-single - OrangeRight ----------------
#NOTES:
     dance-single:
     OrangeRight:
     Beginner:
     4:
     0,0,0,0,0:
0000
0000
0000
0000
,
0000
0000
0000
0000
,
0000
0000
0000
0000
,
1000
0000
0000
0000
,
1000
0000
0000
0000
,
1000
0000
0000
0000
,
0001
0000
0001
0000
,
1000
0000
0000
0000
,
1000
0000
0000
0000
,
1000
0000
0000
0000
,
0001
0000
0001
0000
,
0100
0000
0010
0000
,
0000
0000
0010
0000
,
1000
0000
0100
0000
,
1000
0000
1000
0000
,
0010
0000
0010
0000
,
0100
0000
0001
0000
,
1000
0000
0001
0000
,
1000
0000
1000
0000
,
0200
0000
0300
0000
,
0010
0000
0010
0000
,
0001
0000
1000
0000
,
0010
0000
0100
0000
,
0001
0000
0001
0000
,
1000
0000
0001
0000
,
0100
0000
0010
0000
,
1000
0000
0001
0000
,
1000
0000
1000
0000
,
0001
0000
0001
0000
,
0100
0000
0010
0000
,
1000
0000
0000
0000
,
0001
0000
0001
0000
,
1000
0000
1000
0000
,
0100
0000
0010
0000
,
0000
1001
0000
0000
,
0001
0000
0100
0000
,
0010
0000
1000
0000
,
0001
0000
0010
0000
,
0100
0000
0100
0000
,
1000
0000
0010
0000
,
0100
0000
0001
0000
,
1000
0000
0100
0000
,
0010
0000
0010
0000
,
0001
0000
0001
0000
,
1000
0000
1000
0000
,
0010
0000
0010
0000
,
0100
0000
0001
0000
,
1000
0000
0100
0000
,
0010
0000
0001
0000
,
1000
0000
0001
0000
,
1000
0000
1000
0000
,
0001
0000
0001
0000
,
1000
0000
1000
0000
,
0001
0000
0001
0000
,
0100
0000
0100
0000
,
0010
0000
0010
0000
,
1000
0000
0001
0000
,
1000
0001
1000
0001
,
1000
0000
0000
0000
,
0100
0000
0000
0000
,
0010
0000
0000
0000
,
0001
0000
0000
0000
,
0200
0000
0300
0000
,
0001
0000
0001
0000
,
1000
0000
1000
0000
,
0100
0000
0010
0000
,
0001
0000
0000
0000
,
1000
0000
1000
0000
,
0001
0000
0001
0000
,
0100
0000
0010
0000
,
0000
1001
0000
0000
,
0000
0000
0000
0000
,
0110
0000
0000
0000
;

//--------------- dance-single - OrangeRight ----------------
#NOTES:
     dance-single:
     OrangeRight:
     Easy:
     7:
     0,0,0,0,0:
0000
0000
0000
0000
,
0000
0000
0000
0000
,
0000
0000
0000
0000
,
1000
0100
1000
0001
,
0001
0100
0001
1000
,
1000
0100
0010
0001
,
0100
0100
0100
0001
,
1000
0010
1000
0001
,
0001
0010
0001
1000
,
1000
0010
0100
0001
,
0010
0010
0010
0001
,
1000
0001
0100
0000
,
0001
1000
0100
0000
,
1000
0001
0010
0001
,
1000
1000
1000
0010
,
0100
0001
1000
0100
,
1000
0001
2000
3000
,
0001
0100
0010
1000
,
0001
0001
0001
0010
,
0002
0000
1003
0001
,
2000
0000
3100
1000
,
0100
1000
0001
0000
,
0100
0001
1000
0000
,
0010
1000
0001
0010
,
0001
1000
0002
0003
,
1000
0010
0100
0001
,
0010
0010
0010
0100
,
2000
3000
0001
0100
,
0020
0030
0010
1000
,
0200
0300
0020
0030
,
0002
0003
1000
0001
,
2000
3000
1000
0100
,
0020
0030
0010
0001
,
0200
0300
0020
0030
,
0000
2002
0000
3003
,
1000
0100
1000
0001
,
1000
0010
0100
0100
,
0001
0010
0001
1000
,
0010
0010
0010
1000
,
0001
0100
0001
1000
,
0100
0001
0100
1000
,
0001
0100
0010
1000
,
0100
0100
0100
0010
,
0001
1000
1000
0001
,
0100
0010
1000
0100
,
0010
0001
0100
0010
,
1000
0100
0010
0001
,
1000
0010
1000
0001
,
0001
0010
0001
1000
,
0100
0001
0100
1000
,
0001
1000
0001
1000
,
0010
0100
0010
0100
,
0001
1000
0001
1000
,
0100
0010
0100
0010
,
0001
0001
1000
1000
,
0010
0010
0100
0100
,
0001
1000
0001
1000
,
0001
0000
1000
0000
0001
1000
0001
0000
,
2000
0000
3010
1000
,
0200
0000
0310
0001
,
0200
0000
0310
1000
,
0200
0000
0310
0001
,
2000
0000
3000
1000
,
0002
0003
0001
1000
,
0020
0030
0010
1000
,
0002
0003
2000
3000
,
0200
0300
0010
0001
,
2000
3000
1000
0001
,
0200
0300
0010
1000
,
0002
0003
2000
3000
,
0000
0220
0000
0000
,
0000
0000
0000
0330
,
2002
0000
0000
0000
,
3003
0000
0000
0000
;

//--------------- dance-single - OrangeRight ----------------
#NOTES:
     dance-single:
     OrangeRight:
     Medium:
     12:
     0,0,0,0,0:
0000
0000
0000
0000
,
0000
0000
0000
0000
,
0000
0000
0000
0000
,
1000
0010
1000
0000
0001
0100
0001
0100
,
0001
1000
0100
0000
1000
0100
1000
0100
,
1000
0001
0100
0000
0001
1000
0100
0000
,
1000
0001
1000
0001
1000
0001
0010
0000
,
0001
0010
0001
0000
1000
0100
1000
0100
,
1000
0001
0100
0000
0001
0100
0001
0100
,
0001
1000
0100
0000
1000
0010
1000
0000
,
0001
1000
0001
1000
0001
1000
0100
0000
,
1000
0000
0010
0100
0010
0000
1000
0000
,
0001
1000
0000
1000
0001
0000
1000
0000
,
0001
0000
0010
0100
0010
0000
0001
0000
,
1000
0001
1000
0001
1000
0001
0100
0000
,
0001
0010
0001
0000
1000
0010
1000
0000
,
0001
0100
0000
0020
0000
0000
1030
0000
,
1000
0000
0100
0010
0100
0000
1000
0000
,
0001
1000
0001
1000
0001
1000
0100
0000
,
2000
0010
0000
3010
,
1000
0100
0010
0001
,
0100
0000
0001
0100
0001
0000
0100
0000
,
0010
1000
0000
0100
0000
0010
0000
0001
,
1000
0100
1000
0000
0001
0100
0001
0000
,
1000
0010
0000
0200
0000
0000
0301
0000
,
0001
1000
0001
1000
0001
0000
1000
0000
,
0100
0010
0100
0010
0100
0010
0001
0000
,
1000
0000
0000
1000
0000
0000
1000
0000
0000
0000
0000
0000
0001
0000
0000
0000
,
0100
0000
0000
0100
0000
0000
0100
0000
0000
0000
0000
0000
0010
0000
0000
0000
,
1000
0000
0000
1000
0000
0000
1000
0000
0001
0000
0000
0001
0000
0000
0001
0000
,
1000
0000
0000
0100
0000
0000
0010
0000
0000
0000
0000
0000
0010
0000
0000
0000
,
0001
0000
0000
0001
0000
0000
0001
0000
0000
0000
0000
0000
1000
0000
0000
0000
,
0100
0000
0000
0100
0000
0000
0100
0000
0000
0000
0000
0000
0010
0000
0000
0000
,
0001
0000
0000
0100
0000
0000
0001
0000
1000
0000
0000
0100
0000
0000
1000
0000
,
0000
2002
0000
3003
,
1000
0100
0010
0000
0001
0100
0001
0000
,
0100
0010
1000
0000
0001
1000
0001
0000
,
1000
0100
1000
0000
0001
0100
0001
0000
,
1000
0010
1000
0010
1000
0010
0100
0000
,
0001
0100
0010
0000
1000
0100
1000
0000
,
0100
0010
0100
0010
0001
0000
1000
0000
,
0001
0100
0001
0000
1000
0100
1000
0000
,
0001
0010
0001
0010
0001
0010
0100
0000
,
1000
0010
0000
0010
0100
0000
0001
0000
,
1000
0000
0001
0010
0000
0010
0100
0000
,
0100
1000
0000
1000
0001
0000
0100
0010
,
1000
0001
0010
0100
,
1000
0001
1000
0000
0001
0010
0001
0010
,
0001
1000
0010
0000
1000
0100
1000
0100
,
1000
0001
0100
0000
0001
1000
0100
0000
,
1000
0001
1000
0001
1000
0001
1000
0001
,
0100
0001
0100
0001
0100
0001
0100
0001
,
0100
0010
0100
0010
0100
0010
0100
0010
,
1000
0010
1000
0010
1000
0010
1000
0010
,
1000
0001
1000
0001
1000
0100
1000
0100
,
0010
0100
0010
0100
0010
0001
0010
0001
,
1000
0010
0100
0001
1000
0100
0010
0001
,
0100
0010
0100
0010
0100
0010
1000
0000
,
0001
0010
0001
0000
0100
0001
0100
0001
,
1000
0100
1000
0000
0010
1000
0010
1000
,
0001
0010
0001
0000
0100
0001
0100
0001
,
1000
0100
0010
0001
1000
0010
0100
0001
,
2000
0000
0000
3001
,
1000
0000
0000
0100
0000
0000
0010
0000
0000
0000
0000
0000
0001
0000
0000
0000
,
0001
0000
0000
0100
0000
0000
0010
0000
0000
0000
0000
0000
1000
0000
0000
0000
,
1000
0000
0000
0100
0000
0000
1000
0000
0001
0000
0000
0100
0000
0000
0001
0000
,
1000
0000
0000
0001
0000
0000
1000
0000
0000
0000
0000
0000
0001
0000
0000
0000
,
0001
0000
0000
1000
0000
0000
0100
0000
0000
0000
0000
0000
1000
0000
0000
0000
,
1000
0000
0000
0001
0000
0000
0100
0000
0000
0000
0000
0000
0001
0000
0000
0000
,
1000
0000
0000
0100
0000
0000
0010
0000
0001
0000
0000
0100
0000
0000
0010
0000
,
0000
0220
0000
0000
,
0000
0000
0330
1000
,
2002
0000
0000
0000
,
3003
0000
0000
0000
;

//--------------- dance-single - OrangeRight ----------------
#NOTES:
     dance-single:
     OrangeRight:
     Hard:
     15:
     0,0,0,0,0:
0000
0000
0000
0000
,
0000
0000
0000
0000
,
0000
0000
0000
0000
,
1000
0010
1000
0001
0100
0001
0010
0000
,
0001
0010
0001
1000
0100
1000
0010
0000
,
0100
0010
0100
0001
1000
0001
0010
0000
,
0001
1000
0001
1000
0001
1000
0001
1000
0001
1000
0001
1000
0001
0000
0000
0000
,
0001
0010
0001
1000
0010
0100
0001
0000
,
1000
0010
1000
0001
0010
0100
1000
0000
,
0010
0100
0010
1000
0100
0010
0001
0000
,
1000
0001
1000
0001
1000
0001
1000
0001
1000
0001
1000
0001
1000
0000
0000
0000
,
1001
0000
1000
0010
0100
0001
0010
0000
,
0001
0100
0010
1000
0100
0010
0100
0000
,
1000
0001
0100
0010
0000
0010
0100
0001
,
1000
0100
1000
0100
1000
0100
1000
0100
1000
0100
1000
0100
0010
0000
0000
0000
,
0001
0010
0100
1000
0001
1000
0010
0100
,
0001
0010
0100
0020
0000
0000
0031
0000
,
1000
0010
0100
0001
0010
0001
0000
1000
,
0001
0100
0001
0100
0001
0100
0001
0100
0001
0100
0001
0100
0010
0000
0000
0000
,
2000
0000
0010
0000
0001
0000
3100
2000
,
0000
3020
0000
0230
0000
0301
1000
0001
,
0010
0100
1000
0010
2010
0000
3100
0000
,
0100
0020
0000
0032
0000
2003
0000
3010
,
1000
0100
0010
0001
1000
0010
0100
0001
,
0010
0100
0010
0002
0000
0000
1003
0000
,
1000
0010
0100
0010
1000
0100
0000
0010
,
0001
1000
0001
1000
0001
1000
0001
1000
0001
1000
0001
1000
0100
0000
0000
0000
,
1000
0000
0000
0100
0000
0000
1100
0000
0000
0000
0000
0000
1001
0000
0000
0000
,
0001
0000
0000
0100
0000
0000
0101
0000
0000
0000
0100
0000
0010
0000
1000
0000
,
0001
0000
0000
0010
0000
0000
0011
0000
0001
0000
0000
1000
0000
0000
1001
0000
,
1000
0000
0000
0100
0000
0000
1100
0000
0000
0000
1000
0000
0001
0000
1000
0000
,
0001
0000
0000
0100
0000
0000
1010
0000
0000
0000
0000
0000
1001
0000
0000
0000
,
1000
0000
0000
0100
0000
0000
0011
0000
0000
0000
0010
0000
0001
0000
1000
0000
,
0001
0000
0000
0100
0000
0000
1010
0000
1000
0000
0000
0100
0000
0000
0011
0000
,
0000
0220
0000
0330
,
0010
0100
1000
0001
1000
0010
0100
0001
,
1000
0100
0100
1000
0010
0100
0001
0010
,
0001
0000
0000
0100
0000
0000
0010
0000
1000
0000
0100
0000
1000
0000
0000
0000
,
0010
1000
0010
1000
0010
1000
0010
1000
0010
1000
0010
1000
0001
0000
0000
0000
,
1000
0100
0010
0001
1000
0001
0100
0010
,
1000
0100
1000
0100
0010
0100
1000
0001
,
0100
0000
0010
0000
1000
0000
0100
0000
0000
0100
0000
0000
1000
0000
0001
0000
,
0100
0001
0100
0001
0100
0001
0100
0001
0100
0001
0100
0001
1000
0000
0000
0000
,
0001
0010
0010
0100
0010
0010
0001
0100
,
0010
1000
1000
0100
0010
0010
0001
1000
,
0001
0100
0100
0010
1000
1000
0100
0010
,
0001
2000
0000
3002
0000
2003
0000
3001
,
1000
0000
0100
0000
0010
0000
0000
0010
0001
0000
1000
0000
0001
0000
0000
0000
,
0001
0000
0100
0000
0010
0000
0000
0010
1000
0000
0100
0000
0010
0000
0000
0000
,
0001
0000
1000
0000
0010
0000
0000
0010
0100
0000
0001
0000
0010
0000
0100
0000
,
1000
0001
1000
0001
1000
0001
1000
0001
,
1000
0010
1000
0010
1000
0010
1000
0010
,
0100
0001
0100
0001
0100
0001
0100
0001
,
1000
0100
1000
0100
1000
0100
1000
0100
,
0010
0001
0010
0001
0100
0001
0100
0001
,
0100
0010
0100
0010
1000
0010
1000
0010
,
1000
0001
1000
0001
1000
0001
1000
0001
1000
0001
1000
0001
1000
0001
1000
0001
,
1000
0001
1000
0001
1000
0001
1000
0001
1000
0001
1000
0001
0100
0000
0000
0000
,
0001
0010
0100
0010
0001
0100
0010
1000
,
0100
0010
0100
1000
0010
0100
0001
1000
,
0010
0001
0010
1000
0100
0010
0001
0100
,
0001
0010
1000
0010
0001
0100
1000
0100
,
0004
4000
0000
0000
0000
0000
0000
0000
3003
0000
0000
0000
1001
0000
0000
0000
,
0001
0000
0000
1000
0000
0000
1100
0000
0000
0000
0000
0000
1001
0000
0000
0000
,
1000
0000
0000
0001
0000
0000
0101
0000
0000
0000
0001
0000
0010
0000
0100
0000
,
1000
0000
0000
0010
0000
0000
1010
0000
1000
0000
0000
0001
0000
0000
1001
0000
,
0001
0000
0000
0100
0000
0000
0101
0000
0000
0000
0100
0000
0001
0000
1000
0000
,
0001
0000
0000
0010
0000
0000
1100
0000
0000
0000
0000
0000
1001
0000
0000
0000
,
1000
0000
0000
0010
0000
0000
0101
0000
0000
0000
0001
0000
0010
0000
0001
0000
,
1000
0000
0000
0100
0000
0000
0011
0000
0001
0000
0000
0100
0000
0000
1010
0000
,
0000
2002
0000
0000
,
0000
0000
3003
0100
,
0220
0000
0000
0000
,
0330
0000
0000
0000
;

//--------------- dance-single - OrangeRight ----------------
#NOTES:
     dance-single:
     OrangeRight:
     Challenge:
     16:
     0,0,0,0,0:
0000
0000
0000
0000
,
0000
0000
0000
0000
,
0000
0000
0000
0000
,
1000
0000
0010
1000
0000
0000
0001
0000
1000
0100
1000
0000
0001
0000
0100
0000
,
0001
0000
0010
0001
0000
0000
1000
0000
0001
0100
0001
0000
1000
0000
0100
0000
,
1000
0000
0001
0100
0000
0000
0100
0000
0001
1000
0001
0000
0010
0000
0100
0000
,
1000
0001
1000
0001
1000
0001
1000
0001
1000
0001
1000
0001
0100
0000
0000
0000
,
0001
0000
0010
0001
0000
0000
1000
0000
0001
0100
0001
0000
1000
0000
0100
0000
,
1000
0000
0010
1000
0000
0000
0001
0000
1000
0100
1000
0000
0001
0000
0100
0000
,
0001
0000
1000
0100
0000
0000
0100
0000
1000
0001
1000
0000
0010
0000
0100
0000
,
0001
1000
0001
1000
0001
1000
0001
1000
0001
1000
0001
1000
0100
0000
0000
0000
,
1100
0000
0100
1000
0010
0100
0001
0000
,
0001
0011
0000
1010
1000
0100
0010
0000
,
0001
0100
0010
1010
0000
1001
0000
0011
,
0001
0010
0001
0010
0001
0010
0001
0010
0001
0010
0001
0010
0100
0000
0000
0000
,
1000
0010
0100
0010
1000
0100
0010
0100
,
1000
0001
0100
0020
0000
1000
1030
0000
,
1000
0100
0010
0001
0100
0101
0000
1010
,
1000
0010
1000
0010
1000
0010
1000
0010
1000
0010
1000
0010
0100
0000
0000
0000
,
0102
0000
1000
0000
0010
0000
1003
1001
,
0000
1010
0000
1100
0000
1000
0001
0000
,
0100
0000
0010
1000
1010
0000
1000
0100
,
0010
0002
0000
0203
0000
2300
0000
3100
,
0001
0010
0100
0010
0001
0100
0010
0100
,
0001
1000
0100
0020
0000
0001
0031
0000
,
0001
0100
0010
1000
0100
0110
0000
1001
,
0001
1000
0001
1000
0001
1000
0001
1000
0001
1000
0001
1000
0100
0000
0000
0000
,
1100
0000
0000
1001
0000
0000
0101
0000
0000
0000
0000
0000
0110
0000
0000
0000
,
0101
0000
0000
1001
0000
0000
1100
0000
0000
0000
1000
0000
0100
0000
0010
0000
,
0011
0000
0000
1001
0000
0000
1010
0000
0110
0000
0000
0101
0000
0000
0110
0000
,
1010
0000
0000
1001
0000
0000
0011
0000
0000
0000
0001
0000
1000
0000
0001
0000
,
0101
0000
0000
1001
0000
0000
0011
0000
0000
0000
0000
0000
0110
0000
0000
0000
,
1100
0000
0000
1001
0000
0000
1010
0000
0000
0000
0010
0000
0100
0000
0001
0000
,
0011
0000
0000
1001
0000
0000
0101
0000
0110
0000
0000
1010
0000
0000
1100
0000
,
0000
0000
0000
0000
1001
0000
0000
0000
1000
0001
1000
0001
0100
0010
0100
0010
,
2000
0000
0010
0000
3010
0000
1000
0100
1000
0001
0100
0000
0001
0000
0100
0000
,
0002
0000
0010
0000
0013
0000
0001
0100
0001
1000
0100
0000
1000
0000
0001
0000
,
1000
0000
0000
0010
0000
0000
0100
0000
0001
1000
0001
0000
0010
0000
0100
0000
,
1000
0010
1000
0010
1000
0010
1000
0010
1000
0010
1000
0010
0100
0000
0000
0000
,
0002
0000
0100
0000
0103
0000
0001
0010
0001
1000
0010
0000
1000
0000
0001
0000
,
0100
0000
1000
0000
0100
0000
0001
0000
1000
0100
1000
0000
0010
0000
0100
0000
,
0001
0000
0010
0000
0100
0000
1100
0000
0000
1010
0000
0000
0010
0000
0100
0000
,
0001
0010
0001
0010
0001
0010
0001
0010
0001
0010
0001
0010
0100
0000
0000
0000
,
1000
0000
0010
1000
0010
0000
1000
0000
0001
1000
0001
0000
0010
0000
0001
0000
,
0100
0001
0100
0000
0001
0000
1000
0001
1000
0000
0010
0000
1000
0100
1000
0000
,
0001
0000
0010
0100
0010
0000
0001
0000
0100
0010
0100
0000
0001
0000
0010
0000
,
0100
2000
0000
3020
0000
0230
0000
0301
,
1000
0000
0100
1000
0000
0000
0001
0000
1000
0010
1000
0000
0001
0000
0010
0000
,
0001
0000
0100
0001
0000
0000
1000
0000
0001
0100
0001
0000
1000
0000
0010
0000
,
1000
0000
0100
0010
0000
0000
0001
0000
1000
0010
1000
0000
0001
0010
0001
0000
,
1000
0001
1000
0001
1000
0001
1000
0001
1000
0001
1000
0001
1000
0001
1000
0001
,
1000
0100
1000
0100
1000
0100
1000
0100
1000
0100
1000
0100
1000
0100
1000
0100
,
0010
0100
0010
0100
0010
0100
0010
0100
0010
0100
0010
0100
0010
0100
0010
0100
,
0010
0001
0010
0001
0010
0001
0010
0001
0010
0001
0010
0001
0010
0001
0010
0001
,
1000
0001
1000
0001
1000
0001
1000
0001
0100
0001
0100
0001
0100
0001
0100
0001
,
0100
0010
0100
0010
0100
0010
0100
0010
1000
0010
1000
0010
1000
0010
1000
0010
,
1000
0001
1000
0001
0100
0001
0100
0001
1000
0001
1000
0001
1000
0010
1000
0010
,
1000
0100
0010
0001
1000
0010
0100
0001
0010
0100
1000
0001
0100
0000
0000
0000
,
0001
0000
0100
0001
0000
0000
1000
0000
0100
1000
0100
0000
1000
0000
0001
0000
,
1000
0000
0010
1000
0000
0000
0001
0000
0010
0001
0010
0000
0001
0000
1000
0000
,
0100
0000
0010
0001
0000
0000
1000
0000
0010
0100
0001
0000
1000
0000
0001
0000
,
0010
0000
0100
1000
0000
0000
0001
0000
1000
0001
1000
0001
1000
0001
1000
0001
,
0400
0040
0000
0000
0000
0000
0000
0000
0330
0000
0000
0000
1000
0000
0000
0000
,
1010
0000
0000
0110
0000
0000
0101
0000
0000
0000
0000
0000
1001
0000
0000
0000
,
0011
0000
0000
1001
0000
0000
1100
0000
1000
0000
0010
0000
0100
0000
0001
0000
,
0101
0000
0000
1001
0000
0000
0011
0000
0110
0000
0000
1100
0000
0000
1001
0000
,
1010
0000
0000
0110
0000
0000
0101
0000
0000
0000
0001
0000
0010
0000
0001
0000
,
0011
0000
0000
0110
0000
0000
1100
0000
0000
0000
0000
0000
1001
0000
0000
0000
,
1010
0000
0000
1001
0000
0000
0101
0000
0000
0000
0001
0000
0010
0000
0100
0000
,
1100
0000
0000
0101
0000
0000
0011
0000
1010
0000
0000
1100
0000
0000
0110
0000
,
0000
2002
0000
0000
,
0000
0000
3003
0100
,
0220
0000
0000
0000
,
0330
0000
0000
0000
;
