#TITLE:Big Betrayal;
#SUBTITLE:;
#ARTIST:Deep Cut;
#TITLETRANSLIT:;
#SUBTITLETRANSLIT:;
#ARTISTTRANSLIT:;
#GENRE:;
#CREDIT:;
#MUSIC:Big Betrayal.ogg;
#BANNER:Big Betrayal.png;
#BACKGROUND:Big Betrayal-bg.png;
#LYRICSPATH:Big Betrayal.lrc;
#CDTITLE:;
#SAMPLESTART:60.028;
#SAMPLELENGTH:12.632;
#SELECTABLE:YES;
#OFFSET:0.000;
#BPMS:0.000=152.000;
#STOPS:;
#JACKET:Big Betrayal-jacket.png;
#BGCHANGES:0.000=Big Betrayal.avi=1.000=1=0=0=StretchNoLoop==CrossFade==;
#FGCHANGES:;

//--------------- dance-single - ----------------
#NOTES:
     dance-single:
     :
     Beginner:
     2:
     0,0,0,0,0:
0000
0000
0000
0000
,
0000
0000
0000
0000
,
1000
0000
1000
0000
,
0001
0000
0001
0000
,
1000
0000
1000
0000
,
0001
0000
0000
0000
,
0100
0000
0100
0000
,
0010
0000
0010
0000
,
0100
0000
0100
0000
,
0010
0000
0000
0000
,
1001
0000
0000
0000
,
0001
0000
0001
0000
,
0100
0000
0100
0000
,
0010
0000
0010
0000
,
1000
0000
1000
0000
,
0100
0000
0100
0000
,
0010
0000
0010
0000
,
0001
0000
0001
0000
,
1000
0000
1000
0000
,
1001
0000
0000
0000
,
0000
0000
0000
0000
,
0001
0000
0001
0000
,
0010
0000
0010
0000
,
0100
0000
0100
0000
,
1000
0000
1000
0000
,
0010
0000
0010
0000
,
0100
0000
0100
0000
,
0001
0000
0001
0000
,
1000
0000
1001
0000
,
1000
1000
0000
0000
,
0001
0000
0001
0000
,
0100
0100
0000
0000
,
0010
0000
0010
0000
,
0100
0000
0100
0000
,
0001
0000
0001
0000
,
1000
0000
1000
0000
,
0100
0000
0100
0000
,
0000
0000
0010
0000
,
1001
0000
1000
0000
,
0010
0000
1000
0000
,
0001
0000
0010
0000
,
0001
0000
0001
0000
,
1001
0000
1000
0000
,
0100
0000
1000
0000
,
0001
0000
0100
0000
,
0001
0000
0000
0000
,
1001
0000
1000
0000
,
0010
0000
0100
0000
,
0001
0000
0010
0000
,
0100
0000
0100
0000
,
1001
0000
0001
0000
,
0100
0000
0010
0000
,
1000
0000
1000
0000
,
0100
0000
0100
0000
,
0010
0000
0000
0000
,
1001
0000
0000
0000
,
0000
0000
0000
0000
,
0000
0000
0000
0000
,
0000
0000
0000
0000
,
0001
0000
0001
0000
,
1000
0000
1000
0000
,
0001
0000
0001
0000
,
0100
0000
0000
0000
,
0110
0000
0000
0000
;

//--------------- dance-single - ----------------
#NOTES:
     dance-single:
     :
     Easy:
     6:
     0,0,0,0,0:
0000
0000
0000
0000
,
0000
0000
0000
0000
,
0001
1000
0002
0003
,
1000
0001
2000
3000
,
0100
0010
0200
0300
,
0010
0100
0020
0030
,
0001
1000
0020
0030
,
0010
0100
0002
0003
,
0001
0010
0200
0300
,
0100
1000
0001
1000
,
2002
0000
0000
3003
,
2000
0000
0100
0000
,
0001
0000
0100
0000
,
3002
0000
0100
0000
,
1000
0000
0100
0000
,
1003
0010
1000
0000
,
0001
0100
0001
0000
,
0010
0010
0100
0000
,
1000
1000
0001
0000
,
2002
0000
0000
0000
,
0000
0000
3003
0000
,
0002
0000
0100
0000
,
0010
0000
0100
0000
,
2003
0000
0100
0000
,
0010
0000
0100
0000
,
3001
0100
0010
0010
,
1000
0100
0010
0010
,
0001
0001
1000
0000
,
0010
0010
0100
0100
,
0001
0000
0001
0000
0000
0000
0000
1001
,
0000
0000
1000
0100
,
1000
0000
1000
0000
0000
0000
0000
1001
,
0000
0000
0001
0000
,
1000
0100
0001
0000
,
0001
0100
1000
0000
,
0001
0100
1000
0000
,
1000
0100
0002
0000
,
0003
0000
1001
0000
,
1000
0010
1000
1000
,
0001
1000
0001
0001
,
1000
0100
1000
1000
,
0001
0001
0200
0300
,
0001
0100
0010
0010
,
1000
0100
0010
0010
,
0002
0103
0200
1300
,
2000
3010
0020
0031
,
0001
0010
0001
0001
,
1000
0001
1000
1000
,
0001
0100
0001
0001
,
1000
1000
0020
0030
,
1000
0010
0100
0100
,
0001
0010
0100
0100
,
2000
3100
0200
0301
,
0002
0013
0020
1030
,
1000
0000
0000
0000
,
2002
0000
0000
0000
,
0000
0000
0000
0000
,
3003
0000
0000
0000
,
1000
0100
0020
0030
,
0001
0100
0020
0030
,
1000
0001
0020
0030
,
0100
1000
0002
0003
,
0100
0010
1000
0001
,
0220
0000
0000
0000
,
0330
0000
0000
0000
;

//--------------- dance-single - ----------------
#NOTES:
     dance-single:
     :
     Medium:
     12:
     0,0,0,0,0:
0000
0000
0000
0000
,
0000
0000
0000
0000
,
1000
0001
1000
0001
0020
0000
0230
0000
,
1300
0001
1000
0001
0200
0000
0320
0000
,
1030
0100
1000
0100
2000
0000
3020
0000
,
0230
0000
0000
1000
0000
0000
0301
0000
0000
0000
0001
0000
1001
0000
0000
0000
,
0001
0010
0001
0010
0200
2300
3020
0000
,
0130
0001
0100
0001
2000
3200
0320
0000
,
0031
1000
0001
1000
0020
0230
0302
0000
,
0023
0000
0000
1000
0000
0000
0031
0000
0000
0000
0001
0000
0010
0000
0100
0000
,
2002
0000
0000
3003
,
0001
0000
0100
0000
0001
0010
0000
0010
0000
0000
0001
0000
1000
0000
0010
0000
,
0100
0000
0001
0000
1000
0010
0000
0010
0000
0000
1000
0000
0001
0000
1000
0000
,
0100
0000
0010
0000
0001
0100
0000
0100
0000
0000
0001
0000
0010
0000
0001
0000
,
1000
0000
0010
0000
1000
0100
0000
0100
0000
0000
1000
0000
0010
0000
0100
0000
,
0001
0100
0010
0100
1000
0100
0002
0000
,
1003
0100
0010
0100
0001
0100
2000
0000
,
3001
0000
1000
0000
0010
0100
0000
0100
0000
0000
0001
0000
0010
0000
0001
0000
,
1000
0000
0100
0000
0010
0001
0000
0001
0000
1000
0010
0000
0100
0000
0001
0000
,
1000
0001
1000
0000
0010
0000
0100
0000
0001
0000
0010
0000
0100
0000
1000
0000
,
0001
1000
0001
0000
0100
0000
0010
0000
1000
0000
0100
0000
0001
0000
0100
0000
,
1000
0000
0001
0000
0100
0010
0000
0010
0000
0000
1000
0000
0001
0000
0010
0000
,
0100
0000
1000
0000
0001
0010
0000
0010
0000
0000
0100
0000
1000
0000
0001
0000
,
1000
0000
0010
0000
1000
0100
0000
0100
0000
0000
1000
0000
0010
0000
1000
0000
,
0001
0000
0010
0000
0001
0100
0000
0100
0000
0000
0001
0000
0010
0000
0100
0000
,
1000
0000
0001
0000
0100
0010
0000
0110
0000
0000
0010
0000
1000
0000
1000
0000
,
0001
0000
0010
0000
0100
1000
0000
1100
0000
0000
1000
0000
0100
0000
0010
0000
,
0001
0000
1000
0000
0010
0100
0000
0100
0000
0000
0010
0000
1000
0000
0001
0000
,
0020
0000
0100
0000
0031
0000
1000
0001
0000
0001
1000
0000
0010
0000
0100
0000
,
0101
0000
0101
0000
0202
0000
0303
0000
1000
0000
0000
0100
0000
0000
1001
0000
,
0000
0000
0001
0000
0100
0000
0010
0000
2000
0000
0000
0001
0000
0000
3100
0000
,
1100
0000
1100
0000
1100
0000
0000
0000
0001
0000
0000
0100
0000
0000
1001
0000
,
0000
0001
0010
0100
1000
0010
1000
0100
,
0010
0000
0010
0000
0001
0000
0100
0000
1000
0000
0000
0100
0000
0000
0110
0000
,
0000
0000
0001
0000
1000
0000
0100
0000
0010
0000
0000
0110
0000
0000
2002
0000
,
3003
1000
0001
1000
0010
0010
1000
0002
,
0000
0013
0200
0000
1300
0001
0100
1000
,
0200
0000
0001
0000
0000
1000
0000
0000
0301
0000
0000
0000
0000
0000
0000
0000
,
0001
0000
0010
0000
0100
0000
0010
0000
0002
0000
0000
0100
0000
0000
1003
0000
,
0010
0000
0100
0000
0010
0000
1000
0000
0200
0000
0000
0010
0000
0000
1300
0000
,
0001
0000
0010
0000
0100
0000
1000
0000
0020
0000
0000
0100
0000
0000
1030
0000
,
0002
0100
2003
0100
3002
0010
2003
0010
,
3001
0000
1000
0000
0100
0000
0010
0000
0200
0000
0000
1000
0000
0000
0310
0000
,
0001
0000
0100
0000
0010
0000
0100
0000
0002
0000
0000
0010
0000
0000
1003
0000
,
0001
0100
0001
0100
0010
1000
0010
1000
,
0100
0001
0100
1000
0010
0100
0002
0000
,
0013
0000
0001
0000
0100
0000
0001
0000
2000
0000
0000
0010
0000
0000
3001
0000
,
1000
0000
0100
0000
1000
0000
0010
0000
0200
0000
0000
0001
0000
0000
0310
0000
,
1000
0000
0100
0000
0010
0000
0001
0000
2000
0000
0000
0001
0000
0000
3010
0000
,
0200
0001
0320
1000
2030
0001
3200
0010
,
1300
0000
0001
0000
0100
0000
0001
0000
0020
0000
0000
0100
0000
0000
0031
0000
,
1000
0000
0010
0000
0100
0000
0001
0000
0020
0000
0000
0100
0000
0000
0031
0000
,
1000
0100
1000
0100
0010
0001
0010
0001
,
1000
0000
0010
0000
0001
0000
0010
0000
1000
0000
0001
0000
0010
0100
0010
0000
,
0220
0000
0000
0330
,
1002
0000
0000
0100
0103
0000
0000
0000
,
2001
0000
0000
0100
3100
0000
0000
0000
,
1002
0000
0000
0000
0000
0000
0000
0000
0000
0010
0000
0000
0000
0000
0000
0000
0000
0000
1000
0000
0000
0000
0000
0000
1003
0000
0000
0000
0001
0000
0000
0000
1000
0000
0000
0000
0001
0000
0000
0000
1000
0000
0000
0000
0001
0000
0000
0000
,
0100
0000
0000
0100
0010
0000
0000
0010
1000
0000
0100
0000
0110
0000
0000
0000
,
1000
0001
1000
0001
0200
0302
0023
0000
,
0031
1000
0001
1000
0200
2300
3020
0000
,
0130
0001
0100
0001
0020
0230
2300
0000
,
3020
0000
0000
0001
0000
0000
1030
0000
0000
0000
1000
0000
0010
0000
0200
0000
,
0002
0000
0000
0303
;

//--------------- dance-single - ----------------
#NOTES:
     dance-single:
     :
     Hard:
     15:
     0,0,0,0,0:
0000
0000
0000
0000
,
0000
0000
0000
0000
,
1000
0100
0010
0100
1000
0001
0200
0000
,
0301
0100
0010
0100
0001
1000
0200
0000
,
1300
0010
0100
0010
1000
0001
0020
0000
,
0032
0000
0000
0100
0000
0000
1003
0000
0001
1000
0001
1000
0100
0010
0001
0100
,
0010
1000
0100
1000
0001
0100
2000
0000
,
3100
0001
0010
0001
1000
0100
0002
0000
,
0103
1000
0010
0100
0001
0010
2000
0000
,
3010
0000
0001
1000
0000
1000
0010
0000
0100
0001
0010
0100
1000
0010
0100
0001
,
0020
0000
0000
0000
,
0130
0000
0100
0000
1000
0002
0000
0100
0000
0100
0000
1003
0010
0000
1000
0000
,
0100
0000
0100
0000
0010
0002
0000
1000
0000
1000
0000
0103
0010
1000
0001
0000
,
0010
0000
0010
0000
0001
2000
0000
0100
0000
0100
0000
3001
0010
0000
0001
0000
,
1000
0000
1000
0000
0010
0200
0000
0001
0000
0001
0000
0310
1000
0001
0010
0100
,
1000
0000
0100
0000
0001
0000
0100
0000
1000
0000
0001
0000
0100
0000
1000
0100
,
0002
0000
0000
1003
0200
0000
0000
0301
0100
0000
1000
0000
0010
0100
0001
0000
,
0010
0000
0010
0000
0001
2000
0000
0010
0000
0010
0000
3001
0100
0000
0010
0000
,
1000
0100
1000
0000
0001
0100
0001
0100
0000
0010
0000
1000
0002
0000
0010
0000
,
1003
0010
0100
0001
0010
0100
1000
0001
0100
0001
0000
1000
0100
0000
1000
0000
,
0001
0100
0010
0100
0001
1000
0100
0000
1000
0001
1000
0001
0010
0100
1000
0010
,
0100
0000
0100
0000
0001
0020
0000
0100
0000
0130
0000
0010
0001
0000
0100
0000
,
0010
0000
0010
0000
1000
0002
0000
0010
0000
0013
0000
0001
0100
0000
0001
0000
,
1000
0000
0100
0000
0010
0200
0000
1000
0000
1300
0000
0001
0010
0000
0001
0000
,
1000
0000
1000
0000
0010
0200
0000
0001
0000
0301
0000
1000
0010
0100
0001
0000
,
1000
0000
1000
0000
0001
0020
0000
0100
0000
0031
1000
0100
0010
0000
0001
0000
,
0100
0000
0100
0000
0020
1000
0000
0100
0000
1030
0001
1000
0001
0010
0100
0000
,
1000
0000
0010
0000
1000
0002
0000
0010
0000
1003
0000
0100
0010
0000
0001
0000
,
2000
0000
0100
0000
3001
0000
0100
0010
0000
1000
0001
0010
0100
0000
1000
0000
,
1100
0000
1100
0000
1100
0000
1000
0100
0010
0000
0000
0001
0000
0000
1001
0000
,
0000
0000
1000
0000
0100
0000
0001
0000
0100
0000
1000
0000
0010
0100
0001
0000
,
0101
0000
0101
0000
0101
0000
0001
1000
0010
0000
0000
0100
0000
0000
1001
0000
,
0000
0000
0001
0000
0100
0000
1000
0000
0100
0000
0001
0000
0010
0100
1000
0001
,
0100
0000
0100
0000
0001
0000
1000
0000
0100
0000
0000
0010
0000
0000
0110
0000
,
0000
0000
0100
0000
1000
0000
0010
0000
0100
0000
0000
0110
0000
0000
1001
0000
,
0001
0100
1000
0100
0010
1000
0100
1000
,
0001
0000
0010
0000
1000
0000
0010
0000
0001
0100
0001
0000
1000
0010
0100
0001
,
0010
0000
0100
0000
0000
0110
0000
0000
1001
0000
0000
0000
0001
0010
0100
1000
,
0010
0000
0010
0000
0100
0000
0001
0000
0010
0100
0000
1000
0001
0000
0100
0000
,
1000
0000
0100
0000
0001
0000
1000
0000
0100
0000
0010
0000
0001
1000
0001
0000
,
0100
0000
0010
0000
1000
0000
0100
0000
0010
0001
0000
1000
0010
0000
1000
0000
,
0002
0100
2003
0100
3002
0010
2003
0010
,
3001
0000
0001
0000
1000
0000
0010
0000
1000
0100
0000
0010
0001
0000
0100
0000
,
0001
0000
0010
0000
1000
0000
0010
0000
0100
1000
0000
0001
0100
0000
0010
1000
,
0100
0000
0010
0000
0001
0000
0100
0020
0000
0000
0130
0000
0001
0000
1000
0000
,
0100
0000
0100
0000
1000
0001
0100
0000
0010
0000
0010
0000
0100
0001
0010
0000
,
0100
0000
1000
0000
0001
0000
0010
0000
0001
1000
0000
0010
0100
0000
0001
0000
,
1000
0000
0100
0000
0001
0000
0100
0000
1000
0000
0010
0000
1000
0001
1000
0000
,
0100
0000
1000
0000
0010
0000
0100
0000
0001
0010
0000
0100
1000
0000
0010
0000
,
0200
0001
0320
1000
2030
0001
3200
0010
,
1300
0000
1000
0000
0001
0000
0010
0000
0001
0100
0000
1000
0100
0000
0001
0000
,
0010
0000
0100
0000
1000
0000
0001
0000
0010
1000
0000
0010
0001
0000
1000
0010
,
0100
0000
0001
0000
1000
0000
0100
0020
0000
0000
0130
0000
1000
0000
0010
0000
,
0100
0000
0100
0000
0001
0010
0100
0000
1000
0000
1000
0000
0010
0100
0001
1000
,
0100
0000
0000
0000
,
1001
0000
0000
0001
0000
0000
1000
0000
0200
0000
0000
0000
0001
0000
0310
0001
,
1000
0000
0000
0000
0000
0000
0000
0000
0000
0101
0000
0000
0000
0000
0000
0000
0000
0000
1000
0000
0000
0000
0000
0000
0020
0000
0000
0000
0000
0000
0000
0000
0000
0000
0000
0000
0031
0000
0000
0000
0010
0000
0000
0000
1000
0000
0000
0000
,
0001
0000
0000
0000
0000
0000
0000
0000
0000
1100
0000
0000
0000
0000
0000
0000
0000
0000
0001
0000
0000
0000
0000
0000
1000
0000
0000
0000
0001
0000
0000
0000
0100
0000
0000
0000
0001
0000
0000
0000
1000
0000
0000
0000
0100
0000
0000
0000
,
0010
0000
0000
0001
0100
0000
0001
0000
1000
0010
0100
0001
0020
0000
0000
0000
,
0130
0001
0100
1000
0001
0100
0010
0010
,
1000
0010
0001
0010
0100
0001
0010
0010
,
0100
1000
0001
0100
1000
0100
0010
0010
,
2000
0000
0000
0100
0000
0000
3001
0000
1000
0001
1000
0001
0010
0100
1000
0010
,
0200
0000
0000
0000
,
0300
0000
0000
0000
;
