#TITLE:Betty Boo;
#SUBTITLE:;
#ARTIST:SENAX;
#TITLETRANSLIT:;
#SUBTITLETRANSLIT:;
#ARTISTTRANSLIT:;
#GENRE:;
#CREDIT:;
#MUSIC:Betty Boo.ogg;
#BANNER:Betty Boo.png;
#BACKGROUND:Betty Boo-bg.png;
#CDTITLE:;
#SAMPLESTART:51.578;
#SAMPLELENGTH:15.868;
#SELECTABLE:YES;
#OFFSET:1.976;
#BPMS:0.000=121.000;
#STOPS:;
#BGCHANGES:;
#FGCHANGES:;

//--------------- dance-single - OrangeRight ----------------
#NOTES:
     dance-single:
     OrangeRight:
     Beginner:
     2:
     0,0,0,0,0:
0000
0000
0000
0000
,
0000
0000
0000
0000
,
0000
0000
0000
0000
,
1000
0000
0000
0000
,
0001
0000
0000
0000
,
1000
0000
0000
0000
,
0001
0000
0000
0000
,
0100
0000
0000
0000
,
0010
0000
0000
0000
,
1000
0000
1000
0000
,
0001
0000
0001
0000
,
1000
0000
0000
0000
,
1000
0000
0000
0000
,
1000
0000
0000
0000
,
1001
0000
0000
0000
,
0001
0000
0000
0000
,
0001
0000
0000
0000
,
0001
0000
0000
0000
,
1001
0000
0000
0000
,
1000
0000
0000
0000
,
0100
0000
0000
0000
,
1000
0000
0000
0000
,
0001
0000
0000
0000
,
0001
0000
0000
0000
,
0010
0000
0000
0000
,
0001
0000
0000
0000
,
1000
0000
0001
0000
,
1001
0000
0000
0000
,
1000
0000
0000
0000
,
0100
0000
0100
0000
,
1000
0000
0000
0000
,
1001
0000
0000
0000
,
0001
0000
0000
0000
,
0100
0000
0100
0000
,
0001
0000
0000
0000
,
1000
1000
1000
0000
,
1000
0000
0000
0000
,
0100
0000
0010
0000
,
0001
0000
0000
0000
,
0001
0001
0001
0000
,
0001
0000
0000
0000
,
0100
0000
0010
0000
,
1000
0000
0001
0000
,
1000
0000
0100
0000
,
1000
0000
0000
0000
,
0001
0000
0100
0000
,
0001
0000
0000
0000
,
0100
0000
0010
0000
,
1000
0000
0100
0000
,
0010
0000
0001
0000
,
1000
0000
0000
0000
,
1000
0000
0001
0000
,
1000
0000
0000
0000
0000
0000
0000
1001
;

//--------------- dance-single - OrangeRight ----------------
#NOTES:
     dance-single:
     OrangeRight:
     Easy:
     5:
     0,0,0,0,0:
0000
0000
0000
0000
,
0000
0000
0000
0000
,
0000
0000
0000
0000
,
1000
0000
1000
1000
,
0001
0000
0001
0001
,
1000
0000
0100
0100
,
0010
0000
0001
0001
,
2000
3000
0001
1000
,
0002
0003
1000
0001
,
2000
3000
0002
0003
,
1000
0100
0010
0001
,
1000
0000
1000
0000
,
0010
0000
0100
0000
,
0001
0000
1000
0001
,
2000
0000
3000
0000
,
0001
0000
0001
0000
,
0010
0000
0100
0000
,
1000
0000
0001
1000
,
0002
0000
0003
0000
,
1000
0100
1000
0000
,
1000
0001
1000
0000
,
0001
0100
0001
0000
,
1000
1000
2000
3000
,
0001
0010
0001
0000
,
0001
1000
0001
0000
,
1000
0100
1000
0000
,
1001
0000
1001
0000
,
1000
1000
0010
0010
,
0100
0001
1000
0000
,
0002
0003
2000
3000
,
0001
1000
0002
0003
,
0001
0001
0010
0010
,
0100
1000
0001
0000
,
2000
3000
0002
0003
,
1000
0100
0010
0001
,
1000
0010
0010
1000
,
0001
0010
0100
0000
,
2000
3000
0002
0003
,
0100
0010
0200
0300
,
0001
0010
0010
0001
,
1000
0010
0100
0000
,
0002
0003
2000
3000
,
1000
0100
0010
0001
,
2000
0000
0010
0000
,
0001
0000
0100
3000
,
1000
0001
1000
0000
,
0001
0100
0001
0000
,
0002
0000
0010
0000
,
1000
0000
0100
0003
,
0001
0010
0100
1000
,
0002
0003
2000
3000
,
0001
0001
1000
1000
,
0010
0000
0000
0000
0100
0000
0000
2002
,
0000
0000
0000
0000
,
0000
0000
3003
0000
;

//--------------- dance-single - OrangeRight ----------------
#NOTES:
     dance-single:
     OrangeRight:
     Medium:
     7:
     0,0,0,0,0:
0000
0000
0000
0000
,
0000
0000
0000
0000
,
0000
0000
0000
0000
,
1000
0100
0010
0001
,
1000
0010
0100
0001
,
0010
0100
1000
0001
,
0100
0010
1000
0001
,
2000
0100
0000
3100
,
0002
0100
0000
0103
,
2000
0010
3002
0010
,
2003
3200
0320
0032
,
1003
0001
1000
0000
0100
0000
0010
0000
,
0001
1000
0001
0000
0100
0000
0010
0000
,
1000
0100
1000
0000
0001
0000
0100
0000
,
0002
1000
1000
1003
,
0001
1000
0001
0000
0100
0000
0001
0000
,
1000
0001
1000
0000
0100
0000
1000
0000
,
0001
0010
0001
0000
1000
0000
0010
0000
,
2000
0001
0001
3001
,
1000
0100
1000
0000
0010
0000
0010
0000
,
0100
0001
0100
0000
0010
0000
1000
0000
,
0001
0100
0001
0000
0010
0000
0010
0000
,
0001
1000
0001
1000
0010
0000
1000
0000
,
0001
0010
0001
0000
0100
0000
0100
0000
,
0010
1000
0010
0000
0100
0000
0001
0000
,
1000
0100
1000
0000
0001
0000
1000
0000
,
1001
0110
0110
1001
,
2001
0000
3010
0000
0010
1000
0010
0000
,
1000
0100
1000
0100
0010
0000
0001
0000
,
2000
3010
0200
0301
,
0001
0000
1000
0000
0001
1000
0001
0000
,
1002
0000
0013
0000
0010
0100
0010
0000
,
0001
0100
0001
0100
0010
0000
1000
0000
,
0002
0013
0200
1300
,
1000
0100
1000
0000
0001
0100
0001
0000
,
0102
0000
1003
0000
1000
0100
1000
0000
,
0010
0100
0010
0100
0001
0000
1000
0000
,
0200
0310
0002
1003
,
0001
0000
0100
0000
0001
1000
0100
0000
,
2100
0000
3001
0000
0001
0100
0001
0000
,
0010
0100
0010
0100
1000
0000
0001
0000
,
0200
0310
2000
3001
,
1000
0100
1000
0000
0001
0100
0001
0000
,
2000
0010
0001
0100
,
3001
1000
1000
0000
0100
0010
0001
0000
,
1000
0000
1001
0000
1000
0010
1000
0000
,
0001
0010
0010
0000
0100
1000
0001
0100
,
0002
0010
1000
0100
,
2003
3020
0230
0302
,
1003
0100
1000
0000
0001
0100
0001
1000
,
0010
0000
1000
0001
0010
0001
1000
0000
,
1001
0110
0110
1001
,
1000
0100
0010
0001
1000
0000
0000
0220
,
0000
0000
0000
0000
,
0000
0000
0330
0000
;

//--------------- dance-single - OrangeRight ----------------
#NOTES:
     dance-single:
     OrangeRight:
     Hard:
     12:
     0,0,0,0,0:
0000
0000
0000
0000
,
0000
0000
0000
0000
,
0000
0000
0000
0000
,
1000
0000
0100
0000
0010
0000
0001
0000
1000
0000
0100
0000
0000
1000
0000
0000
,
0001
0000
0100
0000
0010
0000
1000
0000
0001
0000
0100
0000
0000
0001
0000
0000
,
1000
0000
0001
0000
0010
0000
0100
0000
1000
0000
0001
0000
0000
0010
0000
0000
,
0001
0000
1000
0000
0010
0000
0100
0000
0001
0000
1000
0000
0000
0100
0000
0000
,
2100
0000
0000
0000
0001
0000
0000
0000
3010
0000
1010
0000
0000
1001
0000
0000
,
0012
0000
0000
0000
1000
0000
0000
0000
0103
0000
0101
0000
0000
1001
0000
0000
,
2100
3010
0102
0013
,
0011
1010
1100
0101
,
0001
0000
0010
0000
0100
0000
0010
0000
0001
0000
1000
0100
0000
1000
0000
0000
,
1000
0000
0100
0000
0010
0000
0100
0000
1000
0000
0001
0100
0000
0001
0000
0000
,
0001
0000
0010
0000
1000
0000
0010
0000
0001
0000
0100
0000
0010
1000
0000
0000
,
2010
0000
0001
0000
3100
1000
0100
0000
,
1000
0000
0010
0000
0100
0000
0010
0000
1000
0000
0001
1000
0000
0001
0000
0000
,
0001
0000
0010
0000
0100
0000
0010
0000
0001
0000
1000
0001
0000
1000
0000
0000
,
1000
0000
0100
0000
0001
0000
0100
0000
1000
0000
0010
0000
0100
0001
0000
0000
,
0102
0000
1000
0000
0013
0001
0010
0000
,
0001
0000
0100
0000
0010
0000
0000
0000
1000
0000
0000
0100
0000
0100
1000
0000
,
0010
0000
0100
0000
0001
1000
0000
0000
0001
0000
0010
0000
0100
0000
0000
0000
,
1000
0000
0010
0000
0100
0000
0000
0000
0001
0000
0000
0010
0000
0010
0001
0000
,
1000
0010
1000
0001
1000
0100
0010
0000
,
0001
0000
0100
0000
0010
0000
0000
0000
1000
0000
0000
0001
0000
0001
1000
0000
,
0010
0000
1000
0000
0001
1000
0000
0000
0001
0000
0010
0000
0100
0000
0000
0000
,
1000
0000
0010
0000
0100
0000
0000
0000
0001
0000
0000
1000
0000
1000
0001
0000
,
1001
0011
1010
1100
,
1010
0000
0000
0000
0101
0000
0000
0000
0001
0010
0000
0010
0001
0000
1000
0000
,
0010
0000
0100
0000
0001
0000
1000
0000
0100
0010
0000
0010
0100
0000
0000
0000
,
1000
0000
0000
1000
0010
0000
0100
0000
0001
0000
0000
0001
0010
0000
0100
0000
,
1000
0000
0010
0000
0001
0000
0010
0000
1000
0000
0100
0000
0010
0001
0000
0000
,
0011
0000
0000
0000
1100
0000
0000
0000
1000
0010
0000
0010
1000
0000
0001
0000
,
0010
0000
0100
0000
1000
0000
0010
0000
0100
0001
0000
0001
0100
0000
0000
0000
,
0001
0000
0000
0001
0010
0000
0100
0000
1000
0000
0000
1000
0010
0000
0100
0000
,
0001
0000
1000
0000
0100
0000
0010
0001
0000
0001
0000
1000
0010
0000
0000
0000
,
1010
0000
0000
0000
1100
0000
0000
0000
1000
0001
0000
0001
0010
0000
0001
0000
,
0100
0000
0010
0000
1000
0000
0001
0000
1000
0000
0100
0010
0100
0000
1000
0000
,
0001
0000
0000
0001
1000
0000
0010
0000
1000
0000
0000
1000
0001
0000
0010
0000
,
0001
0000
0100
0000
1000
0000
0100
0000
0001
0000
1000
0000
0010
0100
0000
0000
,
0101
0000
0000
0000
0011
0000
0000
0000
0001
1000
0000
1000
0010
0000
1000
0000
,
0100
0000
0001
0000
0100
0000
1000
0000
0010
0000
0100
0001
0100
0000
0010
0000
,
1000
0000
0000
0100
0010
0000
0001
0000
1000
0000
0000
0010
0100
0000
0001
0000
,
1000
0000
0001
0000
0010
0000
0001
0100
0000
0010
0000
1000
0100
0000
0000
0000
,
1000
0000
0010
0000
1010
0000
0000
0000
0110
0000
0000
0101
0000
0000
0001
0000
,
0010
0000
0001
0000
0001
0000
0000
0100
0010
0000
1000
0000
0100
0000
1000
0000
,
0001
0000
0012
0000
1003
0100
0010
0001
,
0100
0000
0010
0000
0010
0000
0000
1000
0001
1000
0000
0100
0000
0010
0000
0000
,
0001
0000
0100
0000
0101
0000
0000
0000
1001
0000
0000
1010
0000
0000
1000
0000
,
0100
0000
1000
0000
1000
0000
0000
0001
1000
0000
0010
0000
0100
0000
0001
0000
,
1000
0000
2100
0000
3001
0010
0100
1000
,
0001
0000
1000
0000
0010
0000
0000
1000
0001
1000
0000
0100
0000
0010
0000
0000
,
0011
0101
1100
1010
,
1000
0000
0100
0000
0010
0000
0001
1000
0001
1000
0000
0010
0000
0000
0220
0000
,
0000
0000
0000
0000
,
0000
0000
0330
0000
;

//--------------- dance-single - OrangeRight ----------------
#NOTES:
     dance-single:
     OrangeRight:
     Challenge:
     14:
     0,0,0,0,0:
0000
0000
0000
0000
,
0000
0000
0000
0000
,
0000
0000
0000
0000
,
1000
0000
0100
0000
0010
0000
0001
0000
1000
0000
1010
0000
0000
0011
0000
0000
,
0001
0000
0100
0000
0010
0000
1000
0000
0001
0000
0011
0000
0000
1010
0000
0000
,
1001
0000
0001
0000
0010
0000
0100
0000
1000
0000
1100
0000
0000
0101
0000
0000
,
1001
0000
1000
0000
0010
0000
0100
0000
0001
0000
0101
0000
0000
1100
0000
0000
,
1010
0000
0010
0000
0100
0000
0001
0010
0000
0001
0000
1000
0000
0010
0100
0000
,
0101
0000
0100
0000
0010
0000
1000
0100
0000
1000
0000
0001
0000
0100
0010
0000
,
1010
1000
0001
0010
0011
0001
1000
0100
,
1100
0100
0110
0010
0011
2002
0000
3003
,
1000
0000
0010
0000
1000
0000
0001
0000
1000
0100
1000
0001
0000
0011
0000
0000
,
0001
0000
0100
0000
0001
0000
1000
0000
0001
0010
0001
1000
0000
1100
0000
0000
,
1000
0000
0001
0100
0001
0000
1000
0100
1000
0100
1000
0010
0100
0001
0000
0000
,
1001
0000
0001
0000
0010
0000
0100
1000
0000
0001
0000
1000
0000
0010
0100
0000
,
0001
0000
0010
0000
0001
0000
1000
0000
0001
0000
0100
0010
0000
1010
0000
0000
,
1000
0000
0100
0000
1000
0000
0001
0000
1000
0000
0010
0100
0000
0101
0000
0000
,
0001
0000
1000
0100
1000
0000
0001
0100
0010
1000
0100
0010
0001
1000
0000
0000
,
1001
0000
0001
0000
0010
0000
0100
1000
0000
0001
0000
0100
0000
0010
1000
0000
,
0001
0000
0010
0000
0010
0000
0000
0000
0001
0000
0100
0010
0000
0010
1000
0001
,
1000
0000
0100
0000
0010
0001
0000
0000
0001
1000
0010
0200
0000
0000
0301
0000
,
1000
0000
0010
0000
0010
0000
0000
0000
1000
0000
0100
0010
0000
0010
0001
1000
,
0001
0000
1000
0100
1000
0000
0001
0100
0001
1000
0000
0100
0000
0010
0001
0000
,
1000
0000
0010
0000
0010
0000
0000
0000
1000
0000
0100
0010
0000
0010
0001
1000
,
0001
0000
0100
0000
0010
1000
0000
0000
1000
0001
0010
0200
0000
0000
1300
0000
,
0001
0000
0010
0000
0010
0000
0000
0000
0001
0000
0100
0010
0000
0010
1000
0000
,
1010
1100
0101
0011
,
1010
0000
0001
0000
0011
0000
1000
0000
0001
0100
0000
0010
0000
2000
0000
0000
,
3001
0000
0010
0000
1000
0000
0010
0000
0001
1000
0000
0010
0000
0100
0000
0001
,
2000
0000
0000
0000
0000
0000
0000
0000
0000
0001
0000
0000
0000
0000
0000
0000
0000
0000
0100
0000
0000
0000
0000
0000
3002
0000
0000
0000
0000
0000
0000
0000
0000
1000
0000
0000
0000
0000
0000
0000
0000
0000
0103
0000
0000
0000
0001
0000
,
1000
0000
0100
0000
0001
0000
0100
0000
0010
0000
0100
0000
1000
0001
0000
0000
,
0011
0000
1000
0000
1010
0000
0001
0000
1000
0100
0000
0010
0000
0002
0000
0000
,
1003
0000
0010
0000
0001
0000
0010
0000
1000
0001
0000
0010
0000
0100
0000
1000
,
0002
0000
0000
0000
0000
0000
0000
0000
0000
1000
0000
0000
0000
0000
0000
0000
0000
0000
0100
0000
0000
0000
0000
0000
2003
0000
0000
0000
0000
0000
0000
0000
0000
0001
0000
0000
0000
0000
0000
0000
0000
0000
3100
0000
0000
0000
1000
0000
,
0001
0000
0010
0000
0100
1000
0100
1000
0000
0001
0000
0100
0001
0100
0000
0000
,
0101
0000
1000
0000
1100
0000
0001
0000
1000
0001
1000
0001
0100
0010
0000
0010
,
1000
0000
0100
0000
0001
0000
0100
0000
1000
0010
1000
0010
0100
0001
0000
0001
,
0020
0000
0000
0000
0000
0000
0000
0000
0000
0001
0000
0000
0000
0000
0000
0000
0000
0000
1000
0000
0000
0000
0000
0000
0230
0000
0000
0000
0000
0000
0000
0000
0000
1000
0000
0000
0000
0000
0000
0000
0000
0000
0301
0000
0000
0000
0100
0000
,
0010
0000
0001
0000
1000
0000
0001
0000
0100
0000
0010
0000
1000
0100
0000
0000
,
1100
0000
0001
0000
0101
0000
1000
0000
0001
1000
0001
1000
0010
0100
0000
0100
,
0001
0000
0100
0000
1000
0000
0100
0000
0001
1000
0100
0010
0001
1000
0000
1000
,
0020
0000
0000
0000
0000
0000
0000
0000
0000
1000
0000
0000
0000
0000
0000
0000
0000
0000
0001
0000
0000
0000
0000
0000
0230
0000
0000
0000
0000
0000
0000
0000
0000
0001
0000
0000
0000
0000
0000
0000
0000
0000
1300
0000
0000
0000
0100
0000
,
0010
0000
1000
0000
0001
0010
0001
0010
0000
0001
0000
1000
0010
0100
0000
0001
,
1000
0000
0100
0000
0010
0000
0100
1000
0001
0100
0000
0010
1000
0000
0001
0000
,
1000
0000
0100
0000
0100
0000
0010
0001
0100
0010
0000
1000
0000
0001
0010
0000
,
0001
0000
0100
0000
0010
0000
0100
0001
1000
0100
0000
0010
0001
0000
0100
0000
,
0010
0000
1000
0000
1000
0000
0001
0010
0100
1000
0000
0001
0000
1000
0010
0000
,
0100
0000
0001
0000
0011
0000
0010
0100
1000
0010
0000
0010
1000
0000
0001
0000
,
0100
0000
0010
0000
1010
0000
1000
0010
1000
0001
0000
1000
0000
0100
0010
0000
,
0100
0000
1000
0000
1010
0000
0010
0100
0001
0010
0000
0010
0001
0000
0100
0001
,
1000
0100
0010
0000
0011
0000
0001
0100
0010
1000
0000
0001
0000
0010
0100
0000
,
1100
0001
0101
0010
0011
1000
1010
0001
,
1001
0000
0110
0000
1001
0000
1000
0010
0100
0001
0000
0110
0000
0000
2002
0000
,
0000
0000
0000
0000
,
0000
0000
3003
0000
;

//--------------- dance-double - OrangeRight ----------------
#NOTES:
     dance-double:
     OrangeRight:
     Easy:
     5:
     0,0,0,0,0:
00000000
00000000
00000000
00000000
,
00000000
00000000
00000000
00000000
,
00000000
00000000
00000000
00000000
,
00100000
00000000
00000000
00000000
,
00000010
00000000
00000000
00000000
,
01000000
00000000
00000000
00000000
,
00000100
00000000
00000000
00000000
,
00100000
00000000
00010000
00000000
,
01000000
00000000
00001000
00000000
,
00010000
00000000
00010000
00000000
,
00001000
00010000
00001000
00010000
,
00000100
00000000
00000100
00001000
,
00000001
00000000
00000001
00001000
,
00000010
00000000
00000010
00010000
,
00022000
00033000
00000000
00001000
,
01000000
00000000
01000000
00010000
,
10000000
00000000
10000000
00010000
,
00100000
00000000
00100000
00001000
,
00022000
00033000
00000000
00010000
,
00001000
00001000
00010000
00010000
,
00001000
00100000
00020000
00030000
,
00010000
00010000
01000000
01000000
,
00001000
00001000
00002000
00003000
,
00010000
00010000
00001000
00001000
,
00010000
00000010
00002000
00003000
,
00001000
00001000
00000001
00000001
,
00001001
00000000
00001001
00000000
,
00000001
00000001
00000100
00000100
,
00000010
00001000
00000100
00000000
,
00000200
00000300
00020000
00030000
,
00001000
00010000
00001000
00010000
,
00001000
00001000
00100000
00100000
,
00010000
01000000
00010000
00000000
,
20000000
30000000
00020000
00030000
,
01000000
00100000
10000000
00010000
,
10000000
10000000
01000000
01000000
,
00100000
00010000
01000000
00000000
,
02000000
03000000
00002000
00003000
,
00010000
00001000
00010000
00001000
,
00010000
00010000
00000010
00000010
,
00001000
00000100
00001000
00000000
,
00000002
00000003
00002000
00003000
,
00000010
00000100
00000001
00001000
,
00000100
00000100
00001000
00000001
,
00000100
00000100
00000001
00001000
,
00000100
00000000
00010000
00001000
,
00100000
00000000
00010000
00000000
,
01000000
01000000
00010000
10000000
,
01000000
01000000
10000000
00010000
,
01000000
00000000
00001000
00010000
,
00001000
00000000
00010000
00000000
,
00011000
00000000
00011000
00000000
,
00010000
00000000
00000100
00000000
00001000
00000000
00000000
00002002
,
00000000
00000000
00000000
00000000
,
00000000
00000000
00003003
00000000
;

//--------------- dance-double - OrangeRight ----------------
#NOTES:
     dance-double:
     OrangeRight:
     Medium:
     8:
     0,0,0,0,0:
00000000
00000000
00000000
00000000
,
00000000
00000000
00000000
00000000
,
00000000
00000000
00000000
00000000
,
00100000
00010000
01000000
01000000
,
00010000
00100000
00001000
00001000
,
00010000
00000100
00001000
00001000
,
00000010
00001000
00000100
00000100
,
00020000
00001000
00000000
00031000
,
00002000
00010000
00000000
00013000
,
00020000
00031000
00002000
00103000
,
00200000
00320000
02030000
03200000
,
10300000
00010000
10000000
00000000
00010000
00000000
01000000
00000000
,
00100000
10000000
00100000
00000000
01000000
00000000
00010000
00000000
,
00100000
00001000
00100000
00000000
00001000
00010000
00000100
00000000
,
00002200
00000000
00003300
00000100
,
00001000
00000001
00001000
00000000
00000010
00000000
00000100
00000000
,
00000001
00000010
00000001
00000000
00001000
00000000
00000100
00000000
,
00001000
00000010
00001000
00000000
00000100
00010000
00001000
00000000
,
00022000
00000000
00033000
00001000
,
00100000
00010000
00100000
00000000
00010000
00000000
01000000
00000000
,
00010000
01000000
00001000
00010000
00000100
00000000
00001000
00000000
,
00000010
00001000
00000010
00000000
00001000
00000000
00000100
00000000
,
00010000
00000100
00010000
00000100
00001000
00000000
00000010
00000000
,
00000100
00000001
00000100
00000000
00000001
00000000
00001000
00000000
,
00000100
00010000
00001000
00000000
00010000
00001000
00100000
00000000
,
00010000
01000000
00010000
00000000
10000000
00000000
00010000
00000000
,
10010000
01100000
01100000
10010000
,
10020000
00000000
01030000
00000000
00010000
01000000
00010000
00000000
,
01000000
00001000
01000000
00001000
00010000
00000000
00001000
00000000
,
00020000
00030100
00000200
00001300
,
00001000
00000010
00001000
00000010
00000100
00000001
00001000
00000000
,
00002001
00000000
00003100
00000000
00001000
00000100
00001000
00000000
,
00000100
00010000
00000100
00010000
00001000
00000000
00010000
00000000
,
00002000
01003000
02000000
03010000
,
00010000
00100000
00010000
10000000
00100000
00000000
01000000
00000000
,
01020000
00000000
10030000
00000000
10000000
00010000
00100000
00000000
,
00010000
00100000
00010000
00100000
00001000
00010000
00001000
00000000
,
00020000
00030100
00000200
00001300
,
00001000
00000001
00001000
00000001
00000100
00000010
00000100
00000000
,
00000102
00000000
00001003
00000000
00000001
00001000
00000010
00000000
,
00001000
00000100
00010000
00001000
00100000
00010000
01000000
00000000
,
00020000
00130000
02000000
13000000
,
10000000
00100000
10000000
00010000
10000000
01000000
00100000
00000000
,
00020000
01000000
10000000
00100000
,
10030000
00010000
00010000
00000000
00100000
00001000
00010000
00000000
,
00001000
00000000
00011000
00000000
00010000
00000100
00010000
00000000
,
00000100
00001000
00001000
00000000
00000010
00001000
00000010
00000000
,
00002000
00000100
00000001
00000010
,
00003002
00000023
00000230
00002300
,
00003100
00010000
00001000
00000000
00010000
00001000
01000000
00010000
,
01000000
00000000
00010000
00000000
00100000
00001000
00010000
00000000
,
00001000
00101000
00010000
00010100
,
00000100
00001000
00000001
00001000
00000010
00000000
00000000
00000220
,
00000000
00000000
00000000
00000000
,
00000000
00000000
00000330
00000000
;

//--------------- dance-double - OrangeRight ----------------
#NOTES:
     dance-double:
     OrangeRight:
     Hard:
     11:
     0,0,0,0,0:
00000000
00000000
00000000
00000000
,
00000000
00000000
00000000
00000000
,
00000000
00000000
00000000
00000000
,
10000000
00000000
01000000
00000000
00100000
00000000
00010000
00000000
10000000
00000000
01000000
00000000
00000000
10000000
00000000
00000000
,
00010000
00000000
01000000
00000000
00001000
00000000
00100000
00000000
00010000
00000000
01000000
00000000
00000000
00001000
00000000
00000000
,
00010000
00000000
00000100
00000000
00001000
00000000
00000010
00000000
00010000
00000000
00000100
00000000
00000000
00010000
00000000
00000000
,
00000100
00000000
00001000
00000000
00000010
00000000
00010000
00000000
00000100
00000000
00001000
00000000
00000000
00000100
00000000
00000000
,
00002100
00000000
00000000
00000000
00000001
00000000
00000000
00000000
00003010
00000000
00001000
00000000
00000000
00000001
00000000
00000000
,
00000012
00000000
00000000
00000000
00001000
00000000
00000000
00000000
00000103
00000000
00000001
00000000
00000000
00001000
00000000
00000000
,
00001200
00010300
00012000
00103000
,
00101000
01001000
00010100
00010010
,
00010000
00000000
00001000
00000000
00100000
00000000
00010000
00000000
00100000
00000000
00001000
01000000
00000000
00010000
00000000
00000000
,
00100000
00000000
00010000
00000000
01000000
00000000
00001000
00000000
00010000
00000000
00001000
00100000
00000000
00010000
00000000
00000000
,
00100000
00001000
00010000
00000100
00001000
00000010
00001000
00000000
,
00001200
00000000
00010000
00000000
00001300
00000100
00010000
00000000
,
00001000
00000000
00010000
00000000
00000010
00000000
00001000
00000000
00000010
00000000
00010000
00000100
00000000
00001000
00000000
00000000
,
00000010
00000000
00001000
00000000
00000100
00000000
00010000
00000000
00001000
00000000
00010000
00000010
00000000
00001000
00000000
00000000
,
00000010
00010000
00001000
01000000
00010000
00100000
00010000
00000000
,
02010000
00000000
00100000
00000000
03010000
00100000
01000000
00000000
,
10000000
00000000
01000000
00000000
01000000
00000000
00000000
00000000
00100000
00000000
00000000
00010000
00000000
00000000
01000000
00000000
,
00001000
00000000
00010000
00000000
00000100
00000000
00001000
00000000
00000010
00000000
00010000
00001000
00000000
00000000
00100000
00000000
,
00001000
00000000
00010000
00000000
00010000
00000000
00000000
00000000
00000100
00000000
00000000
00001000
00000000
00000000
00000010
00000000
,
00000100
00000001
00000100
00000010
00000100
00000001
00001000
00000000
,
00000001
00000000
00000100
00000000
00000100
00000000
00000000
00000000
00000010
00000000
00000000
00001000
00000000
00000000
00000100
00000000
,
00010000
00000000
00001000
00000000
01000000
00000000
00010000
00000000
00100000
00000000
00001000
00010000
00000000
00000000
00000010
00000000
,
00010000
00000000
00001000
00000000
00001000
00000000
00000000
00000000
01000000
00000000
00000000
00010000
00000000
00000000
00100000
00000000
,
00110000
10100000
11000000
01010000
,
00110000
00000000
11000000
00000000
01000000
10000000
00100000
01000000
,
00010000
00100000
10000000
00100000
00010000
01000000
00001000
00000000
,
00010000
00000000
00000000
00010000
00000100
00000000
00001000
00000000
00000010
00000000
00000000
00000010
00000100
00000000
00000001
00000000
,
00001000
00000000
00000100
00000000
00000010
00000000
00000001
00000000
00000100
00000000
00000010
00000000
00001000
00000010
00000000
00000000
,
00001010
00000000
00000101
00000000
00000100
00000001
00000010
00000100
,
00001000
00000010
00000001
00000010
00001000
00000100
00010000
00000000
,
00001000
00000000
00000000
00001000
01000000
00000000
00010000
00000000
00100000
00000000
00000000
00100000
01000000
00000000
10000000
00000000
,
00010000
00000000
01000000
00000000
00100000
00000000
10000000
00010000
00000000
00010000
00000000
00010000
10000000
00000000
00000000
00000000
,
11000000
00000000
00000000
00000000
00110000
00000000
00000000
00000000
00010000
01000000
00000000
01000000
00010000
00000000
00100000
00000000
,
00001000
00000000
00010000
00000000
01000000
00000000
00010000
00000000
00001000
00010000
00000000
00010000
00001000
00000000
00000000
00000000
,
00001000
00000000
00000000
00001000
00010000
00000000
00000100
00000000
00001000
00000000
00000000
00001000
00000010
00000000
00000100
00000000
,
00000001
00000000
00000010
00000000
00001000
00000000
00000010
00000000
00000100
00000000
00000010
00000000
00000001
00000100
00000000
00000000
,
00000101
00000000
00000000
00000000
00001010
00000000
00000000
00000000
00001000
00000100
00000000
00000100
00001000
00000000
00000010
00000000
,
00010000
00000000
00001000
00000000
00000100
00000000
00001000
00000000
00010000
00001000
00000000
00001000
00010000
00000000
00000000
00000000
,
00010000
00000000
00000000
00010000
00001000
00000000
01000000
00000000
00010000
00000000
00000000
00010000
00100000
00000000
00001000
00000000
,
00010000
00000000
00000100
00000000
00001000
00000000
00000010
00000100
00000000
00000100
00000000
00000100
00000001
00000000
00000000
00000000
,
00001000
00000000
00000100
00000000
00000001
00000000
00000000
00000000
00000100
00000000
00000000
00001000
00000000
00000000
00000010
00000000
,
00000100
00000000
00000001
00000000
00000001
00000000
00000000
00000010
00000100
00000000
00001000
00000000
00000010
00000000
00010000
00000000
,
00001000
00000000
00000000
00000000
00101000
00000000
00000000
00001000
00010000
00000000
00000010
00000000
00001000
00000000
00000000
00000000
,
00000100
00000000
00010000
00000000
00010000
00000000
00000000
00001000
00100000
00001000
00000000
00100000
00000000
00010000
00000000
00000000
,
00010000
00000000
01000000
00000000
10000000
00000000
00000000
00000000
01000000
00000000
00000000
00010000
00000000
00000000
00100000
00000000
,
00110000
10100000
11000000
01010000
,
00010000
00000000
00101000
00000000
00001000
00010000
00000100
00001000
,
00000010
00000000
00000100
00000000
00000100
00000000
00000000
00000001
00000010
00000001
00000000
00001000
00000000
00000010
00000000
00000000
,
00001010
00010100
00101000
01010000
,
00010000
00000000
00100000
00000000
01000000
00000000
10000000
00010000
10000000
00010000
00000000
01000000
00000000
00000000
02200000
00000000
,
00000000
00000000
00000000
00000000
,
00000000
00000000
03300000
00000000
;

//--------------- dance-double - OrangeRight ----------------
#NOTES:
     dance-double:
     OrangeRight:
     Challenge:
     14:
     0,0,0,0,0:
00000000
00000000
00000000
00000000
,
00000000
00000000
00000000
00000000
,
00000000
00000000
00000000
00000000
,
00100000
00000000
00010000
00000000
01000000
00000000
00001000
00000000
00100000
00000000
00110000
00000000
00000000
00011000
00000000
00000000
,
00001000
00000000
01000000
00000000
00010000
00000000
00100000
00000000
00001000
00000000
00011000
00000000
00000000
00001010
00000000
00000000
,
00000010
00000000
00001000
00000000
00000100
00000000
00010000
00000000
00000010
00000000
00001010
00000000
00000000
00011000
00000000
00000000
,
00010000
00000000
00000100
00000000
00001000
00000000
00000010
00000000
00010000
00000000
00011000
00000000
00000000
00110000
00000000
00000000
,
01010000
00000000
01000000
00000000
00001000
00000000
00010000
00000000
00000100
00000000
00010100
00000000
00000000
00001100
00000000
00000000
,
00001010
00000000
00000010
00000000
00010000
00000000
00001000
00000000
00100000
00000000
00101000
00000000
00000000
00110000
00000000
00000000
,
10010000
00010000
01000000
00001000
00011000
00010000
00000100
00001000
,
00001001
00000001
00000011
00000010
00000110
00002002
00000000
00003003
,
00000001
00000000
00000010
00000000
00000100
00000000
00001000
00000000
00000001
00000100
00000001
00001000
00000000
00001100
00000000
00000000
,
00000100
00000000
00010000
00000000
00001000
00000000
00100000
00000000
00001000
00010000
00001000
01000000
00000000
01010000
00000000
00000000
,
00010000
00000000
00100000
00010000
00100000
00000000
00010000
01000000
00010000
01000000
00010000
01000000
00001000
00010000
00000000
00000000
,
00011000
00000000
00010000
00000000
00001000
00000000
00100000
00010000
00000000
01000000
00000000
00100000
00000000
10000000
00010000
00000000
,
10000000
00000000
00100000
00000000
01000000
00000000
00010000
00000000
00100000
00000000
00010000
01000000
00000000
01010000
00000000
00000000
,
01000000
00000000
00001000
00000000
00010000
00000000
00000010
00000000
00010000
00000000
00000100
00001000
00000000
00001100
00000000
00000000
,
00001000
00000000
00000010
00001000
00000010
00000000
00001000
00000100
00001000
00000100
00001000
00000100
00010000
00001000
00000000
00000000
,
00011000
00000000
00010000
00000000
00000010
00000000
00001000
00000100
00000000
00000010
00000000
00000001
00000000
00000100
00000001
00000000
,
00000100
00000000
00000010
00000000
00000010
00000000
00000000
00000000
00001000
00000000
00000100
00010000
00000000
00010000
00001000
00000000
,
00100000
00000000
00010000
00000000
01000000
00001000
00000000
00000000
00001000
00010000
00000100
00002000
00000000
00000000
00003010
00000000
,
00001000
00000000
00000100
00000000
00000100
00000000
00000000
00000000
00010000
00000000
00001000
00100000
00000000
00100000
00010000
00000000
,
01000000
00000000
00100000
10000000
00010000
00000000
00100000
00010000
10000000
00100000
00000000
01000000
00000000
00010000
10000000
00000000
,
01000000
00000000
00100000
00000000
00100000
00000000
00000000
00000000
00010000
00000000
01000000
00001000
00000000
00001000
00010000
00000000
,
00000010
00000000
00001000
00000000
00000100
00010000
00000000
00000000
00010000
00001000
01000000
00020000
00000000
00000000
00130000
00000000
,
00010000
00000000
01000000
00000000
01000000
00000000
00000000
00000000
00001000
00000000
00010000
00000010
00000000
00000010
00001000
00000000
,
00001100
00000101
00000011
00001010
,
00001100
00000000
00010000
00000000
00011000
00000000
00000010
00000000
00001000
00000010
00000000
00000100
00000000
00000002
00000000
00000000
,
00001003
00000000
00000100
00000000
00000001
00000000
00000100
00000000
00001000
00000010
00000000
00010000
00000000
00001000
00000000
00100000
,
00002000
00000000
00000000
00010000
00000000
00000000
01000000
00000000
00023000
00000000
00001000
00000000
00000000
00000100
00000000
00000000
,
00031000
00000000
00100000
00000000
00010000
00000000
01000000
00000000
10000000
00000000
01000000
00000000
00010000
00100000
00000000
00000000
,
00110000
00000000
00001000
00000000
00011000
00000000
01000000
00000000
00010000
01000000
00000000
00100000
00000000
20000000
00000000
00000000
,
30010000
00000000
00100000
00000000
10000000
00000000
00100000
00000000
00010000
01000000
00000000
00001000
00000000
00010000
00000000
00000100
,
00020000
00000000
00000000
00001000
00000000
00000000
00000010
00000000
00032000
00000000
00010000
00000000
00000000
00100000
00000000
00000000
,
00013000
00000000
00000100
00000000
00001000
00000010
00001000
00000010
00000000
00000100
00000000
00000001
00001000
00000001
00000000
00000000
,
00000011
00000000
00001000
00000000
00001010
00000000
00000001
00000000
00001000
00000100
00001000
00000100
00010000
00001000
00000000
00100000
,
00001000
00000000
00010000
00000000
01000000
00000000
00010000
00000000
00001000
00100000
00001000
00100000
00010000
01000000
00000000
00100000
,
20000000
00000000
00000000
00010000
00000000
00000000
01000000
00000000
30020000
00000000
00000000
10000000
00000000
00000000
01000000
00000000
,
10030000
00000000
01000000
00000000
00010000
00000000
01000000
00000000
00100000
00000000
01000000
00000000
10000000
00100000
00000000
00000000
,
10100000
00000000
00010000
00000000
00110000
00000000
10000000
00000000
00010000
01000000
00010000
01000000
00001000
00010000
00000000
00000010
,
00010000
00000000
00001000
00000000
00000100
00000000
00001000
00000000
00010000
00000010
00001000
00000100
00000010
00000001
00000000
00001000
,
00000002
00000000
00000000
00000010
00000000
00000000
00000100
00000000
00002003
00000000
00000000
00000010
00000000
00000000
00000100
00000000
,
00003001
00000000
00000100
00000000
00000010
00001000
00000100
00010000
00000000
00001000
00000000
00100000
00001000
00010000
00000000
00000100
,
00001000
00000000
00000010
00000000
00000010
00000000
00001000
00000100
00010000
00001000
00000000
00001000
00100000
00000000
00010000
00000000
,
01000000
00000000
00010000
00000000
00010000
00000000
00100000
01000000
10000000
00010000
00000000
01000000
00000000
00001000
00010000
00000000
,
00001000
00000000
00100000
00000000
00101000
00000000
00100000
00010000
01000000
00001000
00000000
00001000
00010000
00000000
00000100
00000000
,
00001000
00000000
00000010
00000000
00001010
00000000
00001000
00000100
00010000
00001000
00000000
00100000
00000000
00010000
01000000
00000000
,
00010000
00000000
00100000
00000000
00100000
00000000
00010000
01000000
00001000
00010000
00000000
00010000
00000010
00000000
00001000
00000000
,
00000100
00000000
00001000
00000000
00001000
00000000
00000010
00000100
00000001
00001000
00000000
00000100
00000000
00010000
00001000
00000000
,
00010000
00000000
00000010
00000000
00010010
00000000
00000010
00001000
00000100
00010000
00000000
00010000
00001000
00000000
00001000
00100000
,
00010000
01000000
00100000
00000000
01100000
00000000
00100000
10000000
01000000
00100000
00000000
00010000
00000000
10000000
00010000
00000000
,
10010000
00010000
01010000
01000000
01001000
00001000
00011000
00010000
,
00010010
00000000
00001010
00000000
00001001
00000000
00000001
00000010
00000100
00001000
00000000
00000110
00000000
00000000
00002002
00000000
,
00000000
00000000
00000000
00000000
,
00000000
00000000
00003003
00000000
;
