#VERSION:0.83;
#TITLE:バスルームマジック;
#SUBTITLE:;
#ARTIST:虹のコンキスタドール;
#TITLETRANSLIT:Bathroom Magic;
#SUBTITLETRANSLIT:;
#ARTISTTRANSLIT:Niji no Conquistador;
#GENRE:;
#ORIGIN:;
#CREDIT:;
#BANNER:Bathroom Magic.png;
#BACKGROUND:Bathroom Magic-bg.png;
#PREVIEWVID:;
#JACKET:Bathroom Magic-jacket.jpg;
#CDIMAGE:Bathroom Magic-jacket.png;
#DISCIMAGE:;
#LYRICSPATH:;
#CDTITLE:;
#MUSIC:Bathroom Magic.ogg;
#OFFSET:-0.393000;
#SAMPLESTART:44.880001;
#SAMPLELENGTH:12.000000;
#SELECTABLE:YES;
#BPMS:0.000=240.000;
#STOPS:;
#DELAYS:;
#WARPS:;
#TIMESIGNATURES:0.000=4=4;
#TICKCOUNTS:0.000=4;
#COMBOS:0.000=1;
#SPEEDS:0.000=1.000=0.000=0;
#SCROLLS:0.000=1.000;
#FAKES:;
#LABELS:0.000=Song Start;
#BGCHANGES:;
#KEYSOUNDS:;
#ATTACKS:
;

//---------------dance-single - ----------------
#NOTEDATA:;
#CHARTNAME:;
#STEPSTYPE:dance-single;
#DESCRIPTION:;
#CHARTSTYLE:;
#DIFFICULTY:Hard;
#METER:14;
#RADARVALUES:0.703960,0.789369,0.221864,1.015904,0.000000,422.000000,403.000000,19.000000,87.000000,0.000000,0.000000,0.000000,0.000000,0.000000,0.703960,0.789369,0.221864,1.015904,0.000000,422.000000,403.000000,19.000000,87.000000,0.000000,0.000000,0.000000,0.000000,0.000000;
#CREDIT:;
#NOTES:
0000
0000
0000
0000
,
0000
0000
0000
0000
,
0000
0000
0000
0000
,
0000
0000
0000
0000
,
0002
0000
2003
0000
3001
0100
0001
1000
,
0000
0100
0000
0020
0000
0130
1000
0001
,
0200
0000
0320
0000
2030
0000
3001
0010
,
0000
0100
0000
2000
0000
0000
3001
0000
,
2000
0000
3002
0000
1003
0100
1000
0001
,
0000
0100
0000
0020
0000
0130
0001
1000
,
0200
0000
0320
0000
0230
0000
1300
0001
,
0000
0100
0000
0010
0010
0000
2000
0000
,
0001
0002
0000
3003
,
0001
0000
0010
0100
0000
1000
0000
0002
,
0000
0103
0010
0000
1000
0000
1000
0000
,
0001
0000
1000
0000
0100
0000
0010
0002
,
0000
1003
0010
0000
0100
0000
0100
0000
,
0002
0000
0010
0000
1003
0001
0000
0200
,
0000
0310
1000
0000
0001
0000
0001
0000
,
0010
0000
0100
0000
1000
0001
0000
0200
,
0000
0310
2000
0000
3001
1000
0001
1000
,
0100
0000
1000
0001
0000
1000
0000
0020
,
0000
0130
0001
0000
1000
0000
1000
0000
,
0001
0000
0010
0000
0100
1000
0001
2000
,
0000
3010
0100
0000
0001
0000
0001
0000
,
2000
0000
0001
0000
3100
0010
0000
0002
,
0000
1003
0010
0000
0100
0000
0001
0000
,
2000
0000
0100
0000
3001
0010
0100
1000
,
0000
0001
1000
0001
2000
0000
3200
0000
,
0310
0000
0001
0100
0000
0100
0020
1000
,
0000
1030
0001
0000
1000
0000
1000
0000
,
0001
0000
1000
0100
0000
0100
0020
0001
,
0000
0031
1000
0000
0010
0000
0100
0000
,
0110
0000
0010
0000
1000
0001
0000
0100
,
0000
0100
0010
0000
1000
0000
0001
1000
,
0002
0000
0010
0000
1003
0001
0000
0010
,
0000
0010
0100
0000
1000
0001
0100
0010
,
1000
0000
0100
0010
0000
0010
0002
1000
,
0000
1003
0010
0000
1000
0100
0010
0000
,
0001
0000
0100
0010
0000
0010
2000
0001
,
0000
3001
0010
0000
0100
1000
0001
0000
,
2001
0000
3001
0000
0100
0001
0100
0010
,
0000
0010
1000
0001
1000
0000
0100
0000
,
1000
0100
1000
0001
0010
0100
0000
0010
,
0000
0001
1000
0001
2000
0000
3010
0000
,
0110
0000
0010
0000
1000
0001
0010
0200
,
0000
1300
0001
0000
1000
0010
0100
0000
,
0201
0000
0301
0000
1000
0001
0000
0020
,
0000
0130
0010
0000
0001
0100
0010
1000
,
0002
0000
0010
0000
1003
0001
0000
0200
,
0000
0310
1000
0000
0001
1000
0100
0000
,
2100
0000
0100
0000
3001
0010
0000
0200
,
0000
0310
0001
0000
1000
0010
0100
0001
,
2000
0000
3002
0000
0103
0010
1000
0002
,
0000
0013
0100
0000
1000
0001
0100
0000
,
0120
0000
1030
0000
0001
0010
0000
0200
,
0000
1300
0010
0000
0100
0001
1000
0000
,
1002
0000
0100
0000
0103
0010
0000
2000
,
0000
3001
0010
0000
0100
1000
0001
0000
,
1000
0100
0010
0001
1000
0001
0100
0001
,
1000
0100
1000
0001
0200
0000
0300
0000
,
0002
0000
0100
0000
2003
0000
3100
0010
,
0000
0010
0001
0000
2000
0000
3010
0000
,
0102
0000
1003
0000
2100
0000
3001
0010
,
0000
0010
0100
0000
2100
0000
3001
0000
,
0102
0000
0013
0000
2100
0000
3010
0100
,
0000
0100
0001
0000
0102
0000
0013
0000
,
1100
0000
0101
0000
,
1100
0101
0011
1010
,
2000
0000
3002
0000
1003
0100
1000
0001
,
0000
0100
0000
0020
0000
0130
0001
1000
,
0200
0000
0320
0000
0032
0000
1003
0010
,
0000
0100
0000
0002
0000
0000
1003
0000
,
0002
0000
2003
0000
3001
0100
0001
1000
,
0000
0100
0000
0020
0000
0130
1000
0001
,
0200
0000
0320
0000
0230
0000
0301
0020
,
0000
0230
0000
1300
0001
1000
0001
1000
,
0200
0000
2300
0000
3001
0100
0001
0010
,
0000
0100
0000
2000
0000
3001
0100
0010
,
2000
0000
3200
0000
0320
0000
0031
1000
,
0000
0010
0000
0200
0000
0000
0310
0000
,
0200
0000
0302
0000
1003
0100
1000
0010
,
0000
0100
0000
0002
0000
1003
0100
0010
,
0002
0000
0203
0000
0320
0000
1030
0001
,
0000
0010
0000
0100
0100
0000
0000
0000
;

//---------------dance-single - ----------------
#NOTEDATA:;
#CHARTNAME:;
#STEPSTYPE:dance-single;
#DESCRIPTION:;
#CHARTSTYLE:;
#DIFFICULTY:Medium;
#METER:11;
#RADARVALUES:0.547154,0.542691,0.023354,0.338635,0.000000,328.000000,326.000000,2.000000,29.000000,0.000000,0.000000,0.000000,0.000000,0.000000,0.547154,0.542691,0.023354,0.338635,0.000000,328.000000,326.000000,2.000000,29.000000,0.000000,0.000000,0.000000,0.000000,0.000000;
#CREDIT:;
#NOTES:
0000
0000
0000
0000
,
0000
0000
0000
0000
,
0000
0000
0000
0000
,
0000
0000
0000
0000
,
0001
0100
0001
1000
,
0001
0010
0100
1000
,
0001
1000
0010
1000
,
0001
0100
0001
0000
,
1000
0100
1000
0001
,
1000
0010
0100
0001
,
1000
0000
0001
0000
0010
0000
0100
1000
,
0000
0001
0000
1000
0001
0000
0000
0000
,
0000
0000
0000
0000
,
1000
0000
0100
0000
1000
0000
0001
0100
,
0000
0001
0100
0000
0010
0000
1000
0000
,
0001
0000
0010
0000
0100
0000
1000
0001
,
0000
1000
0001
0000
0100
0000
0010
0000
,
1000
0000
0001
0000
0010
0000
0100
0010
,
0000
0100
0010
0000
0001
0000
1000
0000
,
0010
0000
0100
0000
0001
0000
1000
0001
,
0000
1000
0002
0000
0000
0000
0013
0000
,
0001
0000
0100
0000
0010
0000
1000
0001
,
0000
1000
0100
0000
0010
0000
0001
0000
,
1000
0000
0001
0000
0100
0000
0010
1000
,
0000
0001
1000
0000
0100
0000
0010
0000
,
0001
0000
1000
0000
0010
0000
0100
0001
,
0000
0100
0010
0000
1000
0000
0001
0000
,
0010
0000
0100
0000
1000
0000
0100
0010
,
0000
0100
1000
0000
2002
0000
3003
0000
,
0001
0000
0100
0000
0010
0000
1000
0001
,
0000
0001
1000
0000
0010
1000
0010
0000
,
0100
0000
0001
0000
1000
0000
0001
0010
,
0000
0010
0001
0000
0010
0100
0010
0000
,
0001
0000
1000
0000
0010
0000
0100
0001
,
0000
0001
0100
0000
0001
1000
0001
0000
,
1000
0000
0001
0000
0100
0000
0010
1000
,
0000
1000
0010
0000
1000
0001
1000
0000
,
0100
0000
0010
0000
0001
0000
0010
0100
,
0000
0100
1000
0000
0001
1000
0001
0000
,
1000
0000
0010
0000
0100
0000
0010
1000
,
0000
1000
0001
0000
0010
0100
0010
0000
,
0001
0000
0100
0000
0010
0000
1000
0001
,
0000
0001
0010
0000
0100
0000
1000
0000
,
0002
0000
0003
0000
2000
0000
3000
0010
,
0000
0100
0010
0000
0200
0000
0300
0000
,
0001
0000
0010
0000
0001
0000
1000
0001
,
0000
0100
0010
1000
,
0001
0000
0000
0000
0010
0100
0000
1000
,
0000
0000
0001
1000
,
0020
0000
0000
0000
0130
0001
0000
1000
,
0000
0001
0100
0001
,
0020
0000
0000
0000
0130
1000
0000
0001
,
0000
1000
0001
0000
0100
0000
0100
0000
,
0010
0000
1000
0000
0001
0000
1000
0200
,
0000
0000
0310
0000
0001
1000
0001
0000
,
0200
0000
0000
0000
0310
1000
0000
0002
,
0000
0000
1003
0100
,
0020
0000
0000
0000
0031
1000
0000
0001
,
0000
0001
0100
0001
,
1000
0000
0100
0000
0010
0000
0100
1000
,
0000
0001
0000
1000
0001
0000
0000
0000
,
2000
0000
3000
0000
0020
0000
0030
1000
,
0000
0010
1000
0000
0020
0000
0030
0000
,
2000
0000
3000
0000
0002
0000
0003
1000
,
0000
0001
1000
0000
0002
0000
0003
0000
,
0020
0000
0030
0000
0200
0000
0300
0010
,
0000
0100
0010
0000
0200
0000
0300
0000
,
2000
3200
0320
0032
,
2003
3020
0230
0302
,
1003
0000
0001
0000
1000
0000
0010
1000
,
0000
0001
0000
0010
0000
0000
0100
0000
,
0010
0000
0001
0000
1000
0000
0001
0100
,
0000
0010
0000
1000
0000
0000
0001
0000
,
1000
0000
0100
0000
1000
0000
0001
1000
,
0000
0010
0000
0100
0000
0000
0001
0000
,
0010
0000
0100
0000
1000
0000
0001
0100
,
0000
0010
0000
1000
0000
0000
1001
0000
,
0001
0000
1000
0000
0100
0000
0010
0001
,
0000
1000
0000
0001
0000
0000
1000
0000
,
0001
0000
0100
0000
0010
0000
1000
0001
,
0000
1000
0000
0100
0000
0000
0010
0000
,
0100
0000
1000
0000
0001
0000
1000
0010
,
0000
0100
0000
0001
0000
1000
0100
0000
,
0010
0000
0100
0000
1000
0000
0001
0100
,
0000
0010
0000
0100
0010
0000
0000
0000
;

//---------------dance-single - ----------------
#NOTEDATA:;
#CHARTNAME:;
#STEPSTYPE:dance-single;
#DESCRIPTION:;
#CHARTSTYLE:;
#DIFFICULTY:Easy;
#METER:8;
#RADARVALUES:0.360321,0.394685,0.011677,0.000000,0.000000,216.000000,215.000000,1.000000,0.000000,0.000000,0.000000,0.000000,0.000000,0.000000,0.360321,0.394685,0.011677,0.000000,0.000000,216.000000,215.000000,1.000000,0.000000,0.000000,0.000000,0.000000,0.000000,0.000000;
#CREDIT:;
#NOTES:
0000
0000
0000
0000
,
0000
0000
0000
0000
,
0000
0000
0000
0000
,
0000
0000
0000
0000
,
1000
0000
0001
0000
,
1000
0100
1000
0000
,
0001
0010
0001
0010
,
0100
0000
1000
0000
,
0001
0000
1000
0000
,
0001
0100
0001
0000
,
1000
0010
1000
0010
,
0100
0000
1001
0000
,
0000
0000
0000
0000
,
0001
0000
0001
0000
,
0010
0000
0010
0000
,
0001
1000
0001
1000
,
0100
0000
0000
0000
,
1000
0000
1000
0000
,
0010
0000
0010
0000
,
1000
0001
1000
0001
,
0100
0000
0000
0000
,
0001
0000
0001
0000
,
0100
0000
0100
0000
,
0010
1000
0010
1000
,
0001
0000
0000
0000
,
1000
0000
1000
0000
,
0100
0000
0100
0000
,
0010
0001
0010
0001
,
1000
0000
0000
0000
,
0001
0100
0010
0000
,
1000
0000
0001
0000
,
1000
0100
0010
0000
,
0001
0000
1000
0000
,
0001
0010
0001
0000
,
1000
0010
1000
0000
,
0001
0010
0001
1000
,
0010
1000
0001
0000
,
1000
0001
0100
0000
,
0010
0000
1000
0000
,
0001
1000
0100
0000
,
0010
0000
0001
0000
,
1000
0100
1000
0000
,
0001
0100
0001
0000
,
1000
0000
0100
0000
1000
0000
0000
0001
,
0000
1000
0001
0000
,
0001
0100
0001
0000
,
0100
0010
1000
0000
,
0001
1000
0100
1000
,
0001
0000
0000
0000
,
1000
0100
1000
0000
,
0100
0010
0001
0000
,
1000
0001
0100
0001
,
1000
0000
0000
0000
,
0001
0010
0001
0000
,
0010
0100
1000
0000
,
0001
1000
0010
0100
,
0010
0000
0000
0000
,
1000
0010
1000
0000
,
0010
0100
0001
0000
,
1000
0000
0100
0000
0010
0000
0000
0001
,
0000
1000
0000
0001
1000
0000
0000
0000
,
0001
0000
0100
0000
,
0001
0100
0001
0000
,
1000
0000
0010
0000
,
1000
0010
1000
0000
,
0001
0000
0010
0000
,
0001
0010
0001
0000
,
1000
0000
1000
0000
,
0001
1000
0001
0000
,
1000
0000
0001
0000
,
1000
0010
1000
0000
,
0001
0100
0001
0100
,
0010
0000
1000
0000
,
0001
0000
1000
0000
,
0001
0010
0001
0000
,
1000
0100
1000
0100
,
0010
0001
1000
0000
,
0001
0000
1000
0000
,
0001
0100
0001
0000
,
1000
0010
1000
0010
,
0100
0000
0001
0000
,
1000
0000
0001
0000
,
1000
0100
1000
0000
,
0001
0000
0010
0000
0100
0000
0000
1000
,
0000
0001
0000
1000
0001
0000
0000
0000
;
