#TITLE:薔薇は永遠に美しく;
#SUBTITLE:;
#ARTIST:TЁЯRA;
#TITLETRANSLIT:Bara wa towa ni utsukushiku;
#SUBTITLETRANSLIT:;
#ARTISTTRANSLIT:;
#GENRE:;
#CREDIT:;
#MUSIC:Bara wa towa ni utsukushiku.ogg;
#BANNER:Bara wa towa ni utsukushiku.png;
#BACKGROUND:Bara wa towa ni utsukushiku-bg.png;
#CDTITLE:;
#SAMPLESTART:66.529;
#SAMPLELENGTH:15.000;
#SELECTABLE:YES;
#OFFSET:0.963;
#BPMS:0.000=160.000
,148.000=80.000
,156.000=160.000
;
#STOPS:;
#BGCHANGES:;
#FGCHANGES:;

//--------------- dance-single - Princess Pamela ----------------
#NOTES:
     dance-single:
     Princess Pamela:
     Beginner:
     4:
     0,0,0,0,0:
0000
0000
0000
0000
,
0000
0000
0000
0000
,
0000
0000
0000
0000
,
0000
0000
0000
0000
,
0000
0000
0000
0000
,
0001
0000
0000
0000
,
0010
0000
0000
0000
,
0100
0000
0000
0000
,
1000
0000
0000
0000
,
0010
0000
0000
0000
,
0000
0000
0000
0000
,
0100
0000
0000
0000
,
0000
0000
0000
0000
,
0001
0000
0000
0000
,
0000
0000
0000
0000
,
1000
0000
0000
0000
,
0000
0000
0000
0000
,
0100
0000
0000
0000
,
0010
0000
0000
0000
,
0001
0000
0001
1000
,
0000
1001
0000
0000
,
1000
0000
1000
0000
,
1000
0000
0000
0000
,
0010
0000
0000
0000
,
0100
0000
0000
0000
,
0001
0000
0001
0000
,
0001
0000
0000
0000
,
0010
0000
0000
0000
,
0100
0000
0000
0000
,
1000
0000
1000
0000
,
1000
0000
0000
0000
,
0001
0000
0000
0000
,
0100
0000
0000
0000
,
0010
0000
0010
0000
,
0010
0000
0000
0000
,
1000
0000
0000
0000
,
0001
0000
0000
0000
,
1001
0000
0000
0000
,
1000
0000
0001
0000
,
0100
0000
0000
0000
,
0001
0000
0000
0000
,
0010
0000
0000
0000
,
0100
0000
0000
0000
,
1000
0000
1000
0000
,
0001
0000
1000
0000
,
0001
0000
0000
0000
,
0100
0000
0000
0000
,
0010
0000
0010
0000
,
0100
0000
0010
0000
,
1000
0000
0001
0000
,
1000
0000
0000
0000
,
2002
0000
0000
0000
,
3003
0000
0000
0000
,
0020
0000
0000
0000
,
0030
0000
0000
0000
,
0200
0000
0000
0000
,
0300
0000
0000
0000
,
0220
0000
0000
0000
,
0330
0000
0000
0000
,
0001
0000
0001
0000
,
1000
0000
0000
0000
,
0100
0000
0100
0000
,
1000
0000
0000
0000
,
0010
0000
0010
0000
,
0100
0000
0010
0000
,
1000
0000
0001
0000
,
0100
0000
0000
1001
0000
0000
0000
0000
;

//--------------- dance-single - Princess Pamela ----------------
#NOTES:
     dance-single:
     Princess Pamela:
     Easy:
     8:
     0,0,0,0,0:
0000
0000
0000
0000
,
0000
0000
0000
0000
,
0000
0000
0000
0000
,
0000
0000
0000
0000
,
0000
0000
0000
0000
,
1000
0000
0000
1000
0000
0000
0000
0000
,
0001
0000
0000
0001
0000
0000
0000
0000
,
0100
0000
0000
0100
0000
0000
0000
0000
,
0010
0000
0000
0010
0000
0000
0000
0000
,
1001
0000
1000
0000
,
0001
1000
0001
0000
,
0100
0000
0001
0000
,
0010
0001
0010
0000
,
0100
0000
1000
0000
,
0001
1000
0001
0000
,
0100
0000
0010
0000
,
1000
0010
1000
0000
,
0001
0000
0000
0002
0000
0000
0003
0000
,
0010
0000
0000
0020
0000
0000
0030
0000
,
0100
0000
0000
0100
0000
0000
1000
0000
,
0001
2002
0000
3003
,
1000
1000
0000
0010
,
1000
1000
0000
0010
,
0200
0000
0302
0000
,
0023
0000
0230
0000
,
1300
1000
0000
0001
,
1000
1000
0000
0100
,
0020
0000
0032
0000
,
2003
0000
3020
0000
,
0130
0100
0000
0001
,
0100
0100
0000
0010
,
2000
0000
3002
0000
,
0023
0000
0230
0000
,
1300
0001
1000
0000
,
0010
0100
0010
0000
,
1001
0000
0001
0000
,
0010
0000
0000
0000
,
2002
0000
3003
0000
1000
0000
0000
1000
,
2000
3000
0010
0100
,
0110
0000
0001
0001
,
0100
0000
0001
0000
,
0010
0100
1000
0000
,
0010
0000
0100
0000
,
2002
3003
0001
0010
,
0100
1000
0001
1000
,
0100
0000
0010
0001
,
1000
0010
1000
0000
,
1001
0000
0001
0100
,
0001
0000
0010
0100
,
1000
1000
0100
1000
,
0010
0100
0001
0000
,
2002
0000
3003
0000
,
0020
0000
0030
0000
,
2002
0000
3003
0000
,
0200
0000
0300
0000
,
0220
0000
0330
0000
,
2000
0000
3000
0000
,
0220
0000
0330
0000
,
0002
0000
0003
0000
,
1001
0000
1000
0100
,
1000
0000
0010
0000
,
1001
0000
0001
0100
,
0001
0000
0010
0000
,
0110
0000
0100
1000
,
0010
0000
0100
0000
,
0110
0000
0010
1000
,
0001
0000
0000
1001
0000
0000
0000
0000
;

//--------------- dance-single - Princess Pamela ----------------
#NOTES:
     dance-single:
     Princess Pamela:
     Medium:
     11:
     0,0,0,0,0:
0000
0000
0000
0000
,
0000
0000
0000
0000
,
0000
0000
0000
0000
,
0000
0000
0000
0000
,
0000
0000
0000
0000
,
1000
0000
0000
1000
0000
0000
0002
0000
0000
0000
0000
0000
0003
0000
0000
0000
,
0100
0000
0000
0100
0000
0000
0002
0000
0000
0000
0000
0000
0013
0000
0000
0000
,
0001
0000
0000
0001
0000
0000
0200
0000
0000
0000
0000
0000
0310
0000
0000
0000
,
1000
0000
0000
1000
0000
0000
0020
0000
0000
0000
0000
0000
0030
0000
0000
0000
,
0100
0001
0010
0001
,
0100
0110
1001
0000
,
1000
0010
1000
0100
,
0010
0110
1001
0000
,
0001
0100
1000
0100
,
0001
1001
0110
0000
,
1000
0100
0001
0100
,
1000
0000
0000
1000
0000
0000
0001
0000
0000
0000
0010
0000
0010
0000
0000
0000
,
0001
0000
0000
0001
0000
0000
0200
0000
0000
0000
0000
0000
0300
0000
0000
0000
,
0010
0000
0000
0010
0000
0000
2000
0000
0000
0000
0000
0000
3000
0000
0000
0000
,
1001
0000
0000
0000
0000
0000
1001
0000
0000
0000
0010
0000
0100
0000
0000
0100
,
0010
0220
0000
0330
,
1000
0001
1000
0000
0001
0000
0010
0000
,
0001
1000
0001
0000
1000
0000
0100
0000
,
2200
3300
0022
0033
,
0202
0303
1000
0010
,
1000
0001
1000
0000
0001
0000
0100
0000
,
0001
1000
0001
0000
1000
0000
0010
0000
,
2020
3030
0202
0303
,
0002
0023
0230
2300
,
3010
0100
0010
0000
1000
0000
0001
0000
,
0100
0010
0100
0000
0001
0000
1000
0000
,
0022
0033
2200
3300
,
0220
0330
2002
3003
,
1000
0000
1000
0010
0000
0010
0100
0000
,
0100
0001
0000
0001
0010
0000
0100
0000
,
2000
0001
3002
0010
,
0020
0000
0033
0000
,
1002
0000
0003
1000
2000
0000
3000
0001
,
0002
0000
0000
0000
0003
0000
0100
0000
0010
0000
0000
0010
0000
0000
0100
0000
,
1001
0000
0001
0010
,
0100
0000
1000
0100
2000
0000
3000
0000
,
0010
0000
0010
0000
0100
0010
0100
0000
,
0002
0023
0230
2300
,
3001
0000
0100
0001
0100
0000
0010
1000
,
0010
0000
1000
0100
0000
0100
1000
0000
,
0010
0000
0100
0001
0100
0000
0010
1000
,
0010
0000
1000
0001
0010
0000
0100
0000
,
0110
0000
0010
0001
0000
0001
0100
0000
,
0110
0000
0010
0000
1000
0001
1000
0000
,
0100
0000
0010
0100
0020
0000
0000
0030
,
0001
1000
0001
0000
1000
0000
0010
0000
,
0100
0000
0000
0100
0000
0000
0002
0000
0000
0000
0000
0000
0003
0000
0000
0000
,
0010
0000
0000
0100
0000
0000
0010
0000
0000
0000
0000
0000
0000
0000
0000
0000
,
0100
0000
0000
0100
0000
0000
2000
0000
0000
0000
0000
0000
3000
0000
0000
0000
,
0010
0000
0000
0100
0000
0000
0010
0000
0000
0000
0000
0000
0000
0000
0000
0000
,
0100
0000
0000
0001
0000
0000
0020
0000
0000
0000
0000
0000
0130
0000
0000
0000
,
1000
0000
0000
0001
0000
0000
0100
0000
0000
0000
0000
0000
0010
0000
0000
0000
,
1000
0000
0000
0100
0000
0000
2000
0000
0000
0000
0000
0000
3010
0000
0000
0000
,
0001
0000
0000
0001
0000
0000
1000
0000
0000
0000
0010
0000
0100
0000
0000
0000
,
0001
0000
0000
0100
0000
0000
0202
0000
0000
0000
0000
0000
0303
0000
0000
0000
,
1000
0000
0000
0010
0000
0000
2020
0000
0000
0000
0000
0000
3030
0000
0000
0000
,
0001
0000
0000
0010
0000
0000
0012
0000
0000
0000
0000
0000
1003
0000
0000
0000
,
0100
0000
0000
1000
0000
0000
2200
0000
0000
0000
0000
0000
3300
0000
0000
0000
,
0010
0000
0000
0110
0000
0000
1001
0000
0000
0000
0001
0000
0010
0000
0000
0000
,
0100
0000
0000
1100
0000
0000
0101
0000
0000
0000
1000
0000
0010
0000
0000
0000
,
0100
0000
0000
0011
0000
0000
1010
0000
0000
0000
0001
0000
0100
0000
0000
0000
,
0110
0000
0000
0010
0000
0000
1001
0000
0000
0000
0000
0000
0000
0000
0000
0000
;

//--------------- dance-single - Princess Pamela ----------------
#NOTES:
     dance-single:
     Princess Pamela:
     Hard:
     14:
     0,0,0,0,0:
0000
0000
0000
0000
,
0000
0000
0000
0000
,
0000
0000
0000
0000
,
0000
0000
0000
0000
,
0000
0000
0000
0000
,
0101
0000
0000
1001
0000
0000
0202
0000
0000
0000
0000
0000
0303
0000
0000
0000
,
1010
0000
0000
1001
0000
0000
2020
0000
0000
0000
0000
0000
3030
0000
0000
0000
,
1001
0000
0000
1100
0000
0000
2002
0000
0000
3000
0000
0000
0013
0000
0000
0000
,
0101
0000
0000
0110
0000
0000
0202
0000
0000
0300
0000
0000
1003
0000
0000
0000
,
0010
0000
0000
0010
0000
0000
0100
0000
1000
0000
0000
0100
0000
0000
0001
0000
,
0010
0000
0000
0100
0000
0000
0010
0000
0001
1000
0000
1000
0001
0000
0000
0000
,
0100
0000
0000
0100
0000
0000
0010
0000
0001
0000
0000
0010
0000
0000
1000
0000
,
0100
0000
0000
0010
0000
0000
0001
0000
1000
0001
0000
0001
1000
0000
0000
0000
,
0100
0000
0000
0001
0000
0000
0100
0000
1000
0000
0000
0010
0000
0000
0100
0000
,
0001
0000
0000
1000
0000
0000
0100
0000
0010
0001
0000
0001
0010
0000
0000
0000
,
0100
0000
0000
1000
0000
0000
0010
0000
0001
0000
0000
0010
0000
0000
1000
0000
,
1010
0000
0000
0101
0000
0000
0010
0000
1000
0001
1000
0000
0001
0000
0000
0000
,
0011
0000
0000
0110
0000
0000
2200
0000
0000
0000
0000
0000
3300
0000
0000
0000
,
1010
0000
0000
0110
0000
0000
0201
0000
0000
0001
0000
0000
0301
0000
0000
0000
,
0010
1000
0000
0000
0000
0000
0010
1000
0000
0000
0100
0000
0010
0001
0000
1000
,
0010
0000
0220
0000
0000
0330
0000
0000
,
1000
0000
0100
1000
0100
0000
0000
0000
1000
0000
0100
0000
0010
0000
0001
0000
,
0100
0000
0001
0100
0001
0000
0000
0000
0100
0000
0010
0000
1000
0000
0001
0000
,
0012
0103
2010
3001
,
1200
0000
0000
0000
0310
0000
0000
0000
0001
0000
0000
1000
0000
0000
0010
0000
,
0100
0000
0001
0100
0001
0000
0000
0000
0010
0000
0100
0000
1000
0000
0001
0000
,
0010
0000
0100
1000
0100
0000
0000
0000
0010
0000
0001
0000
1000
0000
0000
0000
,
1020
0000
0130
0001
0020
0000
0100
0000
,
0031
0000
1000
0000
0100
0000
0010
0000
0001
1000
0001
0000
1000
0000
0000
0000
,
0010
0000
0100
0001
0100
0000
0000
0000
0010
0000
1000
0000
0100
0000
0010
0000
,
0001
0000
1000
0010
1000
0000
0000
0000
0001
0000
0010
0000
0100
0000
1000
0000
,
1020
0130
2001
3100
,
0020
0000
0130
0000
2001
0000
3010
0010
,
0100
0001
0010
0100
1000
0010
1000
0100
,
0001
0000
0100
0000
1000
0000
0001
0000
0010
0100
0000
0000
0100
0010
0000
0000
,
0001
1000
0100
1000
0001
0010
0100
1000
,
0002
0000
0000
0000
0100
0000
0000
0000
2003
0000
0000
0000
3010
0000
0100
0001
,
0010
0000
0000
0000
0001
0000
0100
0010
0100
0000
0000
0000
0010
0000
1000
0010
,
1010
0000
0000
0000
0100
0001
0100
0001
0010
0000
0100
1000
0000
0001
0100
0000
,
1001
0000
0000
0000
1000
0000
0010
0000
0100
0000
0010
0100
0001
0000
0010
0000
,
0200
0000
1300
0001
0200
0000
0310
0000
,
2010
0000
0100
0000
3001
0010
1000
0010
,
0001
0000
0000
0001
0100
0000
0000
0100
0010
0000
0000
0010
1000
0000
0001
0000
,
0010
0000
0100
0000
1000
0000
0001
0000
0100
0000
0010
1000
0001
0000
0100
0000
,
0020
1000
1030
0200
1000
1300
0001
0010
,
0100
0000
1000
0000
0001
0000
0100
0000
0010
0000
1000
0001
0010
0000
0100
0000
,
1000
0000
0000
0001
1000
0000
0010
0000
0210
0000
0000
0000
0301
0000
1000
0000
,
0001
0010
0001
0000
0010
0000
0100
1000
0100
0000
1000
0000
0010
0000
0100
0000
,
0001
0000
0000
0001
1000
0000
0000
1000
0100
0000
0000
0100
0010
0000
0000
0000
,
0012
0000
0103
0010
0020
0000
1000
0000
,
0130
0000
0001
0000
0010
0000
0100
0000
1000
0000
0010
0100
0001
0000
1000
0000
,
0100
0000
0000
2000
0000
0000
0020
0000
0000
0000
0000
0000
3030
0000
0000
0000
,
0002
0000
0000
0010
0000
0000
0013
0000
0000
0000
1001
0000
0000
1100
0000
0000
,
2000
0000
0000
0010
0000
0000
3002
0000
0000
0000
0000
0000
0203
0000
0000
0000
,
0310
1000
0100
0001
0100
1000
0010
0001
,
0010
0000
0000
1000
0000
0000
0020
0000
0000
0000
0100
0000
0130
0000
0000
0000
,
0001
0000
1000
0000
0100
1000
0000
0100
1000
0000
0001
0000
0000
0010
0000
0000
,
0210
0000
0000
1000
0000
0000
0320
0000
0000
0000
0001
0000
0031
0000
0000
0000
,
0100
0000
0000
0100
0000
0000
0010
0000
0000
0000
1000
0001
1000
0000
0000
0000
,
1100
0000
0000
0101
0000
0000
2100
0000
0000
0000
0010
0000
3010
0000
0000
0000
,
0101
0000
0000
1100
0000
0000
0101
0000
0000
0000
1000
0000
0000
0001
0000
0000
,
0011
0000
0000
1010
0000
0000
0012
0000
0000
0000
0100
0000
0103
0000
0000
0000
,
1010
0000
0000
1100
0000
0000
1010
0000
0000
0000
1000
0001
1000
0000
0001
0000
,
0011
0000
0000
1100
0000
0000
0021
0000
0000
0000
0130
0000
1000
0000
0010
0000
,
1010
0000
0000
0101
0000
0000
1020
0000
0000
0000
0130
0000
0001
1000
0000
0000
,
1100
0000
0000
0101
0000
0000
0021
0000
0000
0000
0130
0000
1000
0000
0010
0000
,
0110
0000
0000
0110
0000
0000
1001
0000
0000
0000
0000
0000
0000
0000
0000
0000
;

//--------------- dance-double - Princess Pamela ----------------
#NOTES:
     dance-double:
     Princess Pamela:
     Hard:
     14:
     0,0,0,0,0:
00000000
00000000
00000000
00000000
,
00000000
00000000
00000000
00000000
,
00000000
00000000
00000000
00000000
,
00000000
00000000
00000000
00000000
,
00000000
00000000
00000000
00000000
,
00011000
00000000
00000000
00010000
00000000
00000000
02000000
00000000
00000000
00000000
00000000
00000000
03000000
00000000
00000000
00000000
,
11000000
00000000
00000000
10000000
00000000
00000000
00200000
00000000
00000000
00000000
00000000
00000000
00300000
00000000
00000000
00000000
,
00011000
00000000
00000000
00001000
00000000
00000000
00000200
00000000
00000000
00000000
00000000
00000000
00000301
00000000
00000000
00000000
,
00000101
00000000
00000000
00000100
00000000
00000000
00000020
00000000
00000000
00000000
00000000
00000000
00001030
00000000
00000100
00000000
,
00000001
00000000
00000000
00000100
00000000
00000000
00000010
00000000
00001000
00000000
00000000
00010000
00000000
00000000
00001000
00000000
,
00000010
00000000
00000000
00001000
00000000
00000000
00010000
00000000
01000000
00000000
00100000
00000000
00010000
00000000
01000000
00000000
,
10000000
00000000
00000000
01000000
00000000
00000000
00100000
00000000
00010000
00000000
00000000
00001000
00000000
00000000
00010000
00000000
,
00100000
00000000
00000000
00010000
00000000
00000000
00001000
00000000
00000100
00000000
00000001
00000000
00001000
00000000
00000010
00000000
,
00000001
00000000
00000000
00000001
00000000
00000000
00000010
00000000
00001000
00000000
00000000
00000100
00000000
00000000
00000001
00000000
,
00000100
00000000
00000000
00010000
00000000
00000000
00001000
00000000
00100000
00000000
01000000
00000000
10000000
00000000
00100000
00000000
,
01000000
00000000
00000000
10000000
00000000
00000000
01000000
00000000
00010000
00000000
00000000
00100000
00000000
00000000
00001000
00000000
,
00010000
00000000
00000000
01000000
00000000
00000000
00010000
00000000
00001000
00010000
00001000
00000000
00010000
00000000
00000100
00000000
,
00000010
00000000
00000000
00000001
00000000
00000000
00000202
00000000
00000000
00000000
00000000
00000000
00000303
00000000
00000000
00000000
,
00000010
00000000
00000000
00010000
00000000
00000000
00022000
00000000
00000000
00000000
00000000
00000000
00033000
00000000
00000000
00000000
,
00010000
00100000
00000000
00000000
00000000
00000000
00010000
00100000
00000000
00000000
10000000
00000000
01000000
00010000
00000000
00001000
,
00100000
00000000
02200000
00000000
00000000
03300000
00000000
00000000
,
01000000
00000000
10000000
01000000
10000000
00000000
00000000
00000000
10000000
00000000
01000000
00000000
00010000
00000000
00001000
00000000
,
00000100
00000000
00000001
00000100
00000001
00000000
00000000
00000000
00000001
00000000
00000100
00000000
00001000
00000000
00010000
00000000
,
00002010
00003100
00000021
00001030
,
00020100
00000000
00000000
00000000
00130000
00000000
00000000
00000000
01000000
00000000
00000000
00001000
00000000
00000000
00100000
00000000
,
01000000
00000000
00100000
01000000
10000000
00000000
00000000
00000000
10000000
00000000
01000000
00000000
00010000
00000000
00001000
00000000
,
00000100
00000000
00000010
00000100
00000001
00000000
00000000
00000000
00000001
00000000
00000010
00000000
00001000
00000000
00010000
00000000
,
02000000
00000000
03100000
00001000
00020000
00000000
00000010
00000000
,
00031000
00000000
00000100
00000000
00000001
00000000
00000010
00000000
00000100
00010000
00001000
00000000
00000010
00000000
00000001
00000000
,
00000100
00000000
00000001
00000100
00000001
00000000
00000000
00000000
00000001
00000000
00000010
00000000
00001000
00000000
00010000
00000000
,
01000000
00000000
10000000
01000000
10000000
00000000
00000000
00000000
10000000
00000000
00100000
00000000
00010000
00000000
00001000
00000000
,
00120000
01030000
10200000
00310000
,
01002000
00000000
00003010
00000000
00010200
00000000
00001300
00000010
,
00000001
00000010
00000100
00001000
00010000
01000000
00100000
10000000
,
00100000
01000000
00010000
00001000
00000100
00000000
00000110
00000000
,
00000010
00010000
00000100
00010000
00000010
00000100
00001000
00010000
,
00200000
00000000
01000000
01000000
02000000
00000000
03300000
00000000
,
10010000
00000000
00000000
00000000
00000000
00000000
00000000
00000000
00010000
00000000
10000000
00000000
00100000
00000000
00010000
00000000
00001000
00000000
00000000
00000000
00000000
00000000
00000000
00000000
00000100
00000000
00000000
00000000
00000001
00000000
00000010
00000001
,
00000010
00000000
00000000
00000000
00001000
00000001
00000010
00001000
00010000
00000000
01000000
10000000
00000000
00100000
00010000
00000000
,
00011000
00000000
00001000
00000100
00000001
00000010
00001000
00010000
,
00000200
00000000
00001300
00000010
00000001
00000000
00000011
00000000
,
00002010
00000000
00000100
00000000
00003001
00000010
00001000
00010000
,
01000000
00000000
00000000
01000000
10000000
00000000
00000000
10000000
00100000
00000000
00000000
00100000
01000000
00000000
00000000
00000000
,
10000000
00000000
01000000
00000000
00100000
00000000
00010000
00000000
00100000
00000000
10000000
00100000
10000000
00000000
01000000
00000000
,
00020000
00001000
00031000
00000020
00000001
00000031
00001000
00000100
,
00000001
00000000
00000100
00000000
00000010
00000000
00001000
00000000
00000010
00000000
00000001
00000010
00000001
00000000
00000100
00000000
,
00001000
00000000
00000000
00010000
00000000
00000000
01000000
00000000
00200000
00000000
00000000
00000000
00310000
00000000
10000000
00000000
,
00010000
01000000
00010000
00000000
00100000
00000000
01000000
10000000
01000000
00000000
00100000
00000000
00001000
00000000
00010000
00000000
,
00000010
00000000
00000000
00000010
00000100
00000000
00000000
00000100
00001000
00000000
00000000
00000100
00000001
00000000
00000000
00000000
,
00000021
00000000
00001030
00010000
00200000
00000000
10000000
00000000
,
01300000
00000000
00010000
00000000
10000000
00000000
01000000
00000000
00010000
00000000
00000000
00001000
00000000
00000000
00010000
00000000
,
00100000
00000000
00000000
20000000
00000000
00000000
02000000
00000000
00000000
00000000
00000000
00000000
33000000
00000000
00000000
00000000
,
00020000
00000000
00000000
00100000
00000000
00000000
00130000
00000000
00000000
00000000
01001000
00000000
00000000
00011000
00000000
00000000
,
00000020
00000000
00000000
00001000
00000000
00000000
00000230
00000000
00000000
00000000
00000000
00000000
00000302
00000000
00000000
00000000
,
00000013
00001000
00010000
00001000
00000100
00001000
00010000
01000000
,
10000000
00000000
00000000
10000000
00000000
00000000
00200000
00000000
00000000
00000000
00000000
00000000
00310000
00000000
00000000
00000000
,
00100000
00000000
10000000
00000000
01000000
10000000
00000000
01000000
00100000
00000000
00010000
00100000
00000000
00010000
01000000
00000000
,
00002000
00000000
00000000
00100000
00000000
00000000
00023000
00000000
00000000
00000000
00000000
00000000
00030010
00000000
00000000
00000000
,
00010000
00000000
00000000
00001000
00000000
00000000
00000100
00000000
00000000
00000000
00000001
00000010
00000100
00000000
00000000
00000000
,
00000110
00000000
00000000
00010100
00000000
00000000
00002010
00000000
00000000
00000000
00000100
00000000
00003100
00000000
00000000
00000000
,
00010010
00000000
00000000
00101000
00000000
00000000
00011000
00000000
00000000
00000000
00010000
00000000
00000000
01000000
00000000
00000000
,
10100000
00000000
00000000
00110000
00000000
00000000
01002000
00000000
00000000
00000000
00100000
00000000
00103000
00000000
00000000
00000000
,
00011000
00000000
00000000
00010010
00000000
00000000
00001100
00000000
00000000
00000000
00000001
00000010
00000100
00000000
00001000
00000000
,
00001010
00000000
00000000
00000101
00000000
00000000
00020010
00000000
00000000
00000000
00031000
00000000
01000000
00000000
00100000
00000000
,
10100000
00000000
00000000
01001000
00000000
00000000
00210000
00000000
00000000
00000000
01300000
00000000
00000000
00010000
00000000
00000000
,
00101000
00000000
00000000
00010010
00000000
00000000
00001020
00000000
00000000
00000000
00000031
00000000
00000010
00000000
00001000
00000000
,
00001100
00000000
00000000
00010010
00000000
00000000
01001000
00000000
00000000
00000000
00000000
00000000
00000000
00000000
00000000
00000000
;
