#VERSION:0.83;
#TITLE:有頂天ビバーチェ;
#SUBTITLE:;
#ARTIST:Last Note. feat. GUMI;
#TITLETRANSLIT:An Ecstatic Vivace;
#SUBTITLETRANSLIT:;
#ARTISTTRANSLIT:;
#GENRE:J-MUSIC;
#ORIGIN:;
#CREDIT:;
#BANNER:An Ecstatic Vivace.png;
#BACKGROUND:An Ecstatic Vivace-bg.png;
#PREVIEWVID:;
#JACKET:An Ecstatic Vivace-jacket.png;
#CDIMAGE:;
#DISCIMAGE:;
#LYRICSPATH:;
#CDTITLE:;
#MUSIC:An Ecstatic Vivace.ogg;
#OFFSET:-0.085000;
#SAMPLESTART:65.653725;
#SAMPLELENGTH:14.436089;
#SELECTABLE:YES;
#BPMS:0.000=266.000;
#STOPS:;
#DELAYS:;
#WARPS:;
#TIMESIGNATURES:0.000=4=4;
#TICKCOUNTS:0.000=4;
#COMBOS:0.000=1;
#SPEEDS:0.000=1.000=0.000=0;
#SCROLLS:0.000=1.000;
#FAKES:;
#LABELS:0.000=Song Start;
#BGCHANGES:0.000=An Ecstatic Vivace-bg.png=1.000=0=0=0=StretchNoLoop===#000000=#000000,
4.000=An Ecstatic Vivace.avi=1.000=1=0=0=StretchNoLoop==CrossFade==,
99999=-nosongbg-=1.000=0=0=0 // don't automatically add -songbackground-
;
#KEYSOUNDS:;
#ATTACKS:
;

//---------------dance-single - ----------------
#NOTEDATA:;
#CHARTNAME:;
#STEPSTYPE:dance-single;
#DESCRIPTION:;
#CHARTSTYLE:;
#DIFFICULTY:Beginner;
#METER:5;
#RADARVALUES:0.191267,0.271163,0.016948,0.050843,0.000000,158.000000,156.000000,2.000000,6.000000,0.000000,0.000000,0.000000,0.000000,0.000000,0.191267,0.271163,0.016948,0.050843,0.000000,158.000000,156.000000,2.000000,6.000000,0.000000,0.000000,0.000000,0.000000,0.000000;
#CREDIT:MILEN;
#NOTES:
0000
0000
0000
0000
,
0000
0000
0000
0000
,
0000
0000
0000
0000
,
0000
0000
0000
0000
,
0000
0000
0000
0000
,
0000
0000
0000
0000
,
0000
0000
0000
0000
,
0000
0000
0000
0000
,
0000
0000
0000
0000
,
1000
0000
0000
0000
,
1000
0000
0000
0000
,
1000
0000
0000
0000
,
1000
0000
0000
0000
,
0001
0000
0000
0000
,
0001
0000
0000
0000
,
0001
0000
0000
0000
,
0001
0000
0000
0000
,
0100
0000
0000
0000
,
0100
0000
0000
0000
,
0100
0000
0000
0000
,
0100
0000
0000
0000
,
0010
0000
0000
0000
,
0010
0000
0000
0000
,
0010
0000
0000
0000
,
0010
0000
0000
0000
,
1000
0000
0000
0000
,
1000
0000
0000
0000
,
0001
0000
0000
0000
,
0001
0000
0000
0000
,
1000
0000
0000
0000
,
0001
0000
0000
0000
,
1000
0000
1000
0000
,
1000
0000
0000
0000
,
0010
0000
0000
0000
,
0010
0000
0000
0000
,
0100
0000
0000
0000
,
0100
0000
0000
0000
,
0010
0000
0000
0000
,
0100
0000
0000
0000
,
0010
0000
0010
0000
,
0010
0000
0000
0000
,
1000
0000
0000
0000
,
0100
0000
0000
0000
,
0010
0000
0000
0000
,
0001
0000
0000
0000
,
0010
0000
0010
0000
,
0010
0000
0000
0000
,
0100
0000
0100
0000
,
0100
0000
0000
0000
,
1000
0000
0000
0000
,
0010
0000
0000
0000
,
0100
0000
0000
0000
,
0001
0000
0000
0000
,
1000
0000
1000
0000
,
1000
0000
0000
0000
,
0001
0000
0001
0000
,
0001
0000
0000
0000
,
1001
0000
0000
0000
,
0000
0000
0000
0000
,
1000
0000
1000
0000
,
1000
0000
1000
0000
,
1000
0000
0000
0000
,
0000
0000
0000
0000
,
0001
0000
0001
0000
,
0001
0000
0001
0000
,
0001
0000
0000
0000
,
0100
0000
0000
0000
,
0010
0000
0000
0000
,
1000
0000
0000
0000
,
0001
0000
0000
0000
,
0010
0000
0000
0000
,
0100
0000
0100
0000
,
0100
0000
0000
0000
,
1000
0000
0000
0000
,
0010
0000
0000
0000
,
0001
0000
0000
0000
,
0100
0000
0000
0000
,
1000
0000
0000
0000
,
0010
0000
0000
0000
,
0001
0000
0000
0000
,
0100
0000
0000
0000
,
1000
0000
2000
0000
,
3000
0000
0000
0000
,
0001
0000
0002
0000
,
0003
0000
0000
0000
,
1000
0000
1000
0000
,
0001
0000
0001
0000
,
0100
0000
0010
0000
,
0200
0000
0300
0000
,
0001
0000
0100
0000
,
0010
0000
0100
0000
,
0001
0000
0100
0000
,
0010
0000
0010
0000
,
1000
0000
0100
0000
,
0010
0000
0100
0000
,
1000
0000
0100
0000
,
0010
0000
0010
0000
,
0100
0000
0200
0000
,
0300
0000
0000
0000
,
0010
0000
0020
0000
,
0030
0000
0000
0000
,
0001
0000
0001
0000
,
1000
0000
1000
0000
,
0001
0000
0100
0000
,
0010
0000
1000
0000
,
0001
0000
0000
0000
,
0100
0000
0000
0000
,
1000
0000
0000
0000
,
0020
0000
0030
0000
,
0001
0000
0001
0000
,
0001
0000
0000
0000
,
0100
0000
0100
0000
,
0100
0000
0000
0000
,
0010
0000
0010
0000
,
0010
0000
0000
0000
,
1000
0000
1000
0000
,
1000
0000
0000
0000
,
0001
0000
0001
0000
,
0010
0000
0010
0000
,
0100
0000
0100
0000
,
1000
0000
1000
0000
,
0010
0000
0010
0000
,
0100
0000
0100
0000
,
0010
0000
1000
0000
,
0100
0000
0010
0000
,
0001
0000
0000
0000
,
1000
0000
0000
0000
,
0001
0000
0000
0000
,
1001
0000
0000
0000
;

//---------------dance-single - ----------------
#NOTEDATA:;
#CHARTNAME:;
#STEPSTYPE:dance-single;
#DESCRIPTION:;
#CHARTSTYLE:;
#DIFFICULTY:Easy;
#METER:9;
#RADARVALUES:0.360744,0.490001,0.101686,0.203373,0.000000,298.000000,286.000000,12.000000,24.000000,0.000000,0.000000,0.000000,0.000000,0.000000,0.360744,0.490001,0.101686,0.203373,0.000000,298.000000,286.000000,12.000000,24.000000,0.000000,0.000000,0.000000,0.000000,0.000000;
#CREDIT:MILEN;
#NOTES:
0000
0000
0000
0000
,
0000
0000
0000
0000
,
0000
0000
0000
0000
,
0000
0000
0000
0000
,
0000
0000
0000
0000
,
0000
0000
0000
0000
,
0000
0000
0000
0000
,
0000
0000
0000
0000
,
0000
0000
0000
0000
,
1000
0000
0001
0000
,
0100
0000
0100
0000
,
0001
0000
1000
0000
,
0010
0000
0010
0000
,
1000
0000
0001
0000
,
0100
0000
0010
0000
,
0100
0000
0001
0000
,
1000
0000
1001
0000
,
0001
0000
0100
0000
,
0010
0000
0010
0000
,
1000
0000
0100
0000
,
0010
0000
0010
0000
,
0001
0000
0010
0000
,
0100
0000
0100
0000
,
1000
0000
0010
0000
,
0100
0000
0100
0000
,
1001
0000
0001
0000
,
0010
0001
0010
0000
,
0100
0000
0010
0000
,
0100
1000
0100
0000
,
1000
0000
0010
0000
,
0100
0010
0100
0000
,
0001
0000
0100
0000
,
0010
0100
0020
0030
,
1000
0000
0001
0000
,
0100
0001
0100
0000
,
0001
0000
1000
0000
,
0010
1000
0010
0000
,
2000
0000
3200
0000
,
0320
0000
0030
0001
,
0200
0000
0020
0330
,
0010
1000
0001
0000
,
1001
0000
1000
0000
,
0010
1000
0100
0000
,
1000
0000
0001
0000
,
0010
0001
0100
0000
,
0010
0000
1000
0000
,
0100
0010
0001
0000
,
0100
0000
0001
0000
,
0010
0100
2000
3000
,
0010
0000
0100
0000
,
0001
0010
0001
0000
,
0100
0000
0010
0000
,
1000
0100
1000
0000
,
0020
0000
0230
0000
,
0302
0000
2003
0000
,
3001
0000
0000
0001
,
0001
0000
0100
0000
,
0220
0000
0000
0000
,
0000
0000
0330
0000
,
0010
1000
0010
1000
,
0001
0100
0001
0000
,
2002
0000
0000
0000
,
0000
0000
3003
0000
,
1000
0100
1000
0000
,
0001
0010
0001
0010
,
0001
0000
0100
0000
,
1000
0000
0100
0000
,
0001
0010
0001
0010
,
0100
1000
0100
0000
,
1000
0000
0010
0000
,
0001
0000
0010
0000
,
1000
0000
0001
0000
1000
0000
0000
1001
,
0000
0000
0000
0001
,
0100
0000
0000
0100
0000
0000
0000
0000
,
0010
0000
0000
0010
0000
0000
0000
0000
,
1000
0000
0000
1000
0000
0000
0000
0000
,
0001
0000
0000
0001
0000
0000
0000
0000
,
0010
0000
0000
0100
0000
0000
0000
0000
,
1000
0000
0000
0001
0000
0000
1000
0000
,
1000
0010
0100
0001
,
0100
0000
0000
0010
0000
0000
0000
0000
,
1000
0001
0200
0000
,
0301
0000
0000
0000
,
0001
1000
0020
0000
,
1030
0000
0000
0000
,
1000
0100
0010
0000
,
0001
0010
0100
0000
,
1000
0001
1000
0010
,
0100
0010
0200
0300
,
0001
0000
0000
0010
0000
0000
0010
0000
,
0001
0000
0000
1000
0000
0000
0000
0000
,
1000
0000
0000
0100
0000
0000
0100
0000
,
1000
0000
0000
0001
0000
0000
0000
0000
,
0010
0000
0000
0001
0000
0000
0001
0000
,
0010
0000
0000
0100
0000
0000
0000
0000
,
0100
1000
0100
1000
,
0100
0000
0000
0010
0000
0000
0000
0000
,
0001
0100
0020
0000
,
1030
0000
1001
0000
,
1000
0100
0020
0000
,
0031
0000
1001
0000
,
0001
0100
0010
0000
,
1000
0010
0100
0000
,
0001
0010
0100
1000
,
0100
0010
0001
1000
,
0010
0000
0000
0010
0000
0000
0000
0000
,
0100
0000
0000
0100
0000
0000
0000
0000
,
0001
0000
0000
0001
0000
0000
0000
0000
,
2002
0000
0000
3003
,
1000
0000
1000
0000
,
0010
0000
0001
0000
,
1000
0000
1000
0000
,
0100
0000
1001
0000
,
0001
0000
0001
0000
,
0010
0000
1000
0000
,
0001
0000
0001
0000
,
0100
0000
1001
0000
,
1000
0010
0100
0000
,
1000
0000
0100
0000
,
0001
0100
0010
0000
,
0001
0000
0010
0000
,
1000
0100
0010
0000
,
1000
0000
0010
0000
,
0001
0010
0100
0001
,
0100
1000
0100
0010
,
0001
0000
0000
0001
0000
0000
0001
0000
,
1000
0000
0000
1000
0000
0000
1000
0000
,
0001
0000
0000
1000
0000
0000
0001
0000
,
2002
0000
3003
0000
;

//---------------dance-double - ----------------
#NOTEDATA:;
#CHARTNAME:;
#STEPSTYPE:dance-double;
#DESCRIPTION:;
#CHARTSTYLE:;
#DIFFICULTY:Easy;
#METER:8;
#RADARVALUES:0.332902,0.435556,0.084739,0.203373,0.000000,275.000000,265.000000,10.000000,24.000000,0.000000,0.000000,0.000000,0.000000,0.000000,0.332902,0.435556,0.084739,0.203373,0.000000,275.000000,265.000000,10.000000,24.000000,0.000000,0.000000,0.000000,0.000000,0.000000;
#CREDIT:MILEN;
#NOTES:
// measure 0
00000000
00000000
00000000
00000000
,  // measure 1
00000000
00000000
00000000
00000000
,  // measure 2
00000000
00000000
00000000
00000000
,  // measure 3
00000000
00000000
00000000
00000000
,  // measure 4
00000000
00000000
00000000
00000000
,  // measure 5
00000000
00000000
00000000
00000000
,  // measure 6
00000000
00000000
00000000
00000000
,  // measure 7
00000000
00000000
00000000
00000000
,  // measure 8
00000000
00000000
00000000
00000000
,  // measure 9
00001000
00000000
00010000
00000000
,  // measure 10
00000010
00000000
00000010
00000000
,  // measure 11
00010000
00000000
00001000
00000000
,  // measure 12
01000000
00000000
01000000
00000000
,  // measure 13
00001000
00000000
00010000
00000000
,  // measure 14
00000010
00000000
00010000
00000000
,  // measure 15
00001000
00000000
01000000
00000000
,  // measure 16
00001000
00000000
00011000
00000000
,  // measure 17
00010000
00000000
00001000
00000000
,  // measure 18
00100000
00000000
00100000
00000000
,  // measure 19
00001000
00000000
00010000
00000000
,  // measure 20
00000100
00000000
00000100
00000000
,  // measure 21
00010000
00000000
00001000
00000000
,  // measure 22
00100000
00000000
00001000
00000000
,  // measure 23
00010000
00000000
00000100
00000000
,  // measure 24
00010000
00000000
00001000
00000000
,  // measure 25
00011000
00000000
00010000
00000000
,  // measure 26
00000100
00001000
00000100
00000000
,  // measure 27
00010000
00000000
00001000
00000000
,  // measure 28
01000000
00010000
01000000
00000000
,  // measure 29
00001000
00000000
00010000
00000000
,  // measure 30
00000010
00001000
00000010
00000000
,  // measure 31
00010000
00000000
00001000
00000000
,  // measure 32
00100000
00010000
00200000
00300000
,  // measure 33
00001000
00000000
00010000
00000000
,  // measure 34
01000000
10000000
01000000
00000000
,  // measure 35
00010000
00000000
00001000
00000000
,  // measure 36
00000010
00000001
00000010
00000000
,  // measure 37
00002000
00000000
00023000
00000000
,  // measure 38
02030000
00000000
03000000
10000000
,  // measure 39
00200000
00000000
02000000
03300000
,  // measure 40
01000000
00001000
00010000
00000000
,  // measure 41
00011000
00000000
00001000
00000000
,  // measure 42
00100000
00010000
01000000
00000000
,  // measure 43
00001000
00000000
00010000
00000000
,  // measure 44
00000100
00001000
00000010
00000000
,  // measure 45
00010000
00000000
00001000
00000000
,  // measure 46
00010000
01000000
00100000
00000000
,  // measure 47
00001000
00000000
00010000
00000000
,  // measure 48
00001000
00000010
00000200
00000300
,  // measure 49
00010000
00000000
00001000
00000000
,  // measure 50
00000010
00000001
00000100
00000000
,  // measure 51
00001000
00000000
00010000
00000000
,  // measure 52
01000000
10000000
00100000
00000000
,  // measure 53
00020000
00000000
00032000
00000000
,  // measure 54
00003200
00000000
00000302
00000000
,  // measure 55
00001003
00000000
00000000
00001000
,  // measure 56
00000010
00000000
00010000
00000000
,  // measure 57
00022000
00000000
00000000
00000000
,  // measure 58
00000000
00000000
00033000
00000000
,  // measure 59
00001000
00100000
01000000
00000000
,  // measure 60
01000000
00010000
00001000
00000000
,  // measure 61
00022000
00000000
00000000
00000000
,  // measure 62
00000000
00000000
00033000
00000000
,  // measure 63
00010000
00000100
00000010
00000000
,  // measure 64
00000010
00001000
00010000
00000000
,  // measure 65
00010000
00000000
01000000
00000000
,  // measure 66
10000000
00000000
00100000
00000000
,  // measure 67
00010000
00001000
00000010
00000000
,  // measure 68
00000010
00000001
00001000
00000000
,  // measure 69
00000100
00000000
00000010
00000000
,  // measure 70
00000001
00000000
00000100
00000000
,  // measure 71
00001000
00000000
00000000
00000000
00010000
00000000
00000000
00011000
,  // measure 72
00000000
00000000
00000000
00001000
,  // measure 73
01000000
00000000
00000000
01000000
00000000
00000000
00000000
00000000
,  // measure 74
00001000
00000000
00000000
00001000
00000000
00000000
00000000
00000000
,  // measure 75
00010000
00000000
00000000
00010000
00000000
00000000
00000000
00000000
,  // measure 76
00000100
00000000
00000000
00000100
00000000
00000000
00000000
00000000
,  // measure 77
00010000
00000000
00000000
00001000
00000000
00000000
00000000
00000000
,  // measure 78
00001000
00000000
00000000
00010000
00000000
00000000
00001000
00000000
,  // measure 79
00001000
00000000
00010000
00000000
,  // measure 80
01000000
00000000
00000000
01000000
00000000
00000000
00000000
00000000
,  // measure 81
10000000
00100000
00020000
00000000
,  // measure 82
00030000
00000000
00000000
00000000
,  // measure 83
00001000
00000100
00000002
00000000
,  // measure 84
00000003
00000000
00000000
00000000
,  // measure 85
00000010
00000000
00000100
00000000
,  // measure 86
00000010
00000000
00000100
00000000
,  // measure 87
00000010
00000000
00000001
00000000
,  // measure 88
00000100
00001000
00020000
00030000
,  // measure 89
00001000
00000000
00000000
00001000
00000000
00000000
01000000
00000000
,  // measure 90
01000000
00000000
00000000
00001000
00000000
00000000
00000000
00000000
,  // measure 91
00010000
00000000
00000000
00010000
00000000
00000000
00000010
00000000
,  // measure 92
00000010
00000000
00000000
00010000
00000000
00000000
00000000
00000000
,  // measure 93
00001000
00000000
00000000
00001000
00000000
00000000
00100000
00000000
,  // measure 94
00100000
00000000
00000000
00001000
00000000
00000000
00000000
00000000
,  // measure 95
00010000
00000100
00010000
00000000
,  // measure 96
00000100
00000000
00000000
00000100
00000000
00000000
00000000
00000000
,  // measure 97
00000010
00001000
00020000
00000000
,  // measure 98
00030000
00000000
00000000
00000000
,  // measure 99
00100000
00010000
00002000
00000000
,  // measure 100
00003000
00000000
00011000
00000000
,  // measure 101
00010000
00000000
01000000
00000000
,  // measure 102
10000000
00000000
00100000
00000000
,  // measure 103
00010000
00001000
00000100
00000000
,  // measure 104
00001000
00000100
00000001
00000000
,  // measure 105
00000010
00000000
00000000
00000010
00000000
00000000
00000000
00000000
,  // measure 106
00001000
00000000
00000000
00001000
00000000
00000000
00000000
00000000
,  // measure 107
00010000
00000000
00000000
00010000
00000000
00000000
00000000
00000000
,  // measure 108
00022000
00000000
00000000
00033000
,  // measure 109
00001000
00000000
00010000
00000000
,  // measure 110
00100000
00000000
00010000
00000000
,  // measure 111
00001000
00000000
00010000
00000000
,  // measure 112
01000000
00000000
00010000
00000000
,  // measure 113
00001000
00000000
00000010
00000000
,  // measure 114
00001000
00000000
00010000
00000000
,  // measure 115
00001000
00000000
00000100
00000000
,  // measure 116
00001000
00000000
00011000
00000000
,  // measure 117
00010000
01000000
10000000
00000000
,  // measure 118
01000000
00000000
00100000
00000000
,  // measure 119
00001000
00010000
00000010
00000000
,  // measure 120
00001000
00000000
00000100
00000000
,  // measure 121
00000010
00000001
00000100
00000000
,  // measure 122
00001000
00000000
00010000
00000000
,  // measure 123
00100000
10000000
01000000
00000000
,  // measure 124
01000000
00010000
00001000
00000010
,  // measure 125
00000001
00000000
00000000
00000001
00000000
00000000
00001000
00000000
,  // measure 126
00000100
00000000
00000000
00000100
00000000
00000000
00010000
00000000
,  // measure 127
00001000
00000000
00000000
00010000
00000000
00000000
00001000
00000000
,  // measure 128
00022000
00000000
00033000
00000000
;

//---------------dance-single - ----------------
#NOTEDATA:;
#CHARTNAME:;
#STEPSTYPE:dance-single;
#DESCRIPTION:;
#CHARTSTYLE:;
#DIFFICULTY:Medium;
#METER:13;
#RADARVALUES:0.635539,0.760741,0.305059,0.245742,0.000000,525.000000,489.000000,36.000000,29.000000,0.000000,0.000000,0.000000,0.000000,0.000000,0.635539,0.760741,0.305059,0.245742,0.000000,525.000000,489.000000,36.000000,29.000000,0.000000,0.000000,0.000000,0.000000,0.000000;
#CREDIT:MILEN;
#NOTES:
0000
0000
0000
0000
,
0000
0000
0000
0000
,
0000
0000
0000
0000
,
0000
0000
0000
0000
,
0000
0000
0000
0000
,
0000
0000
0000
0000
,
0000
0000
0000
0000
,
0000
0000
0000
0000
,
0000
0000
0000
0000
,
1000
0000
0010
0000
0100
0000
0001
0010
,
0000
0010
0001
0000
0100
0000
0100
0000
,
0001
0000
0010
0000
0100
0000
1000
0010
,
0000
0010
1000
0000
0100
0000
0100
0000
,
1000
0000
0010
0000
0100
0000
0001
0010
,
0000
0010
0001
0000
0100
0000
0100
0000
,
0010
1000
0010
0000
0100
0000
0001
1000
,
0000
1000
0001
0000
0200
0000
0310
0000
,
0010
0000
1000
0000
0100
0000
0010
0001
,
0000
0001
0010
0000
0100
0000
0100
0000
,
0010
0000
0001
0000
0100
0000
0010
1000
,
0000
1000
0010
0000
0100
0000
0100
0000
,
0010
0000
1000
0000
0100
0000
0010
0001
,
0000
0001
0010
0000
0100
0000
0100
0000
,
1000
0010
1000
0000
0100
0000
0010
0000
,
0001
0100
0001
0000
0020
0000
0130
0000
,
0100
1000
0001
1000
,
0100
1000
0000
0001
0000
1000
0100
0000
,
0000
1000
0001
1000
,
0010
1000
0000
0001
0000
1000
0010
0000
,
0000
0000
1000
0100
1000
0000
0001
0000
,
0010
0001
0000
0100
0000
0001
0010
0000
,
0010
0000
0001
0000
0100
0000
0010
1000
,
0000
1000
0010
0000
0200
0000
0301
0000
,
0000
0001
0010
0100
,
1000
0001
0000
0100
0000
0001
1000
0000
,
0000
0010
1000
0100
,
1000
0001
0000
0010
0000
0001
1000
0000
,
1001
0000
0101
0000
,
1010
0000
0000
0000
0110
0000
0100
0010
,
0100
0001
0010
0100
,
2000
0001
3001
0000
,
0001
0100
0010
0100
,
0001
0010
0000
0100
0000
0010
0001
0000
,
0000
0000
0100
0010
0100
0000
0001
0000
,
1000
0100
0000
0010
0000
0100
1000
0000
,
0000
0010
0100
0001
,
0100
0010
0000
1000
0000
0010
0100
0000
,
0100
0000
0001
0000
0010
0000
0100
1000
,
0000
1000
0100
0000
0020
0000
0031
0000
,
0000
0001
1000
0010
,
0100
0001
0000
0010
0000
0001
0100
0000
,
0000
0000
0010
1000
0010
0000
0100
0000
,
0001
1000
0000
0010
0000
1000
0001
0000
,
0011
0000
1100
0000
,
1010
0000
0101
0000
,
1001
0000
1000
0020
0000
0000
0130
0001
,
0100
0001
0010
0100
,
2200
0000
0000
0000
,
0000
3300
1100
0000
,
1000
0010
1000
0010
1000
0000
0010
0100
,
0000
0001
0100
0000
0010
0000
0100
0000
,
0202
0000
0000
0000
,
0000
0303
0101
0000
,
0001
0000
1000
0000
0010
0000
0100
0010
,
0000
0100
0010
0000
1000
0001
1000
0000
,
0001
0010
0100
0010
,
0001
0020
0130
0000
,
0100
1000
0100
1000
0100
0000
1000
0001
,
0000
1000
0001
0000
0010
0000
0001
0000
,
0100
0010
1000
0001
,
0010
0100
1000
0010
,
0100
0000
0001
0000
1000
0001
0000
1001
,
0000
0000
0000
0000
0000
0000
1000
0010
,
1000
0000
0000
0100
0000
0000
0100
0000
,
0010
0000
0000
0010
0000
0000
0001
0100
,
0001
0000
0000
0100
0000
0000
0100
0000
,
0010
0000
0000
0020
0000
0000
0000
0000
,
1030
0000
0000
0001
0000
0000
0010
0000
,
0100
0000
0000
0010
0000
0000
0001
0100
,
0010
1010
1000
1001
,
0001
0000
0000
0202
0000
0000
0303
0000
,
0100
0000
0100
0000
0100
0000
0010
1000
,
0100
0000
0000
1000
0000
0001
1000
0000
,
0010
0000
0010
0000
0010
0000
0100
0001
,
0010
0000
0000
0001
0000
1000
0001
0000
,
0100
1000
0100
0001
,
0100
1000
0000
0100
0000
0010
0100
0000
,
0002
0013
0200
1300
,
2000
3010
0200
0301
,
0001
0000
0000
0010
0000
0000
0010
0000
,
1000
0000
0000
0010
0000
0100
1000
0100
,
1000
0000
0000
0010
0000
0000
0010
0000
,
0001
0000
0000
0020
0000
0000
0000
0000
,
1030
0000
0000
0100
0000
0000
0100
0000
,
0001
0000
0000
0100
0000
1000
0010
1000
,
0010
0110
0100
0101
,
0001
0000
1000
0020
0000
0000
0030
0000
,
0110
0000
0100
0000
0001
0000
0010
0100
,
0010
0100
0000
1000
0000
0010
0100
0000
,
0110
0000
0010
0000
1000
0000
0100
0010
,
0100
0010
0000
0001
0000
0100
0010
0000
,
1000
0100
0001
0100
,
1000
0010
0000
0001
0000
0010
0100
0000
,
0002
0013
0200
1300
,
0020
0130
0002
1003
,
1010
0000
0000
1010
0000
0000
1100
0000
,
0011
0000
0000
0011
0000
0000
0101
0000
,
0110
0000
0000
0110
0000
0000
1001
0000
,
2002
0000
3003
0000
,
0001
0000
0100
0000
1000
0000
0100
0010
,
0000
0010
0100
0000
0100
0000
0001
0000
,
1000
0000
0010
0000
0001
0000
0010
0100
,
0000
0100
0010
0000
0010
0000
1000
0000
,
0001
0000
0100
0000
1000
0000
0100
0010
,
0000
0010
0100
0000
0001
0000
1000
0000
,
0001
0010
0001
0000
1000
0000
0010
1000
,
0000
0010
0100
0000
0210
0000
0301
0000
,
0001
0010
0100
0000
0010
0000
0001
0100
,
0000
0001
1000
0000
0001
0000
0101
0000
,
1000
0010
0100
0000
0010
0000
1000
0100
,
0000
1000
0001
0000
1000
0000
1100
0000
,
0010
0001
0100
0000
0010
0000
1000
0001
,
0000
0010
0100
0000
1000
0000
1001
0000
,
0001
0100
0010
0000
1000
0000
0001
0000
,
0010
0100
1000
0000
0001
0000
0100
0000
,
0010
0000
1000
0100
0000
0001
0100
0000
,
1000
0000
0010
0001
0000
0010
1000
0000
,
0100
0000
0001
0100
0000
1000
0010
0000
,
2002
3003
0000
0000
;

//---------------dance-single - ----------------
#NOTEDATA:;
#CHARTNAME:;
#STEPSTYPE:dance-single;
#DESCRIPTION:;
#CHARTSTYLE:;
#DIFFICULTY:Hard;
#METER:17;
#RADARVALUES:0.829228,0.923756,0.516905,0.550801,0.000000,685.000000,624.000000,61.000000,65.000000,0.000000,0.000000,0.000000,0.000000,0.000000,0.829228,0.923756,0.516905,0.550801,0.000000,685.000000,624.000000,61.000000,65.000000,0.000000,0.000000,0.000000,0.000000,0.000000;
#CREDIT:MILEN;
#NOTES:
0000
0000
0000
0000
,
0000
0000
0000
0000
,
0000
0000
0000
0000
,
0000
0000
0000
0000
,
0000
0000
0000
0000
,
0000
0000
0000
0000
,
0000
0000
0000
0000
,
0000
0000
0000
0000
,
0000
0110
2002
3003
,
1000
0010
1000
0010
0100
0000
0001
0100
,
0000
0010
0200
0000
0001
0000
0301
0000
,
0001
0010
0001
0010
0100
0000
1000
0100
,
0000
0010
0200
0000
1000
0000
1300
0000
,
1000
0001
1000
0001
0010
0000
0001
0100
,
0000
0001
0020
0000
0100
0000
0130
0000
,
0100
0010
0100
0010
0100
0000
1000
0010
,
0000
0100
0002
0000
1003
0000
1001
0000
,
0001
0100
0001
0100
0010
0000
0001
0010
,
0000
0100
0020
0000
1000
0000
1030
0000
,
1000
0100
1000
0100
0010
0000
0100
0001
,
0000
0100
0020
0000
0001
0000
0031
0000
,
0001
1000
0001
1000
0100
0000
0001
0100
,
0000
1000
0200
0000
0010
0000
0310
0000
,
0010
0001
0010
0001
0100
0010
0100
0010
,
1000
0200
0010
0300
0010
0001
0010
0100
,
1000
0010
0001
0010
,
1000
0100
0000
0010
0000
0100
1000
0000
,
0001
0010
1000
0010
,
0001
0100
0000
0010
0000
0100
0001
0000
,
0011
0000
0010
0100
0010
0000
0100
0000
,
1000
0010
0000
0001
0000
0010
1000
0000
,
0200
0000
0310
0000
0100
0000
1000
0010
,
0000
0100
0001
0000
0011
0000
2200
0000
,
3300
1000
0010
0001
,
0010
0100
0000
0001
0000
0100
0020
0000
,
0030
0001
0010
1000
,
0100
0010
0000
1000
0000
0010
0100
0000
,
1100
1000
1001
0001
,
0202
0000
0000
0000
0303
0000
0100
0010
,
2000
3100
0020
0031
,
0001
0100
0010
0000
1000
0100
0010
0100
,
1000
0010
0100
1000
,
0100
0001
0000
0010
0000
0100
0010
0000
,
0001
0000
0100
0010
1000
0000
0001
0000
,
0010
1000
0000
0010
0000
0100
1000
0000
,
1001
0001
0100
0010
,
1000
0100
0000
1000
0000
0001
0010
0000
,
0001
0000
0100
0000
0010
1000
0100
1000
,
0000
0010
0100
0000
0101
0000
1010
0000
,
0010
0100
0001
1000
,
0010
0001
0000
0010
0000
0100
0001
0000
,
0010
0000
0100
1000
0010
0000
0100
0000
,
1000
0100
0000
0010
0000
1000
0001
0000
,
0011
0010
0110
0100
,
1100
1000
1001
0001
,
0101
0000
0100
0020
0000
0000
1030
0001
,
0100
0000
0100
0000
0010
1000
0001
0000
,
2002
0000
0000
0000
,
0000
3003
1001
0000
,
1000
0010
0100
0001
0100
0000
0010
0100
,
0000
1000
0100
0000
0001
0000
0010
0000
,
0220
0000
0000
0000
,
0000
0330
0110
0000
,
0100
0000
1000
0000
0010
0000
0100
0001
,
0000
0010
0001
0000
1000
0010
0100
0001
,
0100
0010
1000
0001
,
0010
0100
0220
0330
,
0010
0001
1000
0001
0010
0000
0100
0010
,
0000
0100
1000
0000
1010
0000
1001
0000
,
0101
0100
0010
1000
,
0001
0010
0100
1000
,
0001
0100
0010
1000
0010
0100
0001
0020
,
0000
0130
1000
0100
0010
0100
0010
0001
,
1001
0000
0000
0000
1000
0000
0020
0030
0000
0000
0010
0000
0001
0000
0000
0000
,
1000
0000
0000
0000
0001
0000
0200
0300
0000
0000
0100
0000
1000
0000
0001
0000
,
1000
0000
0000
0000
0001
0000
0020
0030
0000
0000
0010
0000
1000
0000
0000
0000
,
0001
0000
1000
0200
0300
0000
0100
0001
,
1001
0000
0000
0000
0001
0000
0200
0300
0000
0000
0100
0000
1000
0000
0000
0000
,
0001
0000
0000
0000
1000
0000
0020
0030
0000
0000
0010
0000
0001
0000
1000
0000
,
1020
0130
0021
0130
,
1010
0000
0010
0100
0002
0000
0003
0000
,
0011
0000
0011
0000
0011
0000
0001
0100
,
0020
1000
0000
1030
0000
0001
0100
0000
,
1010
0000
1010
0000
1010
0000
1000
0100
,
0020
0001
0030
0001
0100
0010
1000
0001
,
0011
0100
1100
0010
,
0001
0100
0000
0110
0000
0010
1000
0000
,
0100
0010
0001
0000
0010
0100
1000
0000
,
0001
0100
0010
1000
0010
0100
0001
0000
,
1001
0000
0000
0000
1000
0000
0200
0300
0000
0000
0100
0000
0001
0000
1000
0000
,
0020
0030
0000
0000
0010
0000
0001
0000
0000
0000
0010
0000
0100
0000
1000
0000
,
1001
0000
0000
0000
0001
0000
0200
0300
0000
0000
0100
0000
1000
0000
0001
0000
,
0020
0030
0000
0000
0010
0000
1000
0000
0000
0000
0010
0000
0100
0000
0001
0000
,
1001
0000
0000
0000
1000
0000
0020
0030
0000
0000
0010
0000
0100
0000
1000
0000
,
0001
0000
0000
0000
0001
0000
0200
0300
0000
0000
0100
0000
0010
0000
0001
0000
,
0201
0310
1200
0310
,
0101
0000
0010
1000
0200
0000
0300
0000
,
1100
0000
0101
0000
1100
0000
1000
0010
,
0001
0020
0000
0100
0000
0130
0001
0000
,
0011
0000
1010
0000
0011
0000
0001
0100
,
1000
0200
0000
0310
1000
0010
1000
0100
,
0010
0001
0100
0000
0010
1000
0100
0000
,
0010
0100
1000
0001
0010
0100
0010
0000
,
0001
1000
0010
0000
1000
0001
0100
0000
,
0001
1000
0010
1000
0001
0010
0001
1000
,
1001
0000
0000
0000
0001
0000
0200
0300
0000
0000
0100
0000
1000
0000
0000
0000
,
1001
0000
0000
0000
1000
0000
0020
0030
0000
0000
0010
0000
0001
0000
0000
0000
,
1001
0000
0000
0000
0001
0000
0200
0300
0000
0000
0100
0000
1000
0000
0000
0000
,
1010
0101
0220
0330
,
0010
1000
0001
1000
0010
0000
0001
0010
,
0000
1000
0020
0000
0001
0000
0130
0000
,
0100
0001
1000
0001
0100
0000
1000
0100
,
0000
0001
0200
0000
1000
0000
0310
0000
,
0010
1000
0001
1000
0100
0000
0001
0100
,
0000
1000
0020
0000
0001
0000
0130
0000
,
0100
0001
1000
0001
0010
0000
1000
0010
,
0000
0001
0100
0000
1000
0100
0001
0010
,
0100
1000
0010
0100
0010
1000
0100
0020
,
0000
0031
0100
0000
0001
0000
0101
0000
,
0100
0001
0010
0100
0010
0001
0100
0020
,
0000
1030
0100
0000
1000
0000
1100
0000
,
0100
0010
0001
0100
1000
0100
0001
0020
,
0000
0130
1000
0000
0001
0000
1001
0000
,
1000
0010
0001
0010
1000
0100
0010
0001
,
0100
1000
0100
1000
0001
0010
0001
0010
,
1000
0100
0010
0100
1000
0100
0001
0100
,
0010
1000
0010
0001
0010
0100
0010
0001
,
0200
0300
0000
0000
0200
0300
0000
0000
1000
0000
0000
0000
0020
0030
0000
0000
0020
0030
0000
0000
0001
0000
0000
0000
1000
0000
0000
0000
0000
0000
0000
0000
,
2002
3003
0000
0000
;

//---------------dance-double - ----------------
#NOTEDATA:;
#CHARTNAME:;
#STEPSTYPE:dance-double;
#DESCRIPTION:;
#CHARTSTYLE:;
#DIFFICULTY:Hard;
#METER:16;
#RADARVALUES:0.785648,0.923756,0.364376,0.364376,0.000000,649.000000,606.000000,43.000000,43.000000,0.000000,0.000000,0.000000,0.000000,0.000000,0.785648,0.923756,0.364376,0.364376,0.000000,649.000000,606.000000,43.000000,43.000000,0.000000,0.000000,0.000000,0.000000,0.000000;
#CREDIT:MILEN;
#NOTES:
// measure 0
00000000
00000000
00000000
00000000
,  // measure 1
00000000
00000000
00000000
00000000
,  // measure 2
00000000
00000000
00000000
00000000
,  // measure 3
00000000
00000000
00000000
00000000
,  // measure 4
00000000
00000000
00000000
00000000
,  // measure 5
00000000
00000000
00000000
00000000
,  // measure 6
00000000
00000000
00000000
00000000
,  // measure 7
00000000
00000000
00000000
00000000
,  // measure 8
00000000
00011000
00022000
00033000
,  // measure 9
00001000
00100000
00001000
00100000
00010000
00000000
01000000
00001000
,  // measure 10
00000000
00100000
00010000
00000000
01000000
00000000
00001000
00000000
,  // measure 11
00010000
00000100
00010000
00000100
00001000
00000000
00000010
00010000
,  // measure 12
00000000
00000100
00001000
00000000
00000010
00000000
00010000
00000000
,  // measure 13
00001000
01000000
00001000
01000000
00010000
00000000
00100000
00001000
,  // measure 14
00000000
01000000
00010000
00000000
00100000
00000000
00001000
00000000
,  // measure 15
00010000
00000010
00010000
00000010
00001000
00000000
00000100
00010000
,  // measure 16
00000000
00000010
00001000
00000000
00000100
00010000
00001000
00000000
,  // measure 17
01000000
00010000
01000000
00010000
10000000
00000000
00100000
01000000
,  // measure 18
00000000
00010000
00100000
00000000
00001000
00000000
00010000
00000000
,  // measure 19
00000010
00001000
00000010
00001000
00000001
00000000
00000100
00000010
,  // measure 20
00000000
00001000
00000100
00000000
00010000
00000000
00001000
00000000
,  // measure 21
00100000
00010000
00100000
00010000
10000000
00000000
00100000
01000000
,  // measure 22
00000000
00010000
00100000
00000000
01000000
00000000
00010000
00000000
,  // measure 23
00000100
00001000
00000100
00001000
00000001
00000100
00000001
00000100
,  // measure 24
00000010
00001000
00000100
00000000
00000100
00000010
00000001
00001000
,  // measure 25
00000001
00000100
00001000
00010000
,  // measure 26
00001000
00100000
00000000
01000000
00000000
00100000
00001000
00000000
,  // measure 27
00010000
01000000
10000000
01000000
,  // measure 28
00010000
00001000
00000000
00100000
00000000
00001000
00010000
00000000
,  // measure 29
00010010
00000000
00000010
00001000
00000010
00000000
00000100
00000000
,  // measure 30
00000001
00000010
00000000
00001000
00000000
00000010
00000001
00000000
,  // measure 31
00000200
00000000
00000310
00000000
00000010
00000000
00001000
00000100
,  // measure 32
00000000
00010000
00001000
00000000
00010000
00000000
00022000
00000000
,  // measure 33
00033000
00001000
00100000
00010000
,  // measure 34
01000000
00100000
00000000
10000000
00000000
00100000
02000000
00000000
,  // measure 35
03000000
00010000
00100000
01000000
,  // measure 36
00010000
00001000
00000000
00100000
00000000
00001000
00010000
00000000
,  // measure 37
00010010
00001000
01001000
00010000
,  // measure 38
00022000
00000000
00000000
00000000
00033000
00000000
00010000
00000100
,  // measure 39
00002000
00003010
00000200
00000301
,  // measure 40
00000001
00000010
00000100
00000000
00000010
00000001
00001000
00000001
,  // measure 41
00000010
00000001
00000100
00001000
,  // measure 42
00010000
00000100
00000000
00000010
00000000
00000100
00010000
00000000
,  // measure 43
00001000
00000000
00100000
00010000
00100000
00000000
01000000
00000000
,  // measure 44
10000000
00100000
00000000
00010000
00000000
00100000
10000000
00000000
,  // measure 45
10010000
00010000
01000000
00001000
,  // measure 46
00010000
00000100
00000000
00001000
00000000
00000100
00010000
00000000
,  // measure 47
00001000
00000000
00000100
00000000
00000001
00000010
00000100
00000010
,  // measure 48
00000000
00000001
00000010
00000000
00000001
00000000
00001001
00000000
,  // measure 49
00001000
00000010
00010000
00001000
,  // measure 50
01000000
00010000
00000000
00100000
00000000
00010000
01000000
00000000
,  // measure 51
10000000
00000000
01000000
00010000
00100000
00000000
01000000
00000000
,  // measure 52
00100000
00001000
00000000
00010000
00000000
00001000
00100000
00000000
,  // measure 53
00110000
00010000
01001000
00001000
,  // measure 54
00010010
00010000
00001100
00000100
,  // measure 55
00000011
00000000
00000001
00000200
00000000
00000000
00000310
00010000
,  // measure 56
00001000
00000000
01000000
00000000
00010000
00100000
00001000
00000000
,  // measure 57
00022000
00000000
00000000
00000000
,  // measure 58
00000000
00033000
00011000
00000000
,  // measure 59
00010000
00100000
01000000
00100000
00010000
00000000
00001000
00010000
,  // measure 60
00000000
00000010
00010000
00000000
00001000
00000000
00010000
00000000
,  // measure 61
00022000
00000000
00000000
00000000
,  // measure 62
00000000
00033000
00011000
00000000
,  // measure 63
00010000
00000000
00001000
00000000
00000010
00000000
00001000
00010000
,  // measure 64
00000000
00000100
00010000
00000000
00001000
00010000
01000000
10000000
,  // measure 65
00010000
00100000
01000000
00010000
,  // measure 66
00001000
00000010
00000220
00000330
,  // measure 67
00000100
00001000
00000001
00001000
00000100
00000000
00000010
00000001
,  // measure 68
00000000
00001000
00000010
00000000
00010010
00000000
00010000
00000000
,  // measure 69
00101000
00001000
00010000
01000000
,  // measure 70
10000000
00100000
00010000
00001000
,  // measure 71
01000000
00010000
00100000
00010000
01000000
00001000
00010000
00000200
,  // measure 72
00000000
00001300
00000010
00010000
00001000
00010000
00000010
00001000
,  // measure 73
00000100
00000000
00000010
00000001
00000000
00000100
00000001
00000000
,  // measure 74
00001000
00000000
00000010
00001000
00000000
00000100
00010000
00001000
,  // measure 75
00010000
00000000
00001000
00100000
00000000
00001000
00010000
00000000
,  // measure 76
01000000
00000000
10000000
00200000
00000000
00000000
01300000
00010000
,  // measure 77
00100000
00000000
01000000
10000000
00000000
00100000
01000000
00000000
,  // measure 78
00010000
00000000
00100000
00001000
00000000
00010000
00000100
00001000
,  // measure 79
00000002
00000203
00000320
00002030
,  // measure 80
00003200
00000000
00000310
00001000
00020000
00000000
00030000
00000000
,  // measure 81
00011000
00000000
00001000
00000000
00011000
00000000
00010000
00000100
,  // measure 82
00001000
00000001
00000000
00000100
00000000
00001000
00010000
00000000
,  // measure 83
00011000
00000000
00001000
00000000
00011000
00000000
00010000
00001000
,  // measure 84
01000000
00010000
00000000
00010000
00100000
01000000
10000000
00000000
,  // measure 85
10100000
00100000
01010000
01000000
,  // measure 86
00001000
00010000
00000000
00010100
00000000
00000100
00001000
00000000
,  // measure 87
00000002
00000103
00000020
00001030
,  // measure 88
00001000
00000100
00010000
00001000
00100000
00010000
01000000
00000000
,  // measure 89
01100000
00000000
00100000
10000000
00000000
01000000
10000000
00000000
,  // measure 90
00010000
00000000
00100000
00010000
00000000
01000000
00001000
00010000
,  // measure 91
00001000
00000000
00010000
00000010
00000000
00010000
00001000
00000000
,  // measure 92
00000100
00000000
00000001
00000020
00000000
00000000
00000130
00001000
,  // measure 93
00000010
00000000
00000100
00000001
00000000
00000010
00000100
00000000
,  // measure 94
00001000
00000000
00000010
00010000
00000000
00001000
01000000
00010000
,  // measure 95
20000000
32000000
03200000
00320000
,  // measure 96
02030000
00000000
03100000
00010000
00002000
00000000
00003000
00000000
,  // measure 97
00011000
00000000
00000100
00000000
00011000
00000000
00001000
01000000
,  // measure 98
00010000
10000000
00000000
01000000
00000000
00010000
00001000
00000000
,  // measure 99
00011000
00000000
01000000
00000000
00011000
00000000
00001000
00010000
,  // measure 100
00000100
00001000
00000000
00001000
00000010
00000100
00000001
00000000
,  // measure 101
00000011
00000010
00001100
00000100
,  // measure 102
00010000
00001000
00000000
01001000
00000000
01000000
00010000
00000000
,  // measure 103
20000000
31000000
00200000
00310000
,  // measure 104
00010000
01000000
00001000
00010000
00000010
00001000
00000100
00000010
,  // measure 105
00000001
00000000
00000100
00001000
00000000
00010000
00100000
00000000
,  // measure 106
10000000
00000000
01000000
00010000
00000000
00001000
00000010
00000000
,  // measure 107
00000001
00000000
00000100
00001000
00000000
00010000
00001000
00000000
,  // measure 108
00101000
00010010
00022000
00033000
,  // measure 109
00001000
00100000
00010000
00100000
01000000
00000000
10000000
01000000
,  // measure 110
00000000
00010000
01000000
00000000
00100000
00000000
00001000
00000000
,  // measure 111
00010000
00000010
00001000
00000010
00000100
00000000
00000001
00000100
,  // measure 112
00000000
00001000
00000100
00000000
00000010
00000000
00010000
00000000
,  // measure 113
00001000
00100000
01000000
00100000
00010000
00000000
10000000
01000000
,  // measure 114
00000000
00100000
00001000
00000000
00010000
00000000
00000010
00000000
,  // measure 115
00001000
00000100
00000010
00000100
00010000
00000000
00001000
00000100
,  // measure 116
00000000
00000001
00000100
00000000
00000010
00001000
00000100
00000010
,  // measure 117
00000001
00001000
00000010
00000100
00000010
00001000
00000100
00000020
,  // measure 118
00000000
00001030
00010000
00000000
01000000
00000000
11000000
00000000
,  // measure 119
10000000
00010000
00100000
01000000
00100000
00010000
01000000
00200000
,  // measure 120
00000000
00310000
00001000
00000000
00000100
00000000
00000101
00000000
,  // measure 121
00000001
00001000
00000010
00000100
00001000
00000100
00000010
00002000
,  // measure 122
00000000
00003100
00010000
00000000
00001000
00000000
00011000
00000000
,  // measure 123
00010000
00001000
01000000
00010000
00100000
01000000
00100000
00010000
,  // measure 124
01000000
00100000
10000000
00010000
00100000
01000000
00010000
00001000
,  // measure 125
00000010
00000001
00000100
00001000
00000000
00010000
00001000
00000000
,  // measure 126
00010000
00100000
10000000
01000000
00000000
00010000
01000000
00000000
,  // measure 127
00100000
00010000
00001000
00000100
00000000
00010000
00001000
00000000
,  // measure 128
00022000
00033000
00000000
00000000
;

//---------------dance-double - ----------------
#NOTEDATA:;
#CHARTNAME:;
#STEPSTYPE:dance-double;
#DESCRIPTION:;
#CHARTSTYLE:;
#DIFFICULTY:Medium;
#METER:12;
#RADARVALUES:0.598012,0.706402,0.254216,0.237268,0.000000,494.000000,464.000000,30.000000,28.000000,0.000000,0.000000,0.000000,0.000000,0.000000,0.598012,0.706402,0.254216,0.237268,0.000000,494.000000,464.000000,30.000000,28.000000,0.000000,0.000000,0.000000,0.000000,0.000000;
#CREDIT:MILEN;
#NOTES:
// measure 0
00000000
00000000
00000000
00000000
,  // measure 1
00000000
00000000
00000000
00000000
,  // measure 2
00000000
00000000
00000000
00000000
,  // measure 3
00000000
00000000
00000000
00000000
,  // measure 4
00000000
00000000
00000000
00000000
,  // measure 5
00000000
00000000
00000000
00000000
,  // measure 6
00000000
00000000
00000000
00000000
,  // measure 7
00000000
00000000
00000000
00000000
,  // measure 8
00000000
00000000
00000000
00000000
,  // measure 9
00001000
00010000
00000100
00001000
,  // measure 10
00000001
00001000
00000200
00010300
,  // measure 11
00010000
00001000
00100000
00010000
,  // measure 12
10000000
00010000
00200000
00301000
,  // measure 13
00001000
00010000
00000010
00001000
,  // measure 14
00000001
00001000
00000020
00010030
,  // measure 15
00010000
00001000
00000010
00010000
,  // measure 16
00100000
00001000
00010000
00011000
,  // measure 17
00010000
00001000
01000000
00010000
,  // measure 18
10000000
00010000
02000000
03001000
,  // measure 19
00001000
00010000
00000100
00001000
,  // measure 20
00000001
00001000
00000020
00010030
,  // measure 21
00010000
00001000
00100000
00010000
,  // measure 22
10000000
00010000
00200000
00301000
,  // measure 23
00001000
00010000
00100000
00001000
,  // measure 24
00000010
00010000
00001000
00011000
,  // measure 25
00010000
01000000
10000000
01000000
,  // measure 26
00010000
00001000
00000000
00001000
00000000
00010000
00001000
00000000
,  // measure 27
00000000
00000010
00000001
00000010
,  // measure 28
00001000
00010000
00000000
00010000
00000000
00001000
00010000
00000000
,  // measure 29
00000000
01000000
10000000
00100000
,  // measure 30
00010000
00001000
00000000
00001000
00000000
00010000
00001000
00000000
,  // measure 31
00000100
00000000
00000001
00000000
00000010
00000000
00001000
00010000
,  // measure 32
00000000
00010000
00001000
00000000
00020000
00000000
00031000
00000000
,  // measure 33
00000000
00001000
00010000
01000000
,  // measure 34
00010000
00001000
00000000
00001000
00000000
00010000
00001000
00000000
,  // measure 35
00000000
00010000
00001000
00000010
,  // measure 36
00001000
00010000
00000000
00010000
00000000
00001000
00010000
00000000
,  // measure 37
00010010
00000000
01001000
00000000
,  // measure 38
00010100
00000000
00000000
00000000
00101000
00000000
00001000
00010000
,  // measure 39
00001000
01000000
00010000
00100000
,  // measure 40
00002000
00010000
00013000
00000000
,  // measure 41
00010000
00001000
00000100
00000001
,  // measure 42
00000010
00000100
00000000
00000100
00000000
00000010
00001000
00000000
,  // measure 43
00000000
00010000
01000000
10000000
,  // measure 44
00100000
01000000
00000000
01000000
00000000
00100000
01000000
00000000
,  // measure 45
00000000
00001000
00010000
00000100
,  // measure 46
00000010
00000100
00000000
00000100
00000000
00000010
00000100
00000000
,  // measure 47
00001000
00000000
00000001
00000000
00000010
00000000
00000100
00010000
,  // measure 48
00000000
00001000
01000000
00000000
00020000
00000000
10030000
00000000
,  // measure 49
00000000
10000000
00100000
00010000
,  // measure 50
00001000
00000100
00000000
00000100
00000000
00000001
00000010
00000000
,  // measure 51
00000000
00000100
00000010
00000001
,  // measure 52
00000100
00001000
00000000
00001000
00000000
00010000
00001000
00000000
,  // measure 53
00101000
00000000
00010010
00000000
,  // measure 54
01001000
00000000
00010100
00000000
,  // measure 55
00011000
00000000
00001000
00200000
00000000
00000000
00310000
00000000
,  // measure 56
10000000
01000000
00100000
00001000
,  // measure 57
00022000
00000000
00000000
00000000
,  // measure 58
00000000
00033000
00011000
00000000
,  // measure 59
00010000
00000100
00010000
00000000
00000100
00000000
00001000
00000001
,  // measure 60
00000000
00000010
00000001
00000000
00000100
00000000
00001000
00000000
,  // measure 61
00022000
00000000
00000000
00000000
,  // measure 62
00000000
00033000
00011000
00000000
,  // measure 63
00010000
00000000
00001000
00000000
01000000
00000000
00010000
00100000
,  // measure 64
00000000
00010000
10000000
00000000
01000000
10000000
01000000
00000000
,  // measure 65
00100000
00010000
01000000
00001000
,  // measure 66
00010000
00000020
00001030
00000000
,  // measure 67
00001000
00000100
00001000
00000000
00000001
00000000
00000100
00000010
,  // measure 68
00000000
00001000
00000010
00000000
00000001
00000000
00000010
00000000
,  // measure 69
00000100
00001000
00010000
00100000
,  // measure 70
01000000
10000000
01000000
00010000
,  // measure 71
00100000
00000000
01000000
00000000
00010000
00001000
00000000
00011000
,  // measure 72
00000000
00000000
00000000
00000000
00000000
00000000
00010000
00000100
,  // measure 73
00001000
00000000
00000000
00000001
00000000
00000000
00001000
00000000
,  // measure 74
00000100
00000000
00000000
00000010
00000000
00000000
00000100
00010000
,  // measure 75
00001000
00000000
00000000
01000000
00000000
00000000
00001000
00000000
,  // measure 76
00010000
00000000
00000000
00000020
00000000
00000000
00000000
00000000
,  // measure 77
00001030
00000000
00000000
00000100
00000000
00000000
00010000
00000000
,  // measure 78
00001000
00000000
00000000
00100000
00000000
00000000
00010000
10000000
,  // measure 79
01000000
00100000
00010000
01000000
,  // measure 80
00001000
00000000
00000000
00022000
00000000
00000000
00033000
00000000
,  // measure 81
00010000
00000000
00010000
00000000
00010000
00000000
00000100
00001000
,  // measure 82
00000100
00000000
00000000
00001000
00000000
00000001
00000010
00000000
,  // measure 83
00001000
00000000
00001000
00000000
00001000
00000000
00100000
00010000
,  // measure 84
00100000
00000000
00000000
00010000
00000000
10000000
01000000
00000000
,  // measure 85
00010000
00001000
00010000
01000000
,  // measure 86
00010000
00001000
00000000
00001000
00000000
00010000
00000010
00000000
,  // measure 87
00001010
00000000
00011000
00000000
,  // measure 88
00110000
00000000
00000000
00000000
00011000
00000000
00001000
00010000
,  // measure 89
00001000
00000000
00000000
00100000
00000000
00000000
00010000
00000000
,  // measure 90
10000000
00000000
00000000
00100000
00000000
01000000
00010000
01000000
,  // measure 91
00001000
00000000
00000000
00010000
00000000
00000000
00000010
00000000
,  // measure 92
00001000
00000000
00000000
00000200
00000000
00000000
00000000
00000000
,  // measure 93
00000310
00000000
00000000
00000001
00000000
00000000
00000100
00000000
,  // measure 94
00001000
00000000
00000000
00010000
00000000
00100000
01000000
00100000
,  // measure 95
10000000
01000000
00010000
00001000
,  // measure 96
00000010
00000000
00000001
00002000
00000000
00000000
00003000
00000000
,  // measure 97
00001010
00000000
00000010
00000000
00010000
00000000
00001000
00100000
,  // measure 98
00001000
00100000
00000000
00010000
00000000
00100000
00010000
00000000
,  // measure 99
01010000
00000000
01000000
00000000
00001000
00000000
00010000
00000100
,  // measure 100
00010000
00000100
00000000
00001000
00000000
00000100
00001000
00000000
,  // measure 101
00000010
00000001
00000010
00001000
,  // measure 102
00000100
00000010
00000000
00000010
00000000
00000100
00010000
00000000
,  // measure 103
00011000
00000000
00001100
00000000
,  // measure 104
00011000
00000000
00110000
00000000
,  // measure 105
10010000
00000000
00000000
10000000
00000000
00000000
01000000
00000000
,  // measure 106
00010000
00000000
00000000
00001000
00000000
00000000
00000010
00000000
,  // measure 107
00000001
00000000
00000000
00000100
00000000
00000000
00001000
00000000
,  // measure 108
00022000
00000000
00033000
00000000
,  // measure 109
00010000
00001000
00000010
00001000
,  // measure 110
00010000
00000100
00000020
00001030
,  // measure 111
00001000
00010000
01000000
00010000
,  // measure 112
00001000
00100000
02000000
03010000
,  // measure 113
00010000
00001000
00000100
00001000
,  // measure 114
00010000
00000010
00000200
00001300
,  // measure 115
00001000
00010000
00001000
00000000
01000000
00000000
00001000
00010000
,  // measure 116
00000000
00000010
00010000
00000000
00002000
00000000
00013000
00000000
,  // measure 117
00001000
00010000
00001000
00000000
01000000
00000000
00010000
00000000
,  // measure 118
00100000
01000000
00100000
00000000
01000000
00000000
10000000
00000000
,  // measure 119
00010000
01000000
00010000
00000000
00100000
00000000
00001000
00000000
,  // measure 120
00010000
00000100
00010000
00000000
00000010
00000000
00001000
00000000
,  // measure 121
00000100
00000010
00000100
00000000
00000010
00000000
00000001
00000000
,  // measure 122
00000100
00001000
00000100
00000000
00001000
00000000
00010000
00000000
,  // measure 123
01000000
00100000
01000000
00000000
10000000
00000000
00100000
00000000
,  // measure 124
00010000
00001000
00010000
00000000
00000100
00000000
00001000
00000000
,  // measure 125
00000001
00000000
00000100
00000010
00000000
00001000
00000100
00000000
,  // measure 126
00010000
00000000
00001000
00100000
00000000
00010000
01000000
00000000
,  // measure 127
00001000
00000000
00010000
00000010
00000000
00001000
00000100
00000000
,  // measure 128
00022000
00033000
00000000
00000000
;
