#VERSION:0.83;
#TITLE:APT.;
#SUBTITLE:;
#ARTIST:ROSÉ & Bruno Mars;
#TITLETRANSLIT:;
#SUBTITLETRANSLIT:;
#ARTISTTRANSLIT:;
#GENRE:;
#ORIGIN:;
#CREDIT:;
#BANNER:;
#BACKGROUND:;
#PREVIEWVID:;
#JACKET:;
#CDIMAGE:;
#DISCIMAGE:;
#LYRICSPATH:;
#CDTITLE:;
#MUSIC:APT.ogg;
#OFFSET:-0.391000;
#SAMPLESTART:37.330002;
#SAMPLELENGTH:12.000000;
#SELECTABLE:YES;
#BPMS:0.000=149.000;
#STOPS:;
#DELAYS:;
#WARPS:;
#TIMESIGNATURES:0.000=4=4;
#TICKCOUNTS:0.000=4;
#COMBOS:0.000=1;
#SPEEDS:0.000=1.000=0.000=0;
#SCROLLS:0.000=1.000;
#FAKES:;
#LABELS:0.000=Song Start;
#BGCHANGES:;
#KEYSOUNDS:;
#ATTACKS:
;

//---------------dance-single - ----------------
#NOTEDATA:;
#CHARTNAME:;
#STEPSTYPE:dance-single;
#DESCRIPTION:;
#CHARTSTYLE:;
#DIFFICULTY:Hard;
#METER:12;
#RADARVALUES:0.569502,0.602299,0.734643,0.626607,0.000000,369.000000,301.000000,68.000000,58.000000,0.000000,0.000000,0.000000,0.000000,0.000000,0.569502,0.602299,0.734643,0.626607,0.000000,369.000000,301.000000,68.000000,58.000000,0.000000,0.000000,0.000000,0.000000,0.000000;
#CREDIT:nobarben;
#NOTES:
// measure 0
0000
0000
0000
0000
,  // measure 1
0000
0000
0000
0000
,  // measure 2
0000
0000
0000
0000
,  // measure 3
0000
0000
0000
0000
,  // measure 4
0002
0000
1003
0100
0000
0010
0100
0000
,  // measure 5
2000
0000
3001
0100
0000
0010
0100
0000
,  // measure 6
0002
0000
1003
0010
0000
0100
0010
0000
,  // measure 7
1010
0000
0000
2000
3001
2000
3001
0000
,  // measure 8
1000
0001
0010
0000
0001
1000
0010
0000
,  // measure 9
1000
0001
0010
0200
0000
0000
0301
0000
,  // measure 10
0100
1000
0001
0100
0010
0100
1000
0100
,  // measure 11
0002
0003
1000
0200
0310
0200
0310
0000
,  // measure 12
2100
3001
0102
1003
,  // measure 13
1100
1000
0001
0200
0000
0000
1300
0000
,  // measure 14
0100
0001
1000
0100
0010
0100
0001
0100
,  // measure 15
2000
3000
0001
0020
1030
0020
0031
0000
,  // measure 16
0011
0000
2000
0010
0000
3010
0100
0001
,  // measure 17
2000
0000
3100
0010
0110
0000
0011
0000
,  // measure 18
1001
0000
0002
0100
0000
0103
0010
1000
,  // measure 19
0002
0000
0013
0000
0110
1000
0001
0000
,  // measure 20
0011
0000
0002
0100
0000
1003
0100
0010
,  // measure 21
0001
0000
1000
0010
0110
0000
0101
0000
,  // measure 22
1000
0010
0100
0010
0001
0010
1000
0000
,  // measure 23
0002
0013
2000
3010
,  // measure 24
1001
0000
0110
0001
1000
0001
0110
0000
,  // measure 25
1001
0000
0110
1000
0001
1000
0110
0000
,  // measure 26
1001
0000
0110
0001
1000
0001
0110
0000
,  // measure 27
1001
0000
0000
0200
0310
0200
0310
0000
,  // measure 28
1001
0000
0110
1000
0001
1000
0110
0000
,  // measure 29
1001
0000
0110
0001
1000
0001
0110
0000
,  // measure 30
1001
0000
0110
1000
0001
1000
0110
0000
,  // measure 31
1001
0000
0000
0200
0310
0200
0310
0100
,  // measure 32
1001
0001
0100
0001
1000
1000
0100
1000
,  // measure 33
0001
0001
0100
0002
0013
0100
0010
0000
,  // measure 34
0001
0100
0001
1000
0100
0010
0001
1000
,  // measure 35
0020
0000
1030
0200
0310
0200
0310
0001
,  // measure 36
1000
1010
0001
0011
,  // measure 37
1000
0001
0100
0020
0000
0000
0031
0000
,  // measure 38
0010
0000
1000
0100
0001
0100
1000
0001
,  // measure 39
0010
0000
0001
0200
1300
0200
0301
0000
,  // measure 40
0110
0000
2000
0010
0000
3100
0010
0001
,  // measure 41
1000
0000
0010
0100
0101
0000
1001
0000
,  // measure 42
1100
0000
0002
0010
0000
0103
0010
1000
,  // measure 43
0001
0000
0010
0000
0110
0001
1000
0000
,  // measure 44
0101
0000
0200
0010
0000
1300
0100
0010
,  // measure 45
1000
0000
0100
0010
0110
0000
0011
0000
,  // measure 46
0001
0010
0100
0010
1000
0010
0001
0000
,  // measure 47
2000
3010
0002
0013
,  // measure 48
2002
3003
0110
0002
1003
0001
0110
0000
,  // measure 49
2002
3003
0110
2000
3001
1000
0110
0000
,  // measure 50
2002
3003
0110
0002
1003
0001
0110
0000
,  // measure 51
1001
0101
0011
1100
,  // measure 52
2002
3003
0110
2000
3100
0001
0110
0000
,  // measure 53
2002
3003
0110
0002
0103
1000
0110
0000
,  // measure 54
2002
3003
0110
2000
3100
0001
0110
0000
,  // measure 55
2002
3003
0010
0100
1001
0100
1001
0000
;

//---------------dance-single - ----------------
#NOTEDATA:;
#CHARTNAME:;
#STEPSTYPE:dance-single;
#DESCRIPTION:;
#CHARTSTYLE:;
#DIFFICULTY:Medium;
#METER:8;
#RADARVALUES:0.345714,0.361379,0.172857,0.270089,0.000000,224.000000,208.000000,16.000000,25.000000,0.000000,0.000000,0.000000,0.000000,0.000000,0.345714,0.361379,0.172857,0.270089,0.000000,224.000000,208.000000,16.000000,25.000000,0.000000,0.000000,0.000000,0.000000,0.000000;
#CREDIT:nobarben;
#NOTES:
// measure 0
0000
0000
0000
0000
,  // measure 1
0000
0000
0000
0000
,  // measure 2
0000
0000
0000
0000
,  // measure 3
0000
0000
0000
0000
,  // measure 4
1000
0000
0001
0000
0000
1000
0001
0000
,  // measure 5
1000
0000
0100
0000
0000
1000
0100
0000
,  // measure 6
0010
0000
0001
0000
0000
0010
0001
0000
,  // measure 7
1000
0000
1001
1001
,  // measure 8
0002
0103
0002
1003
,  // measure 9
0002
0000
0013
0002
0000
0000
1003
0000
,  // measure 10
0000
0001
0010
0100
,  // measure 11
2000
0000
0001
3001
,  // measure 12
2000
3010
2000
3001
,  // measure 13
2000
0000
3100
2000
0000
0000
3001
0000
,  // measure 14
0000
1000
0010
0100
,  // measure 15
0002
0000
1000
1003
,  // measure 16
0001
0000
0100
0001
0000
0100
0001
0000
,  // measure 17
1000
0100
1100
0000
,  // measure 18
1000
0000
0100
1000
0000
0100
1000
0000
,  // measure 19
0001
0100
0101
0000
,  // measure 20
0001
0000
1000
0010
0000
1000
0010
0000
,  // measure 21
0100
0001
0101
0000
,  // measure 22
1000
0000
0001
0000
0010
0100
1000
0000
,  // measure 23
0002
0000
0000
0003
,  // measure 24
1000
0000
0001
0100
0000
0001
0100
0000
,  // measure 25
0010
0000
0100
0001
0000
0100
0001
0000
,  // measure 26
0010
0000
0100
1000
0000
0100
1000
0000
,  // measure 27
0001
0000
1001
1001
,  // measure 28
0001
0000
1000
0100
0000
1000
0100
0000
,  // measure 29
0010
0000
0100
1000
0000
0100
1000
0000
,  // measure 30
0010
0000
0100
0001
0000
0100
0001
0000
,  // measure 31
1000
0000
1001
1001
,  // measure 32
0220
0000
0000
0000
,  // measure 33
0000
0000
0330
0000
0001
1000
0001
0000
,  // measure 34
1000
0000
0100
0000
0010
0001
1000
0000
,  // measure 35
0002
0000
1000
1003
,  // measure 36
0002
0013
0200
1300
,  // measure 37
0001
1000
0001
2000
0000
0000
3010
0000
,  // measure 38
0000
0000
1000
0010
0100
0000
0001
0000
,  // measure 39
0102
0000
1000
1003
,  // measure 40
0001
0000
0100
0010
0000
0100
0001
0000
,  // measure 41
1000
0100
0110
0010
,  // measure 42
0001
0000
1000
0100
0000
0010
0100
0000
,  // measure 43
1000
0001
2002
3003
,  // measure 44
1000
0000
0010
0100
0000
0010
1000
0000
,  // measure 45
0001
0010
0110
0100
,  // measure 46
0010
0000
0001
0000
0010
0001
1000
0000
,  // measure 47
0020
0000
0000
0030
,  // measure 48
0110
0000
1000
0001
0000
1000
0100
0000
,  // measure 49
0010
0000
0001
1000
0000
0001
0100
0000
,  // measure 50
0010
0000
1000
0001
0000
1000
0100
0000
,  // measure 51
0020
0230
2300
3002
,  // measure 52
0103
0000
0010
1000
0000
0001
1000
0000
,  // measure 53
0100
0000
0010
0001
0000
1000
0001
0000
,  // measure 54
0100
0000
0010
1000
0000
0001
1000
0000
,  // measure 55
1001
0000
0000
1000
0001
1000
0001
0000
;

//---------------dance-single - ----------------
#NOTEDATA:;
#CHARTNAME:;
#STEPSTYPE:dance-single;
#DESCRIPTION:;
#CHARTSTYLE:;
#DIFFICULTY:Easy;
#METER:5;
#RADARVALUES:0.260829,0.301150,0.086429,0.043214,0.000000,169.000000,161.000000,8.000000,4.000000,0.000000,0.000000,0.000000,0.000000,0.000000,0.260829,0.301150,0.086429,0.043214,0.000000,169.000000,161.000000,8.000000,4.000000,0.000000,0.000000,0.000000,0.000000,0.000000;
#CREDIT:nobarben;
#NOTES:
// measure 0
0000
0000
0000
0000
,  // measure 1
0000
0000
0000
0000
,  // measure 2
0000
0000
0000
0000
,  // measure 3
0000
0000
0000
0000
,  // measure 4
1000
0100
0000
1000
,  // measure 5
0001
0100
0000
0001
,  // measure 6
1000
0100
0000
1000
,  // measure 7
1001
0000
0001
0001
,  // measure 8
1000
0000
0001
0000
,  // measure 9
1000
0001
1000
0001
,  // measure 10
0000
0010
0100
0010
,  // measure 11
0100
0000
1000
1000
,  // measure 12
0001
0000
0100
0000
,  // measure 13
0001
1000
0001
1000
,  // measure 14
0000
0100
0010
0100
,  // measure 15
0010
0000
0001
0001
,  // measure 16
1000
0010
0000
0100
,  // measure 17
0010
1000
0001
0000
,  // measure 18
0010
0100
0000
0010
,  // measure 19
0001
1000
1001
0000
,  // measure 20
1000
0100
0000
0010
,  // measure 21
0100
1000
0001
0000
,  // measure 22
0100
0010
0000
1000
,  // measure 23
0002
0000
0000
0003
,  // measure 24
1000
0010
0000
0100
,  // measure 25
0001
1000
0000
0100
,  // measure 26
1000
0001
0000
1000
,  // measure 27
1001
0000
1000
1000
,  // measure 28
0001
0100
0000
0001
,  // measure 29
1000
0100
0000
1000
,  // measure 30
0001
0010
0000
0001
,  // measure 31
1001
0000
1000
1000
,  // measure 32
2002
0000
0000
0000
,  // measure 33
3003
0000
0001
0001
,  // measure 34
1000
0100
1000
0100
,  // measure 35
0010
0000
0001
0001
,  // measure 36
1000
0010
0100
0010
,  // measure 37
1000
0001
1000
0001
,  // measure 38
0000
0010
0100
0010
,  // measure 39
0100
0010
0100
0110
,  // measure 40
1000
0001
0000
0100
,  // measure 41
0001
1000
0100
0100
,  // measure 42
1000
0001
0000
0010
,  // measure 43
0001
1000
0010
0000
,  // measure 44
0100
0001
0000
1000
,  // measure 45
0001
1000
0100
0100
,  // measure 46
0010
0001
0000
1000
,  // measure 47
0020
0000
0000
0030
,  // measure 48
1000
0100
0010
0100
,  // measure 49
1000
0001
0010
0001
,  // measure 50
1000
0100
0010
0001
,  // measure 51
1000
0000
0001
1000
,  // measure 52
0001
0100
0010
0100
,  // measure 53
0001
1000
0010
1000
,  // measure 54
0001
0100
0010
1000
,  // measure 55
0001
0000
1001
1001
;
