#VERSION:0.83;
#TITLE:ADAMANT;
#SUBTITLE:;
#ARTIST:BEMANI Sound Team "L.E.D.-G";
#TITLETRANSLIT:;
#SUBTITLETRANSLIT:;
#ARTISTTRANSLIT:L.E.D.-G;
#GENRE:HARDCORE;
#CREDIT:;
#MUSIC:ADAMANT.ogg;
#BANNER:ADAMANT.png;
#BACKGROUND:ADAMANT-bg.png;
#CDTITLE:./CDTitles/bm IIDX 32 Pinky Crush.png;
#SAMPLESTART:50.395;
#SAMPLELENGTH:15.000;
#SELECTABLE:YES;
#OFFSET:-0.001;
#BPMS:0.000=100.000
,36.000=200.000
,64.000=100.000
,65.000=200.000
,302.000=100.000
,303.000=200.000
;
#STOPS:65.000=0.300
,303.000=0.300
;
#TIMESIGNATURES:0.000=4=4,
64.000=2=4,
66.000=4=4,
302.000=2=4,
304.000=4=4
;
#DISPLAYBPM:200.000;
#BGCHANGES:0.000=../BGAs/19cy.mp4=1.000=0=0=0=StretchNoLoop====,
99999.000=-nosongbg-=1.000=0=0=0=StretchNoLoop====
;
#FGCHANGES:;

//--------------- dance-single - forcednature ----------------
#NOTEDATA:;
#STEPSTYPE:dance-single;
#DESCRIPTION:forcednature;
#DIFFICULTY:Beginner;
#METER:7;
#RADARVALUES:0,0,0,0,0;
#CREDIT:forcednature;
#NOTES:
0000
0000
0000
0000
,
0000
0000
0000
0000
,
0000
0000
0000
0000
,
0000
0000
0000
0000
,
0000
0000
0000
0000
,
2000
0000
3000
0000
,
0002
0000
0003
0000
,
0200
0000
0300
0000
,
0020
0000
0030
0000
,
2002
0000
0000
0000
,
0000
0000
0000
0000
,
0000
0000
0000
0000
,
3003
0000
0000
0000
,
1001
0000
0000
0000
,
0110
0000
0000
0000
,
0001
0001
1000
0001
,
0020
0030
1001
0000
,
1000
0000
0100
0000
,
1000
0000
0001
0000
,
0001
0000
0010
0000
,
0001
1000
0001
0000
,
0100
0000
0010
0000
,
1000
0000
0100
0000
,
1000
0001
0020
0000
,
0030
0000
0001
0000
,
0001
1000
0000
1000
,
0001
0000
0100
0000
,
0100
0010
0000
0010
,
0100
0000
0001
0000
,
1000
0001
0000
0001
,
1000
0000
1001
0000
,
0110
0000
1000
1000
,
0001
1000
0020
0000
,
0030
0000
0000
0000
,
0000
0000
0200
0000
,
0300
0000
0001
0001
,
1000
0001
0010
0000
,
0001
0000
1000
0001
,
1000
0000
0100
0000
,
1000
0000
0001
1000
,
0001
0000
0100
0000
,
0001
0000
1000
0001
,
1000
0000
0010
0000
,
0100
0000
0002
0003
,
2000
3000
1001
0000
,
0001
0010
0000
0001
,
0000
0100
0010
0000
,
1000
0100
0000
1000
,
0000
0010
0100
0000
,
0001
1000
0000
0001
,
0000
0010
0100
0000
,
0110
0000
2002
0000
,
3003
0000
1000
1000
,
0001
0001
1000
0001
,
1000
0000
0010
0010
,
0100
0100
0010
0100
,
0020
0030
1000
1000
,
0001
0001
0010
0001
,
1000
0000
0001
0001
,
1000
1000
0200
0320
,
0230
0300
1001
1000
,
0001
0100
0010
0010
,
0010
0000
1001
0001
,
1000
0100
0010
0010
,
0010
0000
1001
1000
,
0001
1000
1001
0001
,
1000
0001
1001
0000
,
0110
0000
0001
1000
,
0001
1000
0020
0000
,
0000
0000
0000
0000
,
0000
0000
0030
0000
,
0000
0000
0000
0000
,
0000
0000
1001
0000
,
0000
0000
0110
0000
,
0000
0000
1000
1000
,
0001
1000
0020
0030
,
1001
0000
0001
0000
,
0100
0000
0001
1000
,
0001
0000
0010
0000
,
0100
0000
1000
0001
,
1000
0000
0010
0000
,
1000
0000
0100
1000
,
0100
0000
0000
0100
0000
0000
0100
0000
,
0000
0000
1000
0001
,
1000
0000
0010
0000
,
0100
0000
0001
1000
,
0001
0000
0010
0000
,
0100
0000
0010
0000
,
2002
0000
0000
0000
,
3003
0000
0000
0000
,
1000
1000
0001
1000
,
0010
0100
0001
0010
,
0200
0000
0300
0000
,
1000
0000
0001
0000
,
1000
0000
0001
0000
,
2002
0000
3003
0000
;

//--------------- dance-single - forcednature ----------------
#NOTEDATA:;
#STEPSTYPE:dance-single;
#DESCRIPTION:forcednature;
#DIFFICULTY:Easy;
#METER:11;
#RADARVALUES:0,0,0,0,0;
#CREDIT:forcednature;
#NOTES:
0000
0000
0000
0000
,
0000
0000
0000
0000
,
0000
0000
0000
0000
,
0000
0000
0000
0000
,
0000
0000
0000
0000
,
0002
0000
0000
0013
,
0200
0000
0000
1300
,
0002
0000
0000
0000
,
0103
0010
1000
0001
,
2002
0000
0000
0000
,
0000
0000
0000
0000
,
0000
0000
0000
0000
,
0000
0000
3003
0000
,
1001
1000
1000
0100
,
1001
0001
0001
0100
,
0110
0000
0010
0000
0100
0010
0100
0000
,
2002
3003
1001
0001
,
0010
0100
1000
0001
,
0100
0000
0010
0100
0010
0000
1000
0000
,
0001
0000
0010
0001
0010
0000
0100
0000
,
1000
0001
1001
1000
,
0010
0000
1000
0001
1000
0000
0001
0000
,
0010
0100
0010
0000
0100
0000
1000
0000
,
0001
0100
2002
0000
,
3003
0000
0000
0000
1000
0000
0001
1000
,
0000
0001
1000
0000
0001
0000
0010
0000
,
0100
0000
1000
0000
0001
1000
0001
0000
,
1000
0001
0000
1000
0001
0000
0010
0000
,
0100
0000
1000
0000
0010
0000
0100
0010
,
0000
0100
0010
0000
1000
0000
0100
0000
,
0010
0001
1001
1000
,
0001
1000
0000
1000
0001
0000
0010
0100
,
0000
0100
0010
0000
0220
0000
0000
0000
,
0330
0000
0000
0000
,
0000
0000
2002
0000
,
3003
0000
1000
1000
,
0001
1000
0001
0000
1001
0000
1000
0000
,
0010
1000
0001
0010
,
0001
1000
0100
0010
,
0100
1000
0010
0100
,
0001
1001
1000
0100
,
1000
0001
0010
0100
,
1000
0010
0100
0001
,
0010
0001
2000
3000
,
0001
1000
0001
0000
2002
0000
3003
0000
,
1000
0010
0001
0010
,
1000
0001
2002
3003
,
0001
0010
1000
0010
,
0001
1000
2002
3003
,
1000
0100
0001
0100
,
1000
0001
2002
3003
,
0001
1000
0001
1000
0002
0000
0000
0000
,
0003
0000
1001
0000
,
0110
0000
1001
1000
,
0001
1000
1001
0000
,
0110
0000
1001
0001
,
1000
0001
1001
0000
,
0110
0000
1000
0001
,
0010
0100
0110
0000
,
1001
0000
0002
1000
,
2000
3003
1001
1001
,
0110
0110
1000
0001
,
0010
0100
1001
1001
,
0110
0110
0001
1000
,
0010
0100
1001
1001
,
0110
0110
1001
1001
,
0110
0110
2000
3000
,
0002
0003
0010
0010
,
0100
0010
2002
0000
,
0000
0000
0000
0000
,
0000
0000
3003
0000
,
0000
0000
0000
0000
,
0000
0000
1001
0000
,
1000
0100
1001
0000
,
0001
0100
1001
1000
,
0001
1000
0001
0000
2002
0000
3003
0000
,
1000
0000
1000
0001
0000
0001
0020
0000
,
0030
0100
1000
0001
,
0100
0000
0100
0010
0000
0010
0200
0000
,
0300
0001
1000
0100
,
0010
0000
0010
0001
0000
0001
0020
0000
,
0030
0100
1000
0001
,
0100
0000
0000
0110
0000
0000
1001
0000
,
0000
0001
0000
0001
1000
0000
1000
0000
,
0001
0000
0001
0010
0000
0010
0100
0000
,
1000
0001
0100
0010
,
1000
0000
1000
0001
0000
0001
0010
0000
,
0100
1000
0010
0100
,
2002
0000
0000
0000
,
0000
0000
3003
0000
,
1000
0001
0000
1000
0001
0000
0010
0001
,
0000
1000
0100
0000
0010
0000
0110
0000
,
2002
0000
3003
0000
,
1000
1000
0001
0001
,
0100
0010
0010
0100
,
2002
0000
3003
0000
;

//--------------- dance-single - forcednature ----------------
#NOTEDATA:;
#STEPSTYPE:dance-single;
#DESCRIPTION:forcednature;
#DIFFICULTY:Medium;
#METER:14;
#RADARVALUES:0,0,0,0,0;
#CREDIT:forcednature;
#NOTES:
0000
0000
0000
0000
,
0000
0000
0000
0000
,
0000
0000
0000
0000
,
0000
0000
0000
0000
,
0000
0000
0000
0000
,
2002
0000
0000
0000
3003
0000
1000
0001
,
0020
0000
0130
1000
,
0002
0000
0000
0000
0000
0000
0000
0003
,
0200
0000
0320
0000
2030
0000
3002
0003
,
2002
0000
0000
0000
,
0000
0000
0000
3003
,
1000
0001
0100
0001
,
1000
0100
1000
0001
,
1001
0000
1000
0010
1000
0000
0001
0001
,
1000
0000
0001
0100
0001
0000
1000
1000
,
0001
0000
0010
0000
0100
0000
1000
0000
0001
0000
0100
0000
0010
0100
0010
0000
,
2000
3000
1001
0011
,
1000
0100
0010
0000
0100
1000
0001
0100
,
0001
1000
0100
0000
1100
0000
1010
0000
,
0001
0010
0100
0000
0010
0001
0100
0001
,
0010
0001
1000
0000
1010
0000
1100
0000
,
0001
0010
0100
0000
1000
0001
0100
0001
,
1000
0010
0100
0000
0001
1000
0001
1000
,
0001
0000
0010
0000
0100
0010
0100
0000
2000
0000
0000
0000
0000
0000
0000
0000
,
3000
0000
0000
0000
0101
0000
1000
1100
,
0000
0001
0101
0000
1000
0010
0000
0100
,
0001
0100
0001
0000
1000
1000
0001
0000
,
1000
1010
0000
0001
0011
0000
1000
0100
,
0000
0010
0001
0000
1001
0000
1000
1010
,
0000
0001
0101
0000
1000
0100
0000
0010
,
0001
0010
0001
0000
0101
0000
1000
1000
,
0001
1000
0000
0010
1000
0001
0010
0001
,
1000
0000
0100
0000
0010
0100
0010
0000
0002
0000
0000
0000
0000
0000
0000
0003
,
0000
0000
0000
0000
,
0000
0000
0000
0000
0000
0000
0000
0000
2002
0000
0000
0000
0000
0000
0000
3003
,
0000
0000
0000
0000
1000
0001
0100
0001
,
1000
0000
0010
0000
0100
0010
0100
0000
0001
0000
0000
0000
0010
0000
0100
0000
,
0010
0001
0000
0100
0010
0000
1000
0100
,
0010
0000
0110
0000
1001
0000
1000
0010
,
0100
0010
0000
1000
0100
0000
1100
0000
,
0101
0000
0001
0001
0010
0000
0001
0100
,
0010
0100
0000
0001
0010
0000
0100
1000
,
0010
0000
1010
0000
0011
0000
1000
0100
,
0010
0100
0000
1000
0001
0001
1000
0001
,
0200
0300
0020
0030
1001
0000
1100
0000
,
0001
0010
0100
0010
0001
0100
0010
0000
,
1010
0011
1001
0101
,
1000
0010
0100
0010
1000
0100
0010
0000
,
0001
0000
1000
0001
1000
0000
0000
0000
0011
0000
0000
0000
0101
0000
0000
0000
,
1000
0010
1000
0000
1010
0000
1100
0000
,
0001
0010
0001
0000
0100
1000
0100
0001
,
1000
0000
0000
1000
0000
0000
1000
0000
0000
0000
0000
0000
1001
0000
0000
0000
0000
0000
0010
0000
0000
0000
0100
0000
,
0000
0220
0000
0330
0000
0000
1001
0000
0000
1100
0000
0000
,
0001
0000
0001
0010
0000
0000
0100
0000
1000
0001
0000
0100
,
0001
0000
1000
0100
0000
0000
1001
0000
0000
0101
0000
0000
,
1000
0000
1000
0010
0000
0000
0100
0000
0001
1000
0000
0100
,
1000
0000
0000
0010
0100
0010
0100
0000
0000
1010
0000
0000
,
0001
0000
0001
0100
0000
0000
0010
0000
1000
0001
0000
0010
,
0001
0000
1000
0010
0000
0000
1001
0000
0000
0011
0000
0000
,
1000
0000
1000
0100
0000
0000
0110
0000
0000
0110
0000
0000
,
0110
0000
0000
2000
0000
0000
3001
0000
0001
0100
0000
0100
,
1000
0000
1000
0100
0000
0100
0001
0000
0001
1000
0000
0001
,
0010
0000
0100
1000
0000
0001
1000
0000
1000
0100
0000
0100
,
0001
0000
0001
0100
0000
0100
1000
0000
0010
1000
0000
0001
,
0100
0000
0000
0010
0100
0010
0100
0000
0001
0010
0000
0100
,
1000
0000
0001
0100
0000
0010
1000
0000
0100
0010
0000
0001
,
1000
0000
0010
0100
0000
0001
0020
0000
0000
0130
0000
0100
,
1000
0000
1000
0001
0000
0001
0100
0000
0010
1000
0000
0001
,
0100
0000
0010
1000
0000
0000
2002
0000
0000
0000
0000
0000
,
0000
0000
0000
0000
,
0000
0000
3003
0000
,
0000
0000
0000
0000
,
0000
0000
0011
1000
,
0100
0000
0001
0100
1000
0000
0001
0000
,
0100
0000
1000
0100
0001
1000
0010
1000
,
0001
0000
0100
0000
0010
0100
0010
0000
2000
0000
0000
0000
3000
0000
0000
0000
,
1001
0000
0001
0011
0000
0010
0110
0000
,
0100
1100
0000
1000
1001
0000
0001
1000
,
0001
0000
1000
1010
0000
0010
0110
0000
,
0100
0101
0000
0001
1000
1000
0001
0000
,
0110
0000
1000
1010
0000
0001
0011
0000
,
1000
1100
0000
0001
0100
0100
0001
0000
,
2002
0000
3003
0220
0000
0330
1000
0001
,
0000
0000
0101
0000
0000
0000
1000
0000
0001
1000
0001
0000
0010
0000
0000
0000
,
0110
0000
0100
1000
0001
0100
0110
0000
,
0100
0001
1000
0100
0110
0000
1000
0001
,
1001
0000
0001
0010
0100
1000
1100
0000
,
1000
0010
0100
0001
0101
0000
0110
0000
,
2002
0000
0000
0000
,
0000
0000
3003
0000
,
1001
1000
0001
0011
0010
0100
1100
1000
,
0001
0000
0001
0000
0001
0000
1000
0000
0001
0000
0100
0000
0010
0100
0010
0000
,
2000
3000
1001
0001
,
1000
0000
0001
0000
1000
0010
1000
0000
,
0001
0010
0001
0000
0100
0000
0010
0000
,
2002
0000
3003
0000
;

//--------------- dance-single - forcednature ----------------
#NOTEDATA:;
#STEPSTYPE:dance-single;
#DESCRIPTION:forcednature;
#DIFFICULTY:Hard;
#METER:16;
#RADARVALUES:0,0,0,0,0;
#CREDIT:forcednature;
#NOTES:
0000
0000
0000
0000
,
0000
0000
0000
0000
,
0000
0000
0000
0000
,
0000
0000
0000
0000
,
0000
0000
0000
0000
,
2002
0000
0000
0000
3003
0000
1000
0100
,
0020
0000
0032
2003
,
3020
0000
0000
0000
0000
0000
0000
0030
,
0200
0000
0302
0000
0023
0000
0230
0300
,
2002
0000
0000
0000
,
0000
0000
0000
3003
,
1000
0001
1000
0100
,
0010
0000
0000
0000
0001
0000
0000
0000
0100
0000
0001
0000
0100
0010
0100
0000
,
0010
0000
1000
0010
1000
0001
0010
0100
,
1001
0000
0001
0100
0001
1000
0100
0010
,
0001
0000
0001
0000
1000
0000
0001
0000
0100
0001
0100
0000
0010
1000
0010
0000
,
2002
0000
3003
0000
1100
0000
0001
0010
,
0200
0000
1000
0000
0310
0001
1000
0000
,
0010
0100
0001
0001
1000
0000
0100
0010
,
0002
0000
1000
1000
1003
0000
0001
0100
,
0010
0000
1000
0000
0001
1000
0001
0000
0010
0000
0000
0000
0100
0000
1000
0000
,
0002
0000
0100
0100
0103
0000
0001
1000
,
0010
0000
0100
0000
0001
1000
0001
0000
1000
0000
0100
0000
1000
0000
0001
0000
,
0010
0001
0010
0000
0100
1000
0100
0000
2002
0000
0000
0000
3000
0000
0000
0000
,
0003
0000
0000
0000
0100
0000
0100
0000
0002
0000
0000
0000
0013
0100
2000
0000
,
0000
0000
3010
0100
0002
0000
0000
0000
1003
0000
2000
0000
0000
0000
3010
0000
,
0100
0010
0100
0100
0001
0010
0002
0000
,
0103
0010
2000
0000
0000
0000
3100
0010
0002
0000
0000
0000
1003
0000
1000
0000
,
0010
0000
1000
0000
0010
0100
0010
0000
0100
0000
0000
0000
0001
0010
0200
0000
,
0000
0000
1300
0010
0200
0000
0000
0000
0301
0000
0001
0000
0000
0000
0010
0000
,
0001
0000
0010
0000
0001
0000
0001
0000
2000
0000
0000
0000
3010
0100
0001
0000
,
0010
0100
2000
0000
0000
0000
3010
0000
0100
0000
0100
0000
0001
0000
0100
0000
,
0010
0100
0001
0000
1000
0001
1000
0001
0020
0000
0000
0000
0200
0000
0000
0330
,
0000
0000
1000
0001
1000
0000
0100
0000
0000
0000
0010
0000
0000
0000
0001
0000
,
0000
0000
2000
0000
0000
0000
3000
0000
0020
0000
0000
0000
0200
0000
0000
0330
,
0000
0000
0001
1000
0001
0000
0100
0000
0010
0000
0010
0000
1000
0000
0001
0000
,
1000
0001
1000
0001
0100
0001
0100
0001
1000
0000
0000
0100
1000
0000
0001
0000
,
0000
0000
0010
0000
0100
0000
1000
0000
0001
0000
0000
0100
0001
0000
1000
0000
,
0000
0000
0010
0000
0100
0000
0100
0000
0001
0000
0000
0010
0001
0000
1000
0000
,
0000
0000
0100
0000
0010
0000
0001
0000
1000
0000
0000
0010
1000
0000
0001
0000
,
1000
0000
1000
0000
0100
0000
0001
0000
0100
0000
0000
0010
0100
0000
1000
0000
,
0001
0000
0100
0000
0001
0000
1000
0000
0010
0000
0000
0100
0010
0000
1000
0000
,
0001
0000
0010
0000
0001
0000
0001
0000
1000
0000
0100
1000
0100
0000
0010
0000
,
0001
1000
0001
0001
0100
0100
0010
0010
,
1000
0001
1000
0000
0010
0100
0010
0000
1000
0000
0100
0000
1000
0000
1100
0000
,
0000
0001
1001
0000
0001
0010
1000
0010
,
0001
1000
0100
0100
1000
0010
1000
1010
,
0000
0001
1001
0000
0010
0010
0010
0000
,
0110
0000
1000
0001
1000
0000
0001
0000
0010
0000
0100
0000
1000
0000
1100
0000
,
0000
0001
1001
0000
1000
0010
0001
0010
,
1000
0001
0100
0100
0001
0010
0100
1000
,
0001
0000
0000
1000
0000
0000
0001
0000
0000
1000
0000
0000
0001
0000
0000
1000
0000
0000
0001
0000
0000
1000
0000
0000
0010
0000
0000
0000
0000
0000
0000
0000
0010
0000
0000
0000
0100
0000
0000
0000
0000
0000
0000
0000
0110
0000
0000
0000
,
0000
0001
1000
0001
1000
0001
0010
0000
0100
1000
0100
0010
,
0001
0000
0100
0001
0100
0010
1000
0000
1000
0001
0000
0001
,
0010
0000
0010
0100
1000
0001
1000
0000
0010
1000
0010
0100
,
0001
0000
0010
0001
0010
0100
1000
0000
1000
0100
0000
0100
,
0001
0000
0000
0100
1000
0001
0010
0000
0001
1000
0100
1000
,
0001
0000
1000
0001
0100
0001
1000
0000
1000
0010
0000
0010
,
0100
0000
0100
0001
1000
0001
0010
0000
0100
1000
0001
1000
,
0100
0000
0010
0001
1000
0001
0200
0000
0000
1000
0000
0000
,
0301
0000
0001
2000
0000
0000
3001
0010
0001
0010
0100
0010
,
0100
1000
0100
1000
0001
1000
0001
0100
0001
1000
0100
1000
,
0001
0010
0100
1000
0000
1000
0010
0100
0010
0100
0001
0100
,
0001
1000
0001
1000
0100
1000
0100
0000
0100
0001
0000
0100
,
1000
0000
0000
0100
0010
0100
0010
0001
1000
0010
0100
0001
,
1000
0100
0010
0001
0100
0001
1000
0100
1000
0001
0010
0100
,
1000
0001
0100
0001
0000
0010
0200
0000
0000
1300
0001
0100
,
0001
1000
0100
0010
0001
0100
0010
0000
0010
1000
0000
0010
,
0001
0000
0010
0100
0000
0000
2002
0000
0000
0000
0000
0000
,
0000
0000
0000
0000
,
0000
0000
3003
0000
,
0000
0000
0000
0000
,
0000
0000
0000
0000
1001
0000
1000
0100
,
1000
0001
0010
0100
1001
0000
0001
0100
,
0001
1000
0010
0100
0001
0001
1000
0001
,
0010
0001
0010
0000
0100
1000
0100
0000
2002
0000
0000
0000
3003
0000
0000
0000
,
1000
0000
0100
0010
0100
0000
1000
0000
0100
0010
0100
0000
1000
0000
0010
0100
,
0010
0000
1000
0000
0010
0100
0010
0000
1000
0000
0001
0010
0100
0000
1000
0000
,
0001
0000
0100
0010
0100
0000
0001
0000
0100
0010
0100
0000
0001
0000
0010
0100
,
0010
0000
0001
0000
0010
0100
0010
0000
0001
0000
1000
0000
0100
1000
0001
0000
,
0100
0000
0010
1000
0010
0000
0100
0000
0001
0010
0001
0000
0100
0000
0100
0000
,
0010
0000
0100
0001
0100
0000
0010
0000
1000
0100
1000
0000
0001
0010
0001
0000
,
2002
0000
0000
0000
3003
0000
0220
0000
0000
0000
0330
0000
0001
1000
0100
0000
,
0000
0000
0011
0000
0000
0000
1010
0000
0001
1000
0001
0000
1000
0100
1000
0000
,
0010
0000
0100
0001
0100
0000
0010
0000
1000
0100
1000
0000
0001
0000
1000
0010
,
1000
0000
0100
0000
0010
0001
0010
0000
0100
0000
1000
0001
1000
0000
0010
0000
,
0100
0000
0001
1000
0001
0000
0010
0000
0001
1000
0001
0000
0100
0000
0010
1000
,
0010
0000
0100
0000
0001
0010
0001
0000
1000
0000
0100
0000
0010
0001
1000
0000
,
2002
0000
0000
0000
0000
3000
0000
1000
,
1000
0013
0220
0330
,
1001
1000
0100
1001
0001
0100
0110
1000
,
0001
0100
0001
0100
0001
1000
0100
1000
0001
0010
0001
0000
1000
0010
1000
0000
,
2001
0000
0001
0000
3001
0000
0001
1000
,
0001
0000
1000
0001
0010
0001
1000
0000
,
0001
0000
0100
0001
0100
0000
0010
1000
0010
0000
0100
0001
1000
0000
0010
0000
,
2002
0000
3003
0000
;

//--------------- dance-double - forcednature ----------------
#NOTEDATA:;
#STEPSTYPE:dance-double;
#DESCRIPTION:forcednature;
#DIFFICULTY:Easy;
#METER:11;
#RADARVALUES:0,0,0,0,0;
#CREDIT:forcednature;
#NOTES:
00000000
00000000
00000000
00000000
,
00000000
00000000
00000000
00000000
,
00000000
00000000
00000000
00000000
,
00000000
00000000
00000000
00000000
,
00000000
00000000
00000000
00000000
,
00020000
00000000
00000000
00030100
,
00002000
00000000
00000000
00003001
,
00000020
00000000
00000000
00000000
,
00000031
00000100
00000010
00001000
,
00002002
00000000
00000000
00000000
,
00000000
00000000
00000000
00000000
,
00000000
00000000
00000000
00000000
,
00000000
00000000
00003003
00000000
,
00011001
00000001
00000001
00000100
,
00001000
00010000
00010000
00001000
,
00011000
00010000
00100000
10000000
,
20020000
30030000
10010000
00010000
,
00100000
01000000
00100000
00001000
,
00010000
00000000
00001000
00010000
00001000
00000000
00010000
00000000
,
00000100
00001000
00000001
00000100
,
00000001
00001000
00001001
00000001
,
00000010
00000100
00010000
00001000
,
00010000
00001000
00010000
00000000
00001000
00000000
00010000
00000000
,
00100000
10000000
20020000
00000000
,
30030000
00000000
00000000
00000000
10000000
00000000
00010000
10000000
,
00000000
00010000
10000000
00000000
00010000
00000000
00100000
00000000
,
01000000
00100000
00001000
00010000
,
00001000
00010000
00000000
00001000
00010000
00000000
00001000
00000000
,
00000010
00000000
00000001
00000000
00000100
00000000
00000010
00000100
,
00000000
00000010
00000100
00000000
00000001
00000000
00001000
00000000
,
00000001
00000010
00001000
00010000
,
00001000
00010000
00000000
00010000
00001000
00000000
00100000
00000000
,
00010000
01000000
02200000
00000000
,
03300000
00000000
00000000
00000000
,
00000000
00000000
20020000
00000000
,
30030000
00000000
10000000
10000000
,
00010000
10000000
00010000
00000000
10010000
00000000
10000000
00000000
,
00100000
10000000
00010000
00100000
,
01000000
10000000
01000000
00010000
,
00001000
00010000
00001000
00000010
,
00000001
00001001
00001000
00000010
,
00001000
00000001
00000100
00001000
,
00010000
00001000
00010000
00100000
,
10000000
00010000
20000000
30000000
,
00010000
10000000
00010000
00000000
20020000
00000000
30030000
00000000
,
10000000
00100000
01000000
00100000
,
00010000
00001000
00022000
00033000
,
00010000
00001000
00000010
00000100
,
00000010
00000001
00002002
00003003
,
00001000
00000001
00000100
00001000
,
00010000
00001000
00022000
00033000
,
00010000
00001000
00010000
00001000
00020000
00000000
00000000
00000000
,
00030000
00000000
00011000
00000000
,
00100000
00000000
10010000
10010000
,
10010000
00000000
01100000
00000000
,
00010000
00000000
00011000
00011000
,
00011000
00000000
00011000
00000000
,
00000010
00000000
00001001
00001001
,
00001001
00000000
00000110
00000000
,
00001000
00000000
00020000
00001000
,
00002000
00033000
00011000
00011000
,
00011000
00011000
00100000
00010000
,
01000000
00000000
01100000
01100000
,
01100000
01100000
10000000
01000000
,
00010000
00000000
00011000
00011000
,
00011000
00000100
00011000
00011000
,
00011000
01000000
00020000
00030000
,
20000000
30000000
01000000
00010000
,
00001000
00010000
00022000
00000000
,
00000000
00000000
00000000
00000000
,
00000000
00000000
00033000
00000000
,
00000000
00000000
00000000
00000000
,
00000000
00000000
00011000
00000000
,
00001000
00000010
00000001
00000000
,
00000001
00000100
00001000
00010000
,
00001000
00010000
00001000
00000000
00022000
00000000
00033000
00000000
,
01000000
00000000
01000000
00010000
00000000
00010000
00200000
00000000
,
00300000
01000000
10000000
01000000
,
00010000
00000000
00010000
00001000
00000000
00001000
00020000
00000000
,
00030000
00001000
00000010
00000001
,
00000100
00000000
00000100
00000001
00000000
00000001
00000200
00000000
,
00000300
00001000
00010000
00100000
,
01000000
00000000
00000000
01100000
00000000
00000000
10010000
00000000
,
00000000
00010000
00000000
00010000
10000000
00000000
10000000
00000000
,
00010000
00000000
00010000
00100000
00000000
00100000
02000000
00000000
,
03000000
10000000
01000000
00010000
,
00001000
00000000
00001000
00100000
00000000
00100000
00002000
00000000
,
00003000
00010000
00001000
00000010
,
00000002
00000000
00000000
00000000
,
00000000
00000000
00000003
00000000
,
00000001
00001000
00000000
00000001
00001000
00000000
00000001
00000100
,
00000000
00000010
00001000
00000000
00000100
00000000
00000010
00000000
,
00002002
00000000
00003003
00000000
,
00000001
00000001
00000100
00001000
,
00010000
00010000
00100000
00000000
,
20020000
00000000
30030000
00000000
;

//--------------- dance-double - forcednature ----------------
#NOTEDATA:;
#STEPSTYPE:dance-double;
#DESCRIPTION:forcednature;
#DIFFICULTY:Medium;
#METER:14;
#RADARVALUES:0,0,0,0,0;
#CREDIT:forcednature;
#NOTES:
00000000
00000000
00000000
00000000
,
00000000
00000000
00000000
00000000
,
00000000
00000000
00000000
00000000
,
00000000
00000000
00000000
00000000
,
00000000
00000000
00000000
00000000
,
00022000
00000000
00000000
00000000
00033000
00000000
00001000
00010000
,
00200000
00000000
10300000
00010000
,
02000000
00000000
00000000
00000000
00000000
00000000
00000000
03000000
,
00002000
00000000
00023000
00000000
00030020
00000000
00002030
00003000
,
00002002
00000000
00000000
00000000
,
00000000
00000000
00000000
00003003
,
00000001
00000010
00001000
00010000
,
01000000
10000000
00100000
01000000
,
10010000
00000000
10000000
00100000
10000000
00000000
00010000
00010000
,
00100000
00000000
01000000
10000000
01000000
00000000
00010000
00010000
,
00001000
00000000
00010000
00000000
00001000
00000000
00000010
00000000
00000001
00000000
00000010
00000000
00000100
00000010
00000100
00000000
,
00002000
00003000
00001001
00000011
,
00000001
00000100
00001000
00000000
00010000
00001000
00010000
00100000
,
01000000
00100000
01000000
00000000
01100000
00000000
10100000
00000000
,
10000000
01000000
00010000
00000000
00001000
00100000
00010000
00100000
,
00001000
00010000
01000000
00000000
01100000
00000000
00101000
00000000
,
00001000
00010000
00000010
00000000
00001000
00000001
00000100
00000001
,
00000010
00000100
00001000
00000000
00000010
00010000
00000010
00010000
,
00001000
00000000
00100000
00000000
00010000
00100000
00010000
00000000
20000000
00000000
00000000
00000000
00000000
00000000
00000000
00000000
,
30000000
00000000
00000000
00000000
11000000
00000000
01000000
00010000
,
00000000
00001000
00000010
00000000
00000011
00000000
00001000
00000001
,
00000100
00000001
00001000
00000000
00000001
00000010
00000001
00000000
,
00000100
00001000
00000000
00010000
00100000
00000000
10000000
00010000
,
01000000
00010000
10000000
00000000
10010000
00000000
10000000
00100000
,
00000000
00010000
00001000
00000000
00000100
00000001
00000000
00000010
,
00000001
00000010
00000100
00000000
00000110
00000000
00000010
00000010
,
00000010
00000010
00000000
00000001
00000100
00001000
00010000
00001000
,
00010000
00000000
00100000
00000000
01000000
00100000
01000000
00000000
00200000
00000000
00000000
00000000
00000000
00000000
00000000
00300000
,
00000000
00000000
00000000
00000000
,
00000000
00000000
00000000
00000000
00000000
00000000
00000000
00000000
20020000
00000000
00000000
00000000
00000000
00000000
00000000
30030000
,
00000000
00000000
00000000
00000000
00010000
10000000
01000000
00010000
,
00001000
00000000
00010000
00000000
00001000
00010000
00001000
00000000
00010000
00000000
00000000
00000000
00001000
00000000
00000010
00000000
,
00000001
00000010
00000000
00000100
00001000
00000000
00000001
00000100
,
00001000
00000000
00011000
00000000
00101000
00000000
00100000
00010000
,
01000000
00010000
00000000
00100000
01000000
00000000
11000000
00000000
,
10000000
00010000
00100000
00100000
00010000
00000000
10000000
01000000
,
00100000
01000000
00000000
10000000
01000000
00000000
00010000
00001000
,
00000010
00000000
00000110
00000000
00000011
00000000
00000001
00001000
,
00000100
00001000
00000001
00000000
00000100
00001000
00010000
00010000
,
00200000
00300000
02000000
03000000
01100000
00000000
10100000
00000000
,
10000000
01000000
00100000
01000000
10000000
01000000
00010000
00000000
,
00011000
00101000
00010100
00011000
,
00001000
00000010
00000001
00000010
00000100
00001000
00000001
00000000
,
00000100
00000000
00000001
00000100
00000001
00000000
00000000
00000000
00000011
00000000
00000000
00000000
00001010
00000000
00000000
00000000
,
00001000
00000100
00000010
00000000
00000110
00000000
00010100
00000000
,
00010000
00001000
00010000
00000000
00100000
10000000
00100000
00010000
,
00001000
00000000
00000000
00001000
00000000
00000000
00001000
00000000
00000000
00000000
00000000
00000000
00011000
00000000
00000000
00000000
00000000
00000000
00010000
00000000
00000000
00000000
00001000
00000000
,
00000000
00022000
00000000
00033000
00000000
00000000
00010000
00000000
00000000
01000000
00000000
00000000
,
10000000
00000000
10000000
00010000
00000000
00000000
00100000
00000000
01000000
00100000
00000000
00001000
,
00100000
00000000
00010000
01000000
00000000
00000000
01010000
00000000
00000000
01001000
00000000
00000000
,
00001000
00000000
00001000
00010000
00000000
00000000
00000010
00000000
00001000
00000100
00000000
00000010
,
00000001
00000000
00000000
00000100
00000010
00000100
00000010
00000000
00000000
00000110
00000000
00000000
,
00001000
00000000
00001000
00000010
00000000
00000000
00010000
00000000
00001000
00010000
00000000
00100000
,
01000000
00000000
00010000
10000000
00000000
00000000
11000000
00000000
00000000
10010000
00000000
00000000
,
00010000
00000000
00010000
00100000
00000000
00000000
00101000
00000000
00000000
00010010
00000000
00000000
,
00101000
00000000
00000000
00002000
00000000
00000000
00013000
00000000
00010000
00001000
00000000
00001000
,
00000100
00000000
00000100
00000010
00000000
00000010
00000001
00000000
00000001
00000010
00000000
00000010
,
00001000
00000000
00001000
00000100
00000000
00010000
00001000
00000000
00001000
00010000
00000000
00010000
,
01000000
00000000
01000000
00100000
00000000
00100000
10000000
00000000
10000000
00100000
00000000
00010000
,
00100000
00000000
00000000
00001000
00010000
00001000
00010000
00000000
00000100
00010000
00000000
00001000
,
00010000
00000000
00000010
00010000
00000000
00001000
00000010
00000000
00000001
00000010
00000000
00000100
,
00001000
00000000
00000001
00000100
00000000
00000000
00000110
00000000
00000000
00000010
00000000
00000010
,
00010000
00000000
00010000
00001000
00000000
00001000
01000000
00000000
00010000
00100000
00000000
00010000
,
01000000
00000000
00001000
00100000
00000000
00000000
02200000
00000000
00000000
00000000
00000000
00000000
,
00000000
00000000
00000000
00000000
,
00000000
00000000
03300000
00000000
,
00000000
00000000
00000000
00000000
,
00000000
00000000
11000000
10000000
,
01000000
00000000
00010000
00001000
00010000
00000000
00001000
00000000
,
00000010
00000000
00000001
00001000
00000001
00000100
00000010
00000100
,
00001000
00000000
00010000
00000000
00001000
00010000
00001000
00000000
00200000
00000000
00000000
00000000
00300000
00000000
00000000
00000000
,
10010000
00000000
10000000
11000000
00000000
00010000
01010000
00000000
,
00010000
10000000
00000000
00100000
00010000
00000000
00010000
00001000
,
00000100
00000000
00000001
00000101
00000000
00001000
00001100
00000000
,
00000001
00000010
00000000
00001000
00010000
00010000
00001000
00000000
,
00011000
00000000
01000000
01010000
00000000
00100000
10100000
00000000
,
10000000
01000000
00000000
00010000
00001000
00001000
00010000
00000000
,
00020200
00000000
00030300
02002000
00000000
03003000
00010000
00001000
,
00000000
00000000
00011000
00000000
00000000
00000000
00010000
00000000
00001000
00010000
00001000
00000000
00000010
00000000
00000000
00000000
,
00000110
00000000
00000001
00000100
00001000
00000100
00000001
00000000
,
00000001
00000010
00000000
00000010
00001000
00000000
00010000
00010000
,
01000000
00000000
10000000
01000000
00010000
01000000
10000000
00000000
,
10000000
00100000
00000000
00010000
00001000
00001000
00010000
00000000
,
00022000
00000000
00000000
00000000
,
00000000
00000000
00033000
00000000
,
00100000
01000000
01000000
00010000
00001000
00001000
00000010
00000100
,
00001000
00001000
00001000
00000001
00000100
00000000
00000110
00000000
,
00002002
00003003
00000001
00000100
,
00001000
00010000
01000000
10000000
,
00100000
10000000
00100000
00000000
01000000
00010000
01000000
00000000
,
20020000
00000000
30030000
00000000
;

//--------------- dance-double - forcednature ----------------
#NOTEDATA:;
#STEPSTYPE:dance-double;
#DESCRIPTION:forcednature;
#DIFFICULTY:Hard;
#METER:17;
#RADARVALUES:0,0,0,0,0;
#CREDIT:forcednature;
#NOTES:
00000000
00000000
00000000
00000000
,
00000000
00000000
00000000
00000000
,
00000000
00000000
00000000
00000000
,
00000000
00000000
00000000
00000000
,
00000000
00000000
00000000
00000000
,
00022000
00000000
00000000
00000000
00033000
00000000
00001000
00010000
,
00200000
00000000
20300000
32000000
,
03020000
00000000
00000000
00000000
00000000
00000000
00000000
00030000
,
00002000
00000000
00003200
00000000
00000302
00000000
00000023
00000030
,
00002002
00000000
00000000
00000000
,
00000000
00000000
00000000
00003003
,
00000000
00000000
00000000
00000000
,
00000000
00000000
00000000
00000000
,
00011000
00000000
00010000
00000000
01000000
10000000
00100000
01000000
,
01010000
00000000
00001000
00000000
00000100
00000001
00000010
00000100
,
00001000
00000000
00000001
00000000
00001000
00000000
00000001
00000000
00000100
00000010
00000100
00000000
00000010
00001000
00000010
00000000
,
00020200
00030300
11000000
00010000
,
00200000
00000000
10000000
00000000
00301000
00010000
00001000
00000010
,
00001000
00000000
00010000
00001000
00000100
00000000
00000001
00000000
,
00002000
00000000
00010000
00010000
00013000
00000000
00001000
00000000
,
00000001
00000000
00001000
00000000
00000100
00001000
00000100
00000000
00000010
00000000
00000000
00000000
00001000
00000000
00000000
00000000
,
00020000
00000000
10000000
10000000
10030000
00000000
00010000
00001000
,
00010000
00000000
01000000
00000000
00010000
00001000
00010000
00000000
00001000
00000000
00000010
00000000
00000001
00000000
00000010
00000000
,
00000100
00001000
00000100
00000000
00010000
00001000
00010000
00000000
00202000
00000000
00000000
00000000
00300000
00000000
00000000
00000000
,
00003000
00000000
00000000
00000000
10000000
00000000
10000000
00000000
02000000
00000000
00000000
00000000
03010000
00001000
00020000
00000000
,
00000000
00000000
00130000
10000000
00200000
00000000
00000000
00000000
00310000
00001000
00010000
00000000
00000000
00000000
00001000
00000000
,
00000010
00000001
00000010
00000010
00000010
00000001
00000200
00000000
,
00001300
00010000
00002000
00000000
00000000
00000000
00003010
00000001
00000020
00000000
00000000
00000000
00001030
00000000
00010000
00000000
,
00001000
00000000
00001000
00000000
00100000
01000000
00100000
00000000
01000000
00000000
00000000
00000000
00010000
00001000
00020000
00000000
,
00000000
00000000
00130000
10000000
00200000
00000000
00000000
00000000
00310000
00000000
00001000
00000000
00000000
00000000
00000100
00000000
,
00000001
00000000
00000100
00000000
00001000
00000000
00001000
00000000
00020000
00000000
00000000
00000000
00031000
00000010
00000001
00000000
,
00000010
00001000
00020000
00000000
00000000
00000000
00031000
00000000
00000100
00000000
00000001
00000000
00000010
00000000
00000100
00000000
,
00000010
00000100
00000010
00000000
00000100
00001000
00000001
00000010
00000200
00000000
00000000
00000000
00000000
00000000
00000000
00000000
,
00000300
00000000
00000000
00000000
,
00000000
00000000
02200000
00000000
,
03300000
00000000
00000000
00000000
00010000
10000000
01000000
00010000
,
00001000
00010000
00001000
00010000
00000010
00010000
00000010
00010000
00000100
00000000
00000000
00000000
00000010
00000000
00000001
00000000
,
00000100
00001000
00000100
00000001
00000010
00001000
00000001
00000100
,
00010000
00001000
00010000
00100000
01000000
00001000
00010000
01000000
,
00100000
00001000
01000000
10000000
01000000
00001000
00010000
01000000
,
00010000
00010000
00000200
00000320
00000031
00000100
00000010
00001000
,
00010000
00001000
00000010
00000100
00000001
00000010
00001000
00010000
,
00001000
00000100
00001000
01000000
00010000
00100000
10000000
00010000
,
01000000
10000000
00100000
00010000
00001000
00001000
00000010
00001000
,
00010000
00001000
00010000
00000000
00001000
00010000
00001000
00000000
00010000
00000000
01000000
00000000
00100000
00000000
01100000
00000000
,
00000000
00011000
00011000
00000000
00001000
00000010
00000000
00000001
,
00000100
00001000
00010000
00010000
00001000
00000100
00000010
00000110
,
00000000
00011000
00011000
00000000
00100000
10000000
00100000
00000000
,
01100000
00000000
00010000
01000000
00100000
00000000
10000000
00000000
00010000
00000000
00100000
00000000
01000000
00000000
01100000
00000000
,
00000000
00011000
00011000
00000000
00010000
00001000
00000000
00000100
,
00000001
00000010
00001000
00010000
01000000
00010000
00001000
00010000
,
01000000
00000000
00000000
00100000
00000000
00000000
01000000
00000000
00000000
00100000
00000000
00000000
01000000
00000000
00000000
00100000
00000000
00000000
01000000
00000000
00000000
00100000
00000000
00000000
01000000
00000000
00000000
00000000
00000000
00000000
00000000
00000000
00100000
00000000
00000000
00000000
00100000
00000000
00000000
00000000
00000000
00000000
00000000
00000000
00100000
00000000
00000000
00000000
,
00000000
01000000
10000000
00010000
10000000
01000000
00010000
00000000
00001000
00010000
00000000
00010000
,
00100000
00000000
00100000
10000000
01000000
00100000
00010000
00000000
00100000
10000000
00100000
00010000
,
00200000
00000000
00000000
01300000
00010000
00001000
00010000
00000000
00010000
00001000
00000000
00001000
,
00000010
00000000
00000010
00000001
00000100
00000010
00001000
00000000
00000010
00000001
00000010
00001000
,
00000200
00000000
00000000
00000301
00000100
00010000
00001000
00000000
00001000
00010000
00000000
00010000
,
01000000
00000000
01000000
10000000
00100000
01000000
00010000
00000000
01000000
10000000
01000000
00010000
,
02000000
00000000
00000000
03100000
00010000
00001000
00010000
00000000
00010000
00001000
00000000
00001000
,
00000100
00000000
00000001
00000010
00000000
00000010
00000200
00000000
00000000
00000001
00000000
00000000
,
00010300
00000000
00010000
00000200
00000000
00000300
00000001
00000100
00000001
00000100
00001000
00000100
,
00001000
00000010
00001000
00000010
00000001
00000010
00000001
00000010
00000100
00001000
00010000
00001000
,
00010000
00100000
10000000
00010000
00000000
01000000
10000000
01000000
10000000
01000000
00010000
01000000
,
00010000
00100000
00010000
00100000
10000000
00100000
10000000
00000000
10000000
00010000
00000000
00001000
,
00010000
00000000
00000000
00001000
00010000
00001000
00010000
00100000
01000000
00010000
00100000
01000000
,
00010000
00001000
00000010
00000100
00001000
00000010
00000100
00001000
00010000
00100000
00010000
00001000
,
00000100
00000010
00010000
00001000
00000000
00000100
00000002
00000000
00000000
00000013
00001000
00000010
,
00001000
00010000
00001000
00010000
01000000
00010000
00002000
00000000
00100000
00100000
00000000
00010000
,
00010000
00000000
00000010
00003010
00000000
00000000
00000220
00000000
00000000
00000000
00000000
00000000
,
00000000
00000000
00000000
00000000
,
00000000
00000000
00000330
00000000
,
00000000
00000000
00000000
00000000
,
00000000
00000000
00001001
00001000
,
00010000
00000000
10000000
00010000
10010000
00000000
00010000
00000000
,
00001000
00000000
00000001
00001000
00001001
00000001
00000010
00001000
,
00010000
00001000
00010000
00000000
00001000
00100000
00001000
00000000
02020000
00000000
00000000
00000000
03030000
00000000
00000000
00000000
,
10000000
00000000
00100000
00000000
01000000
00100000
01000000
00000000
10000000
00000000
01000000
00000000
00020000
00000000
00000000
00000000
,
00130000
01000000
00010000
00001000
00000100
00000010
00001000
00001000
,
00000001
00000000
00000010
00000000
00000100
00000010
00000100
00000000
00000001
00000000
00000100
00000000
00002000
00000000
00000000
00000000
,
00003010
00000000
00000100
00000000
00001000
00000000
00010000
00000000
01000000
00000000
00100000
00000000
01000000
00100000
01000000
00000000
,
00010000
00000000
01000000
00000000
10000000
01000000
10000000
00000000
00010000
00000000
00100000
00000000
10000000
00000000
10000000
00000000
,
00100000
00000000
00010000
00000000
01000000
00000000
00001000
00000000
00010000
00001000
00010000
00000000
00000100
00001000
00000100
00000000
,
00002020
00000000
00000000
00000000
00003030
00000000
00220000
00000000
00000000
00000000
00330000
00000000
00001000
00010000
01000000
00000000
,
00000000
00000000
01100000
00000000
00000000
00000000
11000000
00000000
00010000
01000000
00100000
00000000
10000000
01000000
00100000
00000000
,
10000000
00000000
00100000
01000000
00100000
00000000
00010000
00000000
01000000
00100000
01000000
00000000
20000000
00000000
00000000
00000000
,
31000000
00001000
00010000
00100000
00010000
00001000
00000010
00000100
,
00000001
00000000
00000100
00000010
00000100
00000000
00001000
00000000
00000010
00000100
00000010
00000000
00000002
00000000
00000000
00000000
,
00000013
00000000
00010000
00000000
00001000
00000000
00000010
00000000
00000001
00000000
00000100
00000000
00001000
00010000
00001000
00000000
,
00022000
00000000
00000000
00000000
,
00000000
00033000
00000000
00000000
,
00000110
00001000
00010000
01100000
00010000
00001000
00000110
00000001
,
00000100
00001000
00000100
00001000
00010000
00001000
00010000
00001000
00010000
00100000
10000000
00000000
00100000
01000000
00010000
00000000
,
20020000
00000000
30030000
00000000
00010000
00000000
00010000
10000000
,
01000000
00010000
00000010
00001000
,
00000001
00000000
00000100
00001000
00010000
00000000
00100000
00010000
00001000
00000000
00010000
01000000
10000000
00000000
00000000
00000000
,
20020000
00000000
30030000
00000000
;
