#TITLE:spring pony;
#SUBTITLE:;
#ARTIST:S-C-U;
#TITLETRANSLIT:;
#SUBTITLETRANSLIT:;
#ARTISTTRANSLIT:;
#GENRE:SPRING TECHNO;
#CREDIT:;
#MUSIC:spring pony.ogg;
#BANNER:spring pony.png;
#BACKGROUND:spring pony-bg.png;
#CDTITLE:;
#SAMPLESTART:64.378;
#SAMPLELENGTH:16.420;
#SELECTABLE:YES;
#OFFSET:-0.403;
#BPMS:0.000=150.000;
#STOPS:155.500=1.600;
#BGCHANGES:;
#FGCHANGES:;

//--------------- dance-single - spring pandy ----------------
#NOTES:
     dance-single:
     spring pandy:
     Beginner:
     5:
     0,0,0,0,0:
0000
0000
0000
0000
,
0000
0000
0000
0000
,
0000
0000
0000
0000
,
0000
0000
0000
0000
,
0001
0000
0000
0000
,
1000
0000
0000
0000
,
0010
0000
0100
0000
,
0001
0000
1000
1000
,
0100
0000
0000
0000
,
1000
0000
0000
0000
,
0010
0000
0000
0000
,
0100
0000
0001
1000
,
1001
0000
0000
0000
,
0001
0000
0000
0000
,
0100
0000
0000
0000
0000
0100
0000
0000
,
0000
0000
0000
0010
,
1000
0000
0001
0000
,
0010
0000
0100
0000
,
1000
0000
0000
0000
,
0010
0000
0000
0000
,
0100
0000
0000
0000
0000
0100
0000
0000
,
0000
0000
0000
0010
,
1000
0000
0001
0000
,
0010
0000
0001
0000
,
0000
1000
0000
0000
1000
0000
0000
0000
,
1001
0000
0000
0000
,
0001
0000
0000
0001
0000
0000
0000
0000
,
1001
0000
0000
0000
,
0010
0000
0000
0000
,
1000
0000
0000
0000
,
0001
0001
0001
0000
,
0000
0000
0000
0000
,
0000
0110
0000
0000
1001
0000
0000
0000
,
1000
0001
0010
0000
,
0110
0000
0000
1001
0000
0000
0000
0000
,
1000
0100
0010
0000
,
0100
0100
0100
0000
,
0010
0010
0010
0000
,
0001
0100
0010
1000
,
0001
0000
0000
0000
,
1000
0000
0000
0000
,
0010
0000
1000
0000
,
0100
0100
0010
0010
,
0001
0000
0000
0000
,
1000
0000
0000
0000
,
0001
0000
0000
0000
,
0100
0000
0010
0000
,
1000
1000
1000
0000
,
0001
0001
0001
0000
,
1000
1000
1000
0000
,
0001
0001
0001
0000
,
1000
0001
1000
0000
,
0001
1000
0001
0000
,
1000
1000
0001
0001
,
1000
0001
1000
0001
,
0110
0000
0000
0000
,
0000
0000
0100
0000
,
0000
0000
0010
0000
,
0000
0000
0000
0000
1000
0000
0000
1000
,
0000
1000
0001
0000
,
0010
0000
0100
0000
,
0000
0000
0010
0000
,
0000
0000
0000
0000
0001
0000
0000
0001
,
0000
0001
1000
0000
,
0001
0000
0100
0010
,
1000
0001
0000
0000
;

//--------------- dance-single - spring pandy ----------------
#NOTES:
     dance-single:
     spring pandy:
     Easy:
     8:
     0,0,0,0,0:
0000
0000
0000
0000
,
0000
0000
0000
0000
,
0000
0000
0000
0000
,
0000
0000
0000
0000
,
0001
0100
0010
1000
,
0100
1000
0001
0100
,
0001
1000
0100
0010
,
0100
0000
1000
0000
0001
0010
0100
1000
,
0000
0100
1000
0010
,
0100
0001
0010
0001
,
1000
0001
0010
0001
,
1000
0000
0001
0000
1000
0100
0010
0001
,
1000
0001
0100
0001
,
0010
0100
0010
0001
,
0101
0100
0010
0110
,
0010
0000
0000
0000
,
0100
0010
1000
0001
,
1000
0100
0020
0000
,
0031
1000
0010
1000
,
1000
0010
0100
0100
,
1001
0001
0010
0011
,
1000
0000
0000
0001
,
1000
0010
1000
0001
,
0010
0100
1000
0001
,
0000
1000
0001
1000
0001
1000
0001
0000
,
1000
0010
0100
0000
,
0010
0100
0010
0100
0010
0100
0000
0000
,
0010
1000
0001
0000
,
0010
0001
0200
0300
,
0010
1000
0100
0010
,
0001
1000
0020
0000
,
0000
0000
0000
0030
,
0000
1000
0001
1000
0001
1000
0001
0000
,
1000
0001
0100
0000
,
0010
0100
0010
0100
0010
0100
0000
0000
,
0010
1000
0001
0000
,
0010
0001
0010
0000
0001
0000
0000
0000
,
1000
0100
1000
0000
0100
0000
0000
0000
,
1000
0000
0000
0001
0000
0100
0000
0010
0000
1000
0000
0000
0001
0000
0001
0000
,
1000
0100
1000
0010
,
0100
0001
0010
0100
,
0010
0001
0100
0010
,
0100
0000
0001
0000
0010
0100
1000
0001
,
1000
0001
0100
0010
,
1000
0001
0010
0001
,
1000
0100
0010
0001
,
0010
0000
0001
0000
1000
0100
0010
0001
,
2000
3002
0103
0101
,
0002
2003
3100
1100
,
2000
3002
0103
0101
,
0002
2003
3100
1100
,
2000
3002
0103
0101
,
0002
2003
3100
1100
,
2000
3200
0302
0203
,
2300
0000
3002
0000
1003
0100
0010
0001
,
2000
0000
0000
0000
,
3000
0000
0000
0000
0001
0100
0001
0000
,
0100
0000
0010
0000
1000
0001
1000
0000
,
0001
0000
0010
0000
0100
0000
0000
1000
,
0000
0010
0100
0010
,
1000
0000
0001
0000
0010
0100
0010
0000
,
0001
0000
1000
0000
0010
1000
0010
0000
,
0100
0000
0001
0000
1000
0000
0000
0001
,
0000
0010
0001
0100
,
0010
0000
0000
0000
1000
0000
0000
0000
1000
0000
0001
0000
1000
0000
0000
0001
,
0000
0100
0000
0000
0010
0000
0010
0000
0000
0000
0000
0000
0000
0000
0000
0000
;

//--------------- dance-single - spring pandy ----------------
#NOTES:
     dance-single:
     spring pandy:
     Medium:
     12:
     0,0,0,0,0:
0000
0000
0000
0000
,
0000
0000
0000
0000
,
0000
0000
0000
0000
,
0000
0000
0000
0000
,
0000
0000
0001
0000
0000
0100
0000
0000
0010
0000
0000
1000
0000
0000
0100
0000
,
0000
0000
0010
0000
0000
0100
0000
0000
1000
0000
0000
0001
0000
0000
0010
0000
,
0001
0000
0000
0001
0000
0000
1000
0000
0000
1000
0000
0000
0001
0000
0100
0000
,
0010
0000
0000
0010
0000
0000
0010
0000
0100
0000
0010
0000
1000
0000
0001
0000
,
0000
0000
1000
0000
0000
1000
0000
0000
0100
0000
0000
0010
0000
0000
0001
0000
,
0000
0000
0010
0000
0000
0010
0000
0000
0001
0000
0000
0100
0000
0000
0010
0000
,
1000
0000
0000
1000
0000
0000
0001
0000
0000
0010
0000
0000
0001
0000
0100
0000
,
0010
0000
0000
0010
0000
0000
0010
0000
0100
0000
0010
0000
1000
0000
0001
0000
,
1000
0001
0010
0000
0100
0000
1000
0000
,
0100
1000
0010
0000
0100
0000
0001
0000
,
1000
0000
0000
1000
0000
0000
1000
0000
0000
0000
0001
0000
0000
0001
0000
0000
,
0001
0000
0000
0000
0000
1000
0100
0010
,
0001
0010
0001
0100
,
0010
0000
1000
0000
0001
0100
1000
0100
,
0001
0100
0010
0000
0100
0000
0001
0000
,
1000
0100
0010
0000
0100
0000
1000
0000
,
0010
0000
0000
0010
0000
0000
0010
0000
0000
0000
0100
0000
0000
0100
0000
0000
,
0100
0000
0000
0000
0000
0010
0100
0001
,
1000
0001
0010
0001
,
1000
0100
0010
0001
,
0000
1000
1000
1000
0001
0001
0001
0000
,
1000
0000
0000
0001
0000
0100
0000
0010
0000
0000
0000
0000
0000
0000
0000
0000
,
0100
0100
0100
0010
0010
0010
0000
0000
,
0100
0000
0010
0000
1000
0001
0000
1000
0000
0000
0000
0000
0000
0000
0000
0000
,
1000
0100
0010
0001
0100
0000
0000
0000
,
0010
1000
0001
0010
0100
1000
0100
1000
,
0010
0000
0000
0010
0000
0000
0020
0000
0000
0000
0000
0000
0000
0000
0000
0000
,
0000
0000
0030
0000
,
0000
1000
1000
1000
0001
0001
0001
0000
,
0010
0000
0000
0001
0000
0100
0000
0010
0000
0000
0000
0000
0000
0000
0000
0000
,
0100
0100
0100
0010
0010
0010
0000
0000
,
0100
0000
0010
0000
1000
0001
0000
1000
0000
0000
0000
0000
0000
0000
0100
0000
,
1000
0000
0001
1000
0000
0001
0000
0001
0000
0000
0000
0000
0000
0000
1000
0000
,
0001
0000
1000
0001
0000
1000
0000
1000
0000
0000
0000
0000
0000
0000
0000
0000
,
0010
1000
0000
0010
0000
0100
0000
0001
0000
0010
0000
0100
1000
0000
0001
0000
,
1000
0100
1000
0000
0100
0000
0010
0000
,
0001
0100
0001
0000
0100
0000
0010
0000
,
1000
0001
0010
0000
0100
1000
0010
0000
,
0100
0000
0000
0100
0000
0000
0100
0000
0010
0000
1000
0000
0001
0000
0000
0000
,
0010
0001
0100
0000
0010
0000
1000
0000
,
0001
0010
0100
0000
0010
0000
0001
0000
,
1000
0001
0100
0000
0001
0010
0100
0000
,
0010
0000
0000
0010
0000
0000
0010
0000
0001
0000
0100
0000
0010
0000
1000
0000
,
0001
1000
0010
0000
1000
0000
1001
0000
,
1000
0001
0010
0000
0001
0000
1001
0000
,
1000
0001
0100
0000
0001
0000
1001
0000
,
0001
1000
0100
0000
1000
0000
1001
0000
,
0001
0100
0010
1000
0001
0100
0010
0000
,
1000
0100
0010
0001
1000
0100
0010
0000
,
0001
0010
0010
0001
0100
0100
0001
0010
,
0010
0001
0100
0100
0001
0010
0100
1000
,
0002
0000
0000
0000
,
0003
0000
0000
0000
0000
0000
0000
0000
1000
0000
0001
0000
0100
0000
0000
0001
,
0000
0000
0010
0000
0100
0000
1000
0000
0001
0000
1000
0000
0010
0000
0000
1000
,
0000
0000
0100
0000
1000
0000
0001
0000
0100
0000
0010
0100
0000
0000
0100
0000
,
0010
0100
0000
0000
0010
0000
0100
0010
0100
0000
0001
0000
1000
0000
0100
1000
,
0000
0010
0000
0100
0001
0000
0010
0000
0100
0000
0010
0000
0001
0000
0000
1000
,
0000
0000
0100
0000
1000
0000
0010
0000
0100
0000
0001
0000
0010
0000
0000
0100
,
0000
0000
0010
0000
0001
0000
0100
0000
0001
0000
1000
0001
0000
0000
1000
0000
,
1000
0001
0000
0000
1000
0000
1000
0001
1000
0000
1000
0000
0100
0000
0010
0001
,
0000
0100
0010
0000
1000
0000
0001
0000
0010
0000
0100
0000
1000
0000
0010
0100
,
0000
0001
0000
0010
0100
0000
0100
0000
0000
0000
0000
0000
0000
0000
0000
0000
;

//--------------- dance-single - spring pandy ----------------
#NOTES:
     dance-single:
     spring pandy:
     Hard:
     15:
     0,0,0,0,0:
0000
0000
0000
0000
,
0000
0000
0000
0000
,
0000
0000
0000
0000
,
0000
0000
0000
0000
,
0000
0000
0001
0000
0000
0001
0000
0000
1000
0000
0000
0001
0000
0000
1100
0000
,
0000
0000
1000
0000
0000
1000
0000
0000
0100
0000
0000
0010
0000
0000
0110
0000
,
0010
0000
0000
0010
0000
0000
0001
0000
0000
1000
0000
0000
0001
0000
1000
0000
,
0001
0000
0000
0001
0000
0000
1000
0000
0100
0000
0001
0000
0100
0000
1000
0000
,
0000
0000
1000
0000
0000
1000
0000
0000
0001
0000
0000
1000
0000
0000
0101
0000
,
0000
0000
0001
0000
0000
0001
0000
0000
0100
0000
0000
0010
0000
0000
0110
0000
,
0010
0000
0000
0010
0000
0000
1000
0000
0000
0001
0000
0000
1000
0000
0001
0000
,
1000
0000
0000
1000
0000
0000
0001
0000
0100
0000
1000
0000
0100
0000
0001
0000
,
0010
0000
0100
0000
1000
0000
0001
1000
0000
0010
0000
1000
0001
0000
0010
0000
,
0001
0000
1000
0000
0100
0000
1000
0001
0000
0100
0000
0001
1000
0000
0001
0000
,
1000
0000
0000
1000
0000
0000
2000
0000
0000
0000
0100
0000
0000
0100
0000
0000
,
3100
0000
0000
0000
0000
1000
0010
0010
,
0100
0000
0000
0001
0000
0001
0000
0001
1000
0000
0100
0000
0010
0000
0100
0000
,
1000
0000
0001
0100
0000
0010
0000
1000
0001
0000
1000
0000
0001
0000
1000
0000
,
0001
0000
0010
0000
0001
0000
0100
0010
0000
1000
0000
0100
0010
0000
0100
0000
,
0010
0000
0100
0000
1000
0000
0001
0100
0000
0001
0000
1000
0100
0000
0010
0000
,
0001
0000
0000
0001
0000
0000
0002
0000
0000
0000
0010
0000
0000
0010
0000
0000
,
0013
0000
0000
0000
0000
0100
1000
1000
,
0001
0000
0000
0010
0000
0010
0000
0010
0001
0000
1000
0000
0010
0000
0100
0000
,
0010
0000
1000
0100
0000
0100
0000
0100
1000
0000
0001
0000
1000
0000
0001
0000
,
0000
0000
1000
0001
1000
0001
0100
0000
0001
1000
0001
1000
0010
0000
0100
0000
,
0010
0000
1000
0001
0000
0010
0000
0200
0000
0000
0000
0000
0300
0000
0000
0000
,
1000
0001
1000
0001
0010
0000
1000
0001
1000
0001
0100
0000
0001
0000
0010
0000
,
0100
0000
0010
0000
0001
1000
0000
0020
0000
0000
0000
0000
0030
0000
0100
0000
,
0010
0000
1000
0000
0001
0000
0010
0100
0000
2000
0000
0000
3000
0000
0100
0010
,
0001
0000
0100
0000
0001
0000
1000
0002
0000
0000
0013
0000
0100
0000
1000
0000
,
2100
0000
0000
0100
0000
0000
0002
0000
0000
0000
0000
0000
0000
0000
0000
0000
,
0000
0000
3003
0000
,
0000
0000
0001
1000
0001
1000
0010
0000
1000
0001
1000
0001
0100
0000
0010
0000
,
1000
0000
0100
0010
0000
0010
0000
0002
0000
0000
0000
0000
0003
0000
0000
0000
,
1000
0001
1000
0001
0100
0000
0001
1000
0001
1000
0010
0000
0100
0000
0010
0000
,
1000
0000
0001
0000
0010
0100
0000
0020
0000
0000
0000
0000
0030
0000
0001
0000
,
1000
0100
1000
0100
0000
1000
0000
2000
0000
0000
0000
0000
3000
0000
0000
0000
,
0001
0100
0001
0100
0000
0001
0000
0002
0000
0000
0000
0000
0003
0000
0000
0000
,
1000
0001
0000
0010
0000
0100
0000
1000
0000
0100
0000
0010
0001
0000
1001
0000
,
0001
0000
0100
0000
0010
0000
1000
0010
0000
0100
0000
0010
0100
0000
0001
0000
,
0010
0000
0100
0000
0010
0000
0001
0100
0000
0010
0000
1000
0001
0000
0010
0000
,
0100
0000
0100
0000
0100
1000
0000
0001
0000
1000
0010
0000
0100
0000
0001
1000
,
0001
0000
0000
0001
0000
0000
0001
0000
0010
0000
0100
0000
1000
0000
0001
0000
,
1000
0000
0001
0000
0010
0000
0100
1000
0000
0010
0000
0100
0010
0000
1000
0000
,
0100
0000
1000
0000
0010
0000
0100
0001
0000
0010
0000
0100
0010
0000
0001
0000
,
1000
0000
1000
0000
1000
0001
0000
0100
0000
0001
0010
0000
0100
0000
0010
0001
,
1000
0000
0000
1000
0000
0000
1000
0000
0010
0000
0010
0000
0010
0000
1000
0000
,
0001
0000
1000
0100
0010
0000
0001
0000
0010
0000
0100
0000
1000
0000
0100
0000
,
0010
0000
0001
0010
0100
0000
1000
0000
0100
0000
0010
0000
0001
0000
0010
0000
,
0100
0000
1000
0100
0010
0000
0001
0000
0010
0000
0100
0000
1000
0000
0100
0000
,
0010
0000
0001
0010
0100
0000
1000
0000
0100
0000
0010
0000
0001
0000
0010
0000
,
0100
0000
1000
0100
0010
0000
0001
0000
0010
0000
0100
1000
0100
0000
0010
0000
,
0001
0000
0010
0100
1000
0000
0100
0000
0010
0000
0001
0010
0001
0000
1000
0000
,
0001
0000
1000
0001
1000
0000
0001
0000
1000
0001
1000
0000
0001
0000
1000
0001
,
1000
0000
0001
0000
1000
0001
1000
0000
0001
0010
0100
1000
0001
0000
1000
0000
,
0020
0000
0000
0000
,
0000
0000
0000
0000
0030
0000
0000
0000
0100
0000
0010
0000
1000
0000
0001
0010
,
0000
0100
0010
0000
0001
0000
0001
0000
1000
0000
0010
0000
1000
0100
0000
0010
,
0000
0100
1000
0000
0001
0000
0001
0000
1000
0010
1000
0010
0000
0000
0100
0001
,
0100
0001
0000
0000
0010
0001
0010
0001
0010
0000
0100
0000
1000
0010
0000
0100
,
0000
0010
1000
0000
0001
0000
1000
0000
0100
0000
0010
0000
0100
0000
1000
0010
,
0000
0100
0001
0000
1000
0000
0100
0000
0010
0000
0100
0000
1000
0000
0001
0010
,
0000
0100
1000
0000
0010
0000
1000
0000
0100
1000
0100
1000
0000
0000
0001
0010
,
0001
0010
0000
0000
0001
0100
0001
0100
0010
0000
1000
0000
0100
0000
0010
0001
,
0000
0001
1000
0000
0010
0000
0100
0000
0001
0000
0001
0000
0001
0000
0001
1000
,
0000
1000
0000
1000
0001
0000
0001
0000
0000
0000
0000
0000
0000
0000
0000
0000
;

//--------------- dance-single - spring pandy ----------------
#NOTES:
     dance-single:
     spring pandy:
     Challenge:
     16:
     0,0,0,0,0:
0000
0000
0000
0000
,
0000
0000
0000
0000
,
0000
0000
0000
0000
,
0000
0000
0000
0000
,
0001
0000
2000
0000
0000
0100
0000
0000
0001
0000
0000
3001
0000
0000
1010
0000
,
0000
0000
0002
0000
0000
0100
0000
0000
1000
0000
0000
1003
0000
0000
0011
0000
,
0020
0000
0000
0001
0000
0000
0100
0000
0000
0031
0000
0000
1000
0000
0001
0000
,
0200
0000
0000
0001
0000
0000
0310
0000
0100
0000
0001
0000
1000
0000
0100
0000
,
1000
0000
0002
0000
0000
0100
0000
0000
1000
0000
0000
1003
0000
0000
0011
0000
,
0000
0000
2000
0000
0000
0100
0000
0000
0001
0000
0000
3001
0000
0000
1010
0000
,
0020
0000
0000
1000
0000
0000
0100
0000
0000
1030
0000
0000
0001
0000
1000
0000
,
0200
0000
0000
1000
0000
0000
0310
0000
0100
0000
1000
0000
0001
0000
0100
0000
,
0010
0000
0100
0000
0001
0000
1000
0001
0000
0001
0010
0001
0010
0100
1000
0000
,
0100
0000
1000
0000
0010
0000
0100
0010
0000
0010
1000
0100
1000
0001
1000
0000
,
0002
0000
0000
0100
0000
0000
2003
0000
0000
0000
0100
0000
0000
0100
0000
0000
,
3001
0000
0000
0000
0000
1000
0100
0100
,
0010
0000
0001
0100
0000
0100
0000
0100
0010
0000
1000
0000
0001
0100
0000
0100
,
0010
0000
1000
0100
0000
0100
1000
0000
0001
1000
0010
1000
0001
0010
0001
1000
,
0001
0000
0100
0000
0010
0000
1000
0100
0000
0100
1000
0001
0100
0001
0010
0000
,
0100
0000
0010
0000
0001
0000
1000
0010
0000
0010
0100
0001
0100
0010
1000
0000
,
0020
0000
0000
0100
0000
0000
2030
0000
0000
0000
0001
0000
0000
0001
0000
0000
,
3010
0000
0000
0000
0000
0100
0010
1000
,
0100
0000
0010
0100
0000
0100
0000
0100
1000
0000
0001
0000
1000
0100
0000
0100
,
1000
0000
0100
0010
0000
0010
0001
0000
1000
0001
0010
0001
1000
0010
1000
0001
,
0000
0000
1000
0010
0100
0001
1000
0000
0001
0100
0010
1000
0001
0000
1000
0100
,
0010
0000
0100
1000
0000
0001
0000
0200
0000
0000
0000
0000
0300
0000
0010
1000
,
0001
0010
0100
1000
0001
0000
1000
0100
0010
0001
1000
0000
0001
0000
0010
0100
,
0010
0000
0001
0000
1000
0001
0000
0020
0000
0000
0000
0000
0030
0000
0100
1000
,
0001
0000
1000
0000
0010
0000
1000
0001
0000
0001
0000
0000
0000
0000
0001
0010
,
0100
0000
0010
0000
0100
0000
1000
0010
0000
0000
0010
0000
0100
0000
0001
0000
,
1001
0000
0000
0101
0000
0000
2001
0000
0000
0000
3100
0000
0001
0000
0100
0000
,
1000
0010
0001
0010
0100
0001
1000
0001
,
0000
0000
0001
0100
0010
1000
0001
0000
1000
0010
0100
0001
1000
0000
0100
0010
,
0001
0000
0010
0001
0000
1000
0000
0020
0000
0000
0000
0000
0030
0000
0100
0001
,
1000
0100
0010
0001
1000
0000
0001
0010
0100
1000
0001
0000
1000
0000
0100
0010
,
0001
0000
0010
0000
0001
1000
0000
0020
0000
0000
0000
0000
0030
0000
0100
0001
,
1000
0001
1000
0001
0000
0001
0000
0002
0000
0000
0000
0000
0003
0000
0010
0100
,
1000
0010
1000
0010
0000
0010
0000
0020
0000
0000
0000
0000
0030
0000
0100
0001
,
1000
0100
0000
1100
0000
0011
0000
0101
0000
1010
0000
0001
0010
0000
1100
0000
,
1000
0000
0010
0000
0100
0000
0001
0010
0000
0100
0000
0010
0001
0000
1000
0000
,
0001
0000
1000
0000
0100
0000
1000
0010
0000
0100
0000
0010
1000
0000
0100
0000
,
0010
0000
0010
0000
0010
0001
0000
1000
0000
0001
0100
0000
0010
0000
1000
0100
,
0010
0000
0000
0010
0000
0000
0010
0000
0001
0000
0010
0000
0100
0000
0100
0000
,
1000
0000
0010
0000
0100
0000
0001
0010
0000
1000
0000
0010
0001
0000
1000
0000
,
0001
0000
0100
0000
0001
0000
1000
0100
0000
0001
0000
0100
1000
0000
0001
0000
,
1000
0000
1000
0000
1000
0001
0000
0010
0000
0010
0100
0000
1000
0000
1000
0010
,
0100
0000
0000
0100
0000
0000
0100
0000
0010
0000
0010
0000
0010
0000
1000
0000
,
0001
0000
1000
0100
0001
0000
0100
0000
1000
0000
0010
0000
0100
0000
0001
0000
,
1000
0000
0001
0010
1000
0000
0010
0000
0001
0000
0100
0000
0010
0000
1000
0000
,
0001
0000
1000
0100
0001
0000
0100
0000
1000
0000
0010
0000
0100
0000
0001
0000
,
1000
0000
0001
0010
1000
0000
0010
0000
0001
0000
0100
0000
0010
0000
1000
0000
,
0001
0000
1000
0100
0001
0000
0100
0000
1000
0000
0001
0100
1000
0000
0100
0000
,
0001
0000
1000
0100
0001
0000
0100
0000
1000
0000
0001
0100
1000
0000
0100
0000
,
0001
0000
1000
0100
0001
0000
0100
0000
1000
0010
0001
0000
0010
0000
1000
0100
,
0001
0000
0100
0000
1000
0010
0001
0000
0010
0100
0001
1000
0001
0000
1001
0000
,
0220
0000
0000
0000
,
0000
0000
0000
0000
0330
0000
0000
0000
1001
0000
1000
0100
1000
0001
0000
1100
,
0000
0100
0010
0001
1000
0001
1000
0001
1000
0000
0001
0100
0001
0010
0000
1001
,
0000
0001
0100
0010
1000
0001
1000
0001
1000
0100
0010
0001
0000
0001
0010
0100
,
1000
0001
0000
1000
0100
0010
0001
1000
0001
1000
0001
0100
0001
0000
1000
0100
,
0000
0100
1000
0010
0100
0001
0010
0100
1000
0000
0001
1000
0010
0000
0100
0001
,
0000
0010
0100
1000
0010
1000
0100
1000
0100
0000
0010
0100
1000
0000
0001
0100
,
0000
0100
0010
1000
0001
0010
0001
0010
0001
0010
0100
1000
0000
0001
1000
0100
,
0010
0001
0000
1000
0001
0010
0100
1000
0001
0100
0010
0100
0001
0000
1000
0100
,
0000
1000
0010
0000
0100
0010
1000
0001
0010
0000
0010
0000
0100
0000
1000
0001
,
0000
0001
0000
0100
0010
0000
0010
0000
0000
0000
0000
0000
0000
0000
0000
0000
;
