#VERSION:0.83;
#TITLE:slic.hertz;
#SUBTITLE:;
#ARTIST:Sobrem;
#TITLETRANSLIT:;
#SUBTITLETRANSLIT:;
#ARTISTTRANSLIT:;
#GENRE:sick beats;
#ORIGIN:;
#CREDIT:;
#BANNER:slic.hertz.png;
#BACKGROUND:slic.hertz-bg.png;
#PREVIEWVID:;
#JACKET:slic.hertz-jacket.png;
#CDIMAGE:;
#DISCIMAGE:;
#LYRICSPATH:;
#CDTITLE:cdtitle.png;
#MUSIC:slic.hertz.ogg;
#OFFSET:1.185700;
#SAMPLESTART:26.951611;
#SAMPLELENGTH:13.201376;
#SELECTABLE:YES;
#DISPLAYBPM:145.000000;
#BPMS:0.000=145.000;
#STOPS:;
#DELAYS:;
#WARPS:221.000=16.000;
#TIMESIGNATURES:0.000=4=4;
#TICKCOUNTS:0.000=4;
#COMBOS:0.000=1;
#SPEEDS:0.000=1.000=0.000=0;
#SCROLLS:0.000=1.000,
219.750=0.000,
221.750=1.000,
237.000=-2.000,
237.250=-1.000,
237.500=0.000,
237.750=1.500,
238.000=1.000;
#FAKES:;
#LABELS:0.000=Song Start;
#BGCHANGES:2.750=slic.hertz.mp4=1.000=0=0=1===CrossFade_Faster==,
99999=-nosongbg-=1.000=0=0=0 // don't automatically add -songbackground-
;
#KEYSOUNDS:;
#ATTACKS:
;

//---------------dance-single - ----------------
#NOTEDATA:;
#CHARTNAME:;
#STEPSTYPE:dance-single;
#DESCRIPTION:;
#CHARTSTYLE:;
#DIFFICULTY:Challenge;
#METER:17;
#RADARVALUES:0.909579,0.999406,0.245496,0.388042,1.219561,804.000000,773.000000,31.000000,49.000000,2.000000,0.000000,29.000000,0.000000,22.000000,0.909579,0.999406,0.245496,0.388042,1.219561,804.000000,773.000000,31.000000,49.000000,2.000000,0.000000,29.000000,0.000000,22.000000;
#CREDIT:;
#OFFSET:1.185700;
#BPMS:0.000000=145.000000
;
#STOPS:;
#DELAYS:;
#WARPS:221.000000=16.000000
;
#TIMESIGNATURES:0.000000=4=4
;
#TICKCOUNTS:0.000000=4
;
#COMBOS:0.000000=1
;
#SPEEDS:0.000000=1.000000=0.000000=0
;
#SCROLLS:0.000000=1.000000
,219.750000=0.000000
,221.750000=1.000000
,237.000000=-2.000000
,237.250000=-1.000000
,237.500000=0.000000
,237.750000=1.500000
,238.000000=1.000000
;
#FAKES:;
#LABELS:0.000000=Song Start
;
#DISPLAYBPM:145.000000;
#NOTES:
0000
0000
0000
0000
,
0000
0000
0000
0000
,
0000
0000
0000
0000
,
0000
0000
0000
0000
,
0000
0000
0000
0000
,
0001
0010
0000
0001
0010
0100
1000
0000
0010
0000
0100
0000
0001
0000
1000
0100
,
1000
0100
0010
0001
0010
0100
1000
0000
0010
0000
0100
0001
0000
0100
0001
1000
,
0100
0010
0001
0000
0010
0100
1000
0000
0001
1000
0001
0100
0010
0000
0100
0000
,
0000
0000
0110
0000
0000
0000
0010
0000
2000
0000
0000
0000
3001
0000
1000
0100
,
0010
0000
0210
0000
0000
0000
0301
0100
0010
0000
0100
1000
0000
0000
0001
0100
,
0010
0000
0210
0000
0000
0000
1300
0100
0010
0000
0010
0000
0110
0000
1000
0001
,
0010
0000
0120
0000
0000
0000
1030
0010
0100
0000
0010
0001
0000
0000
0001
1000
,
0010
0000
0000
0000
0000
0000
0000
0000
0120
0000
0000
0000
0000
0000
0000
0000
0000
0000
0000
0000
0000
0000
0000
0000
0031
0000
0000
0000
0010
0000
0000
0000
0100
0000
0000
0000
0040
0030
0000
0000
4000
3000
0000
0000
0000
0000
0000
0000
0040
0030
0000
0000
4000
3000
0000
0000
0100
0000
0000
0000
0010
0000
0000
0000
,
0001
0000
1002
0000
0000
0000
0013
0100
1000
0000
0001
0100
0000
0100
0010
0100
,
0000
0100
0010
1000
0001
0010
0100
1000
0001
0000
1000
0010
0100
0001
1000
0000
,
0002
0000
0013
0001
0010
0001
2000
0000
3010
1000
0010
1000
0100
0000
0000
0000
,
0010
0000
0000
0000
0100
0000
0000
0000
1000
0000
0000
0000
0001
0000
0000
0000
0100
0000
0000
0000
0010
0000
0000
0000
0000
0000
0000
0000
0100
0000
0000
0000
0010
0000
0000
0000
1000
0000
0000
0000
0000
0000
0000
0000
1001
0000
0000
0000
0000
0000
0000
0000
0004
0003
0000
0000
0040
0030
0000
0000
0000
0000
0000
0000
,
0210
0000
0000
0000
0310
0100
0001
0100
0010
0000
0001
1000
0000
0001
0100
0010
,
1000
0001
0000
0001
0010
0000
0100
0010
0001
0000
1000
0010
0000
0010
0100
0000
,
0210
0000
0000
0000
0310
0100
1000
0100
0010
0000
0100
0001
0100
0001
0100
0001
,
1000
0001
0010
0000
0001
1000
0010
0000
1000
0100
0010
0001
1000
0010
0100
0001
,
0020
0000
0000
0000
0000
0000
0000
0000
0000
0000
0000
0000
0130
0000
0000
0010
0000
0000
1000
0000
0000
0010
0000
0000
0100
0000
0010
0000
0100
0000
0010
0000
0000
0000
0000
0000
0001
0000
0000
0010
0000
0000
0100
0000
0000
1000
0000
0000
,
0001
0000
0100
0000
0010
1000
0001
0000
0010
0000
0100
1000
0000
1000
0001
1000
,
0020
0000
0000
0000
0130
0010
0001
0010
0100
0000
0010
1000
0010
1000
0010
1000
,
0001
0000
0000
0000
0010
0000
0000
0000
0100
0000
0000
0000
0000
0000
0000
0000
1000
0000
0000
0000
0010
0000
0000
0000
0400
0300
0000
0000
0004
0003
0000
0000
0040
0030
0000
0000
0000
0000
0000
0000
0400
0300
0000
0000
4000
3000
0000
0000
0000
0000
0000
0000
0040
0030
0000
0000
0400
0300
0000
0000
0000
0000
0000
0000
,
0001
1000
0000
0001
1000
0001
0010
0000
0100
0000
0001
0000
0100
0000
0010
0001
,
0000
0010
0000
0001
1000
0001
0100
0000
0010
0000
0001
0000
0010
0100
0010
0100
,
0001
1000
0000
0001
1000
0001
0010
0000
1000
0000
0010
0000
0001
0000
1000
0001
,
0100
0110
1000
1010
0001
0011
0110
0000
,
1000
0001
0000
1000
0001
1000
0010
0000
0100
0000
1000
0000
0100
0000
0010
1000
,
0010
1000
0010
1000
0001
0010
0100
0000
0001
0000
0100
0000
0010
0001
1000
0010
,
0100
0001
0100
0000
0001
0100
0001
0000
1000
0100
1000
0001
0100
0010
1000
0001
,
0010
0100
0000
0010
0100
1000
0001
0000
0100
0010
0100
0000
0010
0000
1000
0100
,
0010
0000
0000
0000
0001
0010
0100
1000
0002
0000
0000
0000
0003
0000
1000
0010
,
0000
0000
0000
1000
0000
0000
0010
0000
0000
0100
0000
0000
0001
0000
0000
1000
0000
0000
0100
0000
0000
0010
0000
0000
0001
0000
0000
0000
0010
0000
0000
0000
0100
0000
0000
0000
1000
0000
0000
0000
0010
0000
0000
0000
0100
0000
0000
0000
,
0001
0000
1000
0100
0010
0000
1000
0000
0010
0000
0001
0100
0010
0000
0001
0000
,
0010
0100
0010
0100
0001
1000
0001
1000
0001
0010
0100
1000
0001
1000
0100
0010
,
0002
0000
0000
0000
0103
0000
0000
0000
0101
0000
0000
0110
0000
0000
2010
0000
,
0000
0000
3100
0000
0110
0000
0010
0001
1000
0000
0000
0010
0000
0000
0210
0000
,
0000
0000
0000
0000
0302
0000
0103
0001
0100
0001
2000
0000
3100
1000
0100
1000
,
0001
0001
1000
0010
1000
0010
0100
0001
0010
0000
0001
0010
0100
1000
0010
0100
,
0002
0000
2003
3200
0301
0000
2000
3020
,
0031
0000
0012
0000
0000
0000
0013
0000
0010
0000
0001
0010
0001
0100
0001
0100
,
0001
0000
0000
0010
0000
0000
0000
0000
0000
0001
0000
0000
0010
0000
0000
0000
0000
0000
0001
0000
0000
0000
0000
0000
0010
0000
0001
0000
0100
0000
0001
0000
0000
0000
0000
0000
0100
0000
0000
0000
0000
0000
0001
0000
0000
0000
0000
0000
,
0001
0000
0000
0000
0000
0000
0000
0000
0000
0000
0000
0000
0000
0000
0000
0000
0000
0000
0000
0000
0000
0000
0000
0000
0100
0000
0000
0000
0000
0000
0000
0000
0001
0000
0000
0000
0000
0000
0000
0000
0010
0000
0000
0000
0000
0000
0000
0000
0001
0000
0000
0000
0000
0000
0000
0000
0000
0000
0000
0000
0010
0000
0000
0000
0000
0000
0000
0000
0000
0000
0000
0000
0001
0000
0000
0000
0000
0000
0000
0000
0000
0000
0000
0000
0010
0000
0000
0000
0000
0000
0000
0000
0000
0000
0000
0000
0100
0000
0000
0000
0000
0000
0000
0000
0000
0000
0000
0000
4000
0000
0000
3000
0000
0000
0000
0000
0000
0000
0000
0000
0040
0000
0000
0030
0000
0000
0000
0000
0000
0000
0000
0000
0000
0000
0000
0000
0000
0000
0000
0000
0000
0000
0000
0000
0400
0000
0000
0300
0000
0000
0000
0000
0000
0000
0000
0000
0004
0000
0000
0003
0000
0000
0000
0000
0000
0000
0000
0000
0010
0000
0000
0000
0000
0000
0000
0000
0000
0000
0000
0000
0100
0000
0000
0000
0000
0000
0000
0000
0000
0000
0000
0000
,
2000
0000
3002
0203
1300
0000
0002
0023
,
1030
0000
2010
0000
3001
0010
0100
1000
0010
0100
0001
1000
0100
0010
0001
1000
,
0020
0000
0130
0010
0200
0000
0302
0000
2003
0000
3100
0010
0200
0000
0000
0000
,
0320
0000
0031
1000
0020
0000
0230
0000
0301
1000
0100
0010
0100
1000
0001
0100
,
0010
0000
0210
0000
0000
0000
1300
0100
0010
0000
0100
0001
0000
0000
1000
0001
,
0010
0000
0210
0000
1300
0010
0000
0010
1000
0000
0100
1000
0010
1000
0100
1000
,
0010
1000
0010
0000
1000
0100
1000
0010
1000
0100
1000
0010
1000
0000
0100
1000
,
0010
0000
0000
1000
0000
0000
0100
0000
0000
0010
0000
0000
0001
0000
1000
0000
0001
0000
1000
0000
0000
0010
0000
0000
0100
0000
0000
0001
0000
0000
1000
0000
0000
0000
0000
0000
0001
0000
0000
0000
0000
0000
1000
0000
0000
0100
0000
0000
,
0010
0000
0210
0000
0000
0000
0301
0100
0010
0000
0100
2000
0001
0000
0001
0000
,
0000
0000
3010
0000
1000
0010
0100
0001
0010
0100
1000
0001
0100
0010
1000
0001
,
0000
0000
0000
0000
0000
0000
0000
0000
0020
0000
0130
0010
0200
0000
2300
0000
,
3002
0000
0103
0010
0200
0000
0000
0000
0320
0000
1030
0001
0020
0000
0230
0000
,
1300
0001
0100
0010
0100
0001
1000
0100
0000
0000
0000
0000
0000
0000
0000
0000
,
0000
0000
0000
0000
,
0000
0000
0000
0000
0000
0000
0000
0000
0000
0000
0000
0000
2000
0000
3100
1000
,
0100
0000
0000
0000
1000
0000
0000
0000
0002
0000
0000
0000
0000
0000
0000
0000
0103
0000
0000
0000
0001
0000
0000
0000
0010
0000
0000
0000
0000
0000
0000
0000
0000
0000
0000
0000
0400
0300
0000
0000
4000
3000
0000
0000
0000
0000
0000
0000
0004
0003
0000
0000
0400
0300
0000
0000
0040
0030
0000
0000
0000
0000
0000
0000
,
0210
0000
0000
0000
0310
0100
1000
0100
0010
0000
1000
0001
0000
1000
0100
0010
,
0001
1000
0000
1000
0010
0000
0100
0010
1000
0000
0001
0010
0000
0010
0100
0000
,
0210
0000
0000
0000
0310
0100
0001
0100
0010
0000
0100
1000
0100
1000
0100
1000
,
0001
1000
0010
0000
1000
0001
0010
0000
0001
0100
0010
1000
0001
0010
0100
1000
,
0020
0000
0000
0000
0000
0000
0000
0000
0000
0000
0000
0000
0130
0000
0000
0010
0000
0000
0001
0000
0000
0010
0000
0000
0100
0000
0010
0000
0100
0000
0010
0000
0000
0000
0000
0000
1000
0000
0000
0010
0000
0000
0100
0000
0000
0001
0000
0000
,
1000
0000
0100
0000
0010
0001
1000
0000
0010
0000
0100
0001
0000
0001
1000
0001
,
0020
0000
0000
0000
0130
0010
1000
0010
0100
0000
0010
0001
0010
0001
0010
0001
,
1000
0000
0000
0000
0010
0000
0000
0000
0100
0000
0000
0000
0000
0000
0000
0000
0001
0000
0000
0000
0010
0000
0000
0000
0400
0300
0000
0000
4000
3000
0000
0000
0040
0030
0000
0000
0000
0000
0000
0000
0400
0300
0000
0000
0004
0003
0000
0000
0000
0000
0000
0000
0040
0030
0000
0000
0400
0300
0000
0000
0000
0000
0000
0000
,
1000
0001
0000
1000
0001
1000
0010
0000
0100
0000
1000
0000
0100
0000
0010
1000
,
0000
0010
0000
1000
0001
1000
0100
0000
0010
0000
1000
0000
0010
0100
0010
0100
,
1000
0001
0000
1000
0001
1000
0010
0000
0001
0000
0010
0000
1000
0000
0001
1000
,
0100
0110
0001
0011
1000
1010
0110
0000
,
0001
1000
0000
0001
1000
0001
0010
0000
0100
0000
0001
0000
0100
0000
0010
0001
,
0010
0001
0010
0001
1000
0010
0100
0000
1000
0000
0100
0000
0010
1000
0001
0010
,
0100
1000
0100
0000
1000
0100
1000
0000
0001
0100
0001
1000
0100
0010
0001
1000
,
0010
0100
0000
0010
0100
0001
1000
0000
0001
0010
0100
1000
0001
0100
0010
1000
,
0001
0000
0001
0010
0100
0000
0100
0000
0010
0100
1000
0001
0000
1000
0001
0000
,
0200
0000
0310
0001
0010
0000
0100
0000
0001
1000
0000
1001
0000
0000
M00M
0000
;

//---------------dance-single - ----------------
#NOTEDATA:;
#CHARTNAME:;
#STEPSTYPE:dance-single;
#DESCRIPTION:;
#CHARTSTYLE:;
#DIFFICULTY:Medium;
#METER:10;
#RADARVALUES:0.488729,0.533657,0.340527,0.316769,0.106910,432.000000,389.000000,43.000000,40.000000,0.000000,0.000000,0.000000,0.000000,0.000000,0.488729,0.533657,0.340527,0.316769,0.106910,432.000000,389.000000,43.000000,40.000000,0.000000,0.000000,0.000000,0.000000,0.000000;
#CREDIT:;
#OFFSET:1.185700;
#BPMS:0.000000=145.000000
;
#STOPS:;
#DELAYS:;
#WARPS:;
#TIMESIGNATURES:0.000000=4=4
;
#TICKCOUNTS:0.000000=4
;
#COMBOS:0.000000=1
;
#SPEEDS:0.000000=1.000000=0.000000=0
;
#SCROLLS:0.000000=1.000000
,219.750000=0.000000
,221.750000=1.000000
;
#FAKES:;
#LABELS:0.000000=Song Start
;
#DISPLAYBPM:145.000000;
#NOTES:
0000
0000
0000
0000
,
0000
0000
0000
0000
,
0000
0000
0000
0000
,
0000
0000
0000
0000
,
0000
0000
0000
0000
,
1001
0000
0000
1001
0000
0000
1000
0100
,
0000
0010
0001
0000
1000
0001
1000
0000
,
0002
0203
0320
2030
,
3200
0010
0000
0000
0010
0000
1300
0000
,
1001
0000
0001
0100
0000
0000
1000
0100
,
0000
1001
0000
0000
1000
0010
1000
0000
,
1001
0000
1000
0100
0000
0000
0001
0100
,
0000
0000
1001
0000
0000
0000
0000
0000
0000
0001
0010
0000
0001
0010
0000
0000
,
1001
0000
1000
0010
0000
0000
0001
0010
,
0000
1001
0000
0000
0001
1000
0100
0000
,
0020
0000
0030
0200
0000
0300
1001
0000
,
0001
0000
0100
0000
0010
0000
0000
0000
1000
0000
0000
0001
0000
1000
0001
0000
,
1001
0000
1000
0100
0001
0100
0000
0210
,
0000
1000
1300
0000
0100
0010
0001
0000
,
1001
0000
0001
0100
1000
0100
0000
0210
,
0000
0001
0301
0000
1000
0010
0100
0001
,
1001
0000
0001
0010
1000
0010
0000
0120
,
0000
0001
0031
0000
0010
0100
1000
0000
,
1001
0000
1000
0010
0001
0010
0000
0220
,
0000
0000
0330
0000
0000
0000
1000
0000
0010
0000
0100
0001
0000
0100
0001
0000
,
1000
0100
0010
0002
0000
0013
0100
1000
,
0001
0000
0000
0100
0000
0000
0010
0000
2000
0000
0000
0000
3001
0000
1000
0000
,
0100
1000
0100
0002
0000
0103
1000
0001
,
0000
0101
0000
0110
0000
1010
1010
0000
,
0001
0010
0100
1000
0001
0100
0010
1000
,
0001
0010
0001
0010
2000
0000
3010
0001
,
1000
0000
0010
0000
0100
0000
0000
0010
0000
0000
0100
0000
0001
0000
0000
0000
,
1000
0000
0100
0000
0010
0000
0001
0000
0100
0010
0000
1000
0000
0000
0001
0000
,
1001
0000
1000
0100
0020
0000
0030
0001
,
0000
0001
0100
0010
2000
0000
3002
0000
,
1003
0100
0001
0000
0001
0100
1000
0000
,
0001
0100
0001
0100
1000
0100
1000
0100
,
0002
0000
0000
0000
0010
0000
0000
0000
1003
0000
0000
1000
0000
0000
2000
0000
,
0000
0000
0010
0000
0010
0000
0000
0000
3001
0000
0000
1000
0000
0000
2002
0000
,
0000
0000
0000
3003
,
1000
0001
0000
0000
0000
0000
0000
0000
0000
0000
0000
0000
0000
0000
0000
0000
,
1001
0000
1000
0100
0000
0000
0001
0100
,
0000
1001
0000
0001
0001
0100
0001
0000
,
0010
0001
0000
0010
0001
0000
0000
0000
0100
0000
0001
0000
0100
0000
0000
0000
,
0001
0000
0010
0000
0001
0000
0000
0000
0000
1000
0010
0000
1000
0010
0000
0000
,
1001
0000
0001
0100
0000
0000
1000
0100
,
0000
1002
0010
0000
1000
0000
0103
0000
,
0001
0010
0001
1000
0010
1000
0002
0000
,
1003
0100
1000
0001
0100
0001
1000
0000
,
1001
0000
0001
0010
0000
0000
1000
0010
,
0000
1001
0000
1000
1000
0100
1000
0000
,
0100
1000
0010
1000
0100
1000
0010
0000
,
1000
0100
0010
0001
0100
0010
1000
0000
,
1001
0000
1000
0010
0000
0000
0001
0010
,
0000
2001
0010
0000
0001
0000
3100
0000
,
0000
0000
0000
2000
,
3000
0000
0002
0000
0000
0000
0013
0000
0000
0001
1000
0000
0001
0000
1000
0000
,
1001
0000
0001
0100
1000
0100
0000
0210
,
0000
0001
0301
0000
0100
0010
1000
0000
,
1001
0000
1000
0100
0001
0100
0000
0210
,
0000
1000
1300
0000
0001
0010
0100
1000
,
1001
0000
1000
0010
0001
0010
0000
0120
,
0000
1000
1030
0000
0010
0100
0001
0000
,
1001
0000
0001
0010
1000
0010
0000
0220
,
0000
0000
0330
0000
0000
0000
0001
0000
0010
0000
0100
1000
0000
0100
1000
0000
,
0001
0100
0010
2000
0000
3010
0100
0001
,
1000
0000
0000
0100
0000
0000
0010
0000
0002
0000
0000
0000
1003
0000
0001
0000
,
0100
0001
0100
2000
0000
3100
0001
1000
,
0000
1100
0000
0110
0000
0011
0011
0000
,
1000
0010
0100
0001
1000
0100
0010
0001
,
1000
0010
1000
0010
0002
0000
0013
1000
,
0001
0000
0010
0000
0100
0000
0000
0010
0000
0000
0100
0000
1000
0000
0000
0000
,
0001
0000
0100
0000
0010
0000
1000
0000
0100
0010
0000
0100
0010
0000
0001
0000
,
1000
0000
1000
0000
0010
0000
0010
0000
0100
0000
0000
0100
0000
0000
0001
0000
,
0020
0000
0000
0130
0000
0000
1000
0000
0002
0000
0000
2000
0000
0000
3003
0000
;

//---------------dance-single - ----------------
#NOTEDATA:;
#CHARTNAME:;
#STEPSTYPE:dance-single;
#DESCRIPTION:;
#CHARTSTYLE:;
#DIFFICULTY:Easy;
#METER:5;
#RADARVALUES:0.254546,0.296476,0.213819,0.293011,0.000000,225.000000,198.000000,27.000000,37.000000,0.000000,0.000000,0.000000,0.000000,0.000000,0.254546,0.296476,0.213819,0.293011,0.000000,225.000000,198.000000,27.000000,37.000000,0.000000,0.000000,0.000000,0.000000,0.000000;
#CREDIT:;
#OFFSET:1.185700;
#BPMS:0.000000=145.000000
;
#STOPS:;
#DELAYS:;
#WARPS:;
#TIMESIGNATURES:0.000000=4=4
;
#TICKCOUNTS:0.000000=4
;
#COMBOS:0.000000=1
;
#SPEEDS:0.000000=1.000000=0.000000=0
;
#SCROLLS:0.000000=1.000000
,219.750000=0.000000
,221.750000=1.000000
;
#FAKES:;
#LABELS:0.000000=Song Start
;
#DISPLAYBPM:145.000000;
#NOTES:
0000
0000
0000
0000
,
0000
0000
0000
0000
,
0000
0000
0000
0000
,
0000
0000
0000
0000
,
0000
0000
0000
0000
,
1001
0000
1001
0000
,
1000
0001
1000
0000
,
0002
0023
0230
2300
,
3002
0000
2000
3003
,
1010
0000
0001
0001
,
0011
0000
1000
1000
,
1100
0000
0001
0001
,
0101
0000
1000
0001
,
1001
0000
1000
1000
,
0001
1000
0001
0001
,
0020
0000
0000
0030
,
0100
1000
0001
0000
,
1000
0000
0010
0000
0100
0000
0000
0202
,
0000
0303
1000
1000
,
0001
0000
0010
0000
0100
0000
0000
2200
,
0000
3300
0001
1000
,
0001
0000
0100
0000
0010
0000
0000
2020
,
0000
3030
0001
0001
,
1000
0000
0100
0000
0010
0000
0000
0022
,
0000
0033
1000
0001
,
0100
0000
0100
0000
,
0010
1000
0100
0000
,
0010
0001
0100
0000
,
0110
0000
1001
0000
,
0001
0010
0100
1000
,
0100
0010
0001
0000
,
1000
1000
0010
0010
,
0100
0001
1000
0000
,
0001
0010
0200
0300
,
0010
0100
2000
3000
,
0001
0100
0010
1000
,
0100
0010
0001
1000
,
0020
0000
0030
0000
0010
0000
0000
0200
,
0000
0000
0300
0000
0010
0000
0000
2002
,
0000
0000
0000
3003
,
1001
0000
0000
0000
,
1002
0103
0000
0001
,
0000
1000
0001
0000
,
0010
0001
0100
0000
,
0100
0001
0010
0000
,
2001
3100
0000
1000
,
0000
0001
1000
0010
,
0100
0100
0001
0000
,
1000
1000
0100
0000
,
1001
0000
0001
0010
,
1001
0000
1000
0000
,
0010
1000
0100
0000
,
0100
1000
0010
0000
,
1001
0000
1000
0200
,
0000
1300
0001
0010
,
0000
0000
0000
0200
,
0000
0000
0300
0000
0000
0000
2002
0000
0000
3003
0000
0000
0000
0000
0000
0000
,
0001
0000
0010
0000
0100
0000
0000
2200
,
0000
3300
0001
0001
,
1000
0000
0010
0000
0100
0000
0000
0202
,
0000
0303
1000
0001
,
1000
0000
0100
0000
0010
0000
0000
0022
,
0000
0033
1000
1000
,
0001
0000
0100
0000
0010
0000
0000
2020
,
0000
3030
0001
1000
,
0100
0000
0100
0000
,
0010
0001
0100
0000
,
0010
1000
0100
0000
,
0110
0000
1001
0000
,
1000
0010
0100
0001
,
0100
0010
1000
0000
,
0001
0001
0010
0010
,
0100
1000
0001
0000
,
1000
0010
0100
0001
,
0020
0000
0030
0000
0200
0000
0000
0300
;

//---------------dance-single - ----------------
#NOTEDATA:;
#CHARTNAME:;
#STEPSTYPE:dance-single;
#DESCRIPTION:;
#CHARTSTYLE:;
#DIFFICULTY:Beginner;
#METER:2;
#RADARVALUES:0.128970,0.176995,0.087111,0.047515,0.000000,114.000000,103.000000,11.000000,6.000000,0.000000,0.000000,0.000000,0.000000,0.000000,0.128970,0.176995,0.087111,0.047515,0.000000,114.000000,103.000000,11.000000,6.000000,0.000000,0.000000,0.000000,0.000000,0.000000;
#CREDIT:;
#OFFSET:1.185700;
#BPMS:0.000000=145.000000
;
#STOPS:;
#DELAYS:;
#WARPS:;
#TIMESIGNATURES:0.000000=4=4
;
#TICKCOUNTS:0.000000=4
;
#COMBOS:0.000000=1
;
#SPEEDS:0.000000=1.000000=0.000000=0
;
#SCROLLS:0.000000=1.000000
;
#FAKES:;
#LABELS:0.000000=Song Start
;
#DISPLAYBPM:145.000000;
#NOTES:
0000
0000
0000
0000
,
0000
0000
0000
0000
,
0000
0000
0000
0000
,
0000
0000
0000
0000
,
0000
0000
0000
0000
,
1000
0000
0000
0000
,
0001
0000
0000
0000
,
1000
0000
1000
0000
,
0001
0000
0000
0000
,
0100
0000
0000
0000
,
0010
0000
0000
0000
,
1000
0000
0000
0000
,
0001
0000
0000
0000
,
0010
0000
0000
0000
,
0100
0000
0000
0000
,
0010
0000
0000
0000
,
0001
0000
1000
0000
,
0001
0000
0001
0000
,
1001
0000
0000
0000
,
1000
0000
1000
0000
,
1001
0000
0000
0000
,
0010
0000
0010
0000
,
1001
0000
0000
0000
,
0100
0000
0100
0000
,
1001
0000
0000
0000
,
1000
0000
1000
0000
,
0010
0000
0010
0000
,
0100
0000
0100
0000
,
0001
0000
1000
0000
,
0001
0000
0001
0000
,
0010
0000
0010
0000
,
0100
0000
0100
0000
,
1000
0000
0001
0000
,
2000
0000
3000
0000
,
0020
0000
0030
0000
,
0100
0000
0100
0000
,
0001
0000
1000
0000
,
0002
0000
0003
0000
,
0020
0000
0030
0000
,
2002
0000
0000
0000
,
3003
0000
0000
0000
,
1000
0000
1000
0000
,
0010
0000
0000
0000
,
0100
0000
0000
0000
,
0001
0000
0000
0000
,
0001
0000
0001
0000
,
0010
0000
0000
0000
,
0100
0000
0000
0000
,
1000
0000
0000
0000
,
0001
0000
0001
0000
,
1000
0000
1000
0000
,
0100
0000
0000
0000
,
0010
0000
0000
0000
,
0001
0000
0001
0000
,
1000
0000
1000
0000
,
0000
0000
0000
0010
,
0000
0000
0000
0000
,
1000
0000
1000
0000
,
1001
0000
0000
0000
,
0001
0000
0001
0000
,
1001
0000
0000
0000
,
0010
0000
0010
0000
,
1001
0000
0000
0000
,
0100
0000
0100
0000
,
1001
0000
0000
0000
,
0001
0000
0001
0000
,
0010
0000
0010
0000
,
0100
0000
0100
0000
,
1000
0000
0001
0000
,
1000
0000
1000
0000
,
0010
0000
0010
0000
,
0100
0000
0100
0000
,
0001
0000
1000
0000
,
0100
0000
0000
0000
,
0110
0000
1001
0000
;

//---------------dance-single - ----------------
#NOTEDATA:;
#CHARTNAME:;
#STEPSTYPE:dance-single;
#DESCRIPTION:;
#CHARTSTYLE:;
#DIFFICULTY:Hard;
#METER:14;
#RADARVALUES:0.679922,0.749555,0.229657,0.562265,0.558305,601.000000,572.000000,29.000000,71.000000,2.000000,0.000000,0.000000,0.000000,16.000000,0.679922,0.749555,0.229657,0.562265,0.558305,601.000000,572.000000,29.000000,71.000000,2.000000,0.000000,0.000000,0.000000,16.000000;
#CREDIT:;
#OFFSET:1.185700;
#BPMS:0.000000=145.000000
;
#STOPS:;
#DELAYS:;
#WARPS:221.000000=16.000000
;
#TIMESIGNATURES:0.000000=4=4
;
#TICKCOUNTS:0.000000=4
;
#COMBOS:0.000000=1
;
#SPEEDS:0.000000=1.000000=0.000000=0
;
#SCROLLS:0.000000=1.000000
,219.750000=0.000000
,221.750000=1.000000
,237.000000=-2.000000
,237.250000=-1.000000
,237.500000=0.000000
,237.750000=1.500000
,238.000000=1.000000
;
#FAKES:;
#LABELS:0.000000=Song Start
;
#DISPLAYBPM:145.000000;
#NOTES:
0000
0000
0000
0000
,
0000
0000
0000
0000
,
0000
0000
0000
0000
,
0000
0000
0000
0000
,
0000
0000
0000
0000
,
0001
0010
0000
0001
0010
0000
0000
0000
0001
0000
0100
0000
0001
0000
0000
0000
,
1000
0000
0100
0000
1000
0000
0000
0000
0010
0000
1000
0010
0000
1000
0010
0000
,
2001
3200
0320
0032
,
2003
0000
0001
0000
3000
0000
0002
0000
2000
0000
0000
0000
3003
0000
1000
0010
,
1000
0000
0020
0000
0000
0000
0130
0010
1000
0000
0010
1000
0000
0000
0001
0010
,
0001
0000
0020
0000
0000
0000
0130
0010
0001
0000
0001
0000
0001
0000
1000
0001
,
0100
0000
0020
0000
0000
0000
0130
0001
1000
0000
0001
1000
0000
0000
0001
1000
,
0100
0000
0020
0000
0000
0000
0031
0000
1000
0010
0100
0000
0010
0100
0001
0000
,
1000
0000
0200
0000
0000
0000
0310
0100
0010
0000
0001
1000
0000
0001
0100
0001
,
0000
1000
0100
0000
0010
0000
0001
0010
0001
0000
1000
0010
1000
0000
0001
0000
,
2000
0000
0000
0000
3001
1000
0002
0000
0000
0000
1003
0001
0010
0000
0000
0000
,
0001
1000
0001
1000
0001
0100
0000
0001
1000
0100
0000
0100
0000
1000
0001
0000
,
1001
0000
0000
0000
0001
0100
0010
1000
0001
0000
0100
0000
1000
0000
1200
0000
,
0000
0000
0010
0000
0301
0000
0000
0000
0001
0000
0100
0010
0000
0010
1000
0000
,
1001
0000
0000
0000
1000
0100
0010
0001
1000
0000
0100
0000
0001
0000
0201
0000
,
0000
0000
0010
0000
1300
0000
0001
0000
0100
0000
0010
0100
0010
0000
0100
0001
,
1000
0000
0000
0000
0001
0010
0100
1000
0001
0000
0010
0000
1000
0000
1020
0000
,
0000
0000
0100
0000
0031
0000
0000
0000
0001
0000
0010
0100
0000
0100
1000
0000
,
1001
0000
0000
0000
1000
0010
0100
0001
1000
0000
0010
0000
0001
0000
0021
0000
,
0000
0000
1000
0000
1030
0000
0001
1000
0100
0000
0010
0100
0000
0010
0001
0000
,
1000
0000
0001
0100
0010
0000
0200
0000
0000
0000
0310
0000
0100
0000
0001
0000
,
1000
0000
0000
0100
0000
0000
0010
0000
0002
0000
0000
0000
0013
0000
0100
0000
,
1000
0000
0001
0100
0010
0000
0002
0000
0000
0000
0013
0100
0001
0000
1000
0000
,
0000
0002
0010
2003
0010
3001
1001
0000
,
0001
0000
1000
0100
0010
0000
0001
0000
1000
0000
0100
0000
0001
0000
0100
0000
,
1000
0000
0010
0000
0001
0000
0010
0000
2000
0000
0000
0000
3001
0000
1000
0100
,
0010
0000
0010
0000
0001
0000
1000
0010
0000
0010
0100
0000
0001
1000
0001
0000
,
0010
0000
0100
0010
0001
0000
1000
0000
0001
0100
0000
0010
0000
0000
0110
0000
,
1001
0000
0000
0000
1000
0100
1000
0100
0020
0000
0000
0000
0030
0000
0001
1000
,
0000
0001
0100
0000
0010
0000
0100
0000
2000
0000
0000
0000
3200
0000
0000
0000
,
0301
0000
0010
0100
0010
0000
1000
0000
1000
0000
0010
0100
0010
0000
0001
0000
,
1000
0001
0100
0000
0010
0000
0100
0000
0010
1000
0001
0000
1000
0000
0000
0000
,
2001
0000
0000
0000
3100
0000
0000
0000
1100
0000
0000
0011
0000
0000
1002
0000
,
0000
0000
0100
0000
0103
0000
0010
0000
0100
0000
0000
0010
0000
0000
2002
0000
,
0000
0000
3003
0000
2000
0000
0000
0000
3001
1000
0002
0000
0000
0000
1003
0001
,
1000
0100
0000
0000
0000
0000
0000
0000
0000
0000
0000
0000
0000
0000
0000
0000
,
1001
0000
2000
3020
0031
0000
0020
2030
,
3001
0000
1002
0000
0000
0000
0013
0000
0010
0000
0001
0010
0001
0000
0100
0000
,
0001
0010
0000
0001
0010
0000
0001
0000
0010
0001
0100
0000
0001
0000
0010
0000
,
0001
0000
0100
0001
0010
0000
0001
0000
1000
0010
0100
0000
0010
0100
0001
0000
,
1001
0000
2000
3200
0301
0000
0200
2300
,
3000
0000
1002
0000
0103
0000
0010
0000
1000
0010
1000
0000
0001
0010
0001
0000
,
2000
3020
0032
0023
2030
3200
0302
0000
,
0203
0000
0320
0000
0032
0000
2003
0000
3001
0100
0000
0100
0010
0000
1000
0001
,
0010
0000
0200
0000
0000
0000
0310
0100
1000
0000
0100
1000
0000
0000
0001
1000
,
0010
0000
0200
0000
0310
1000
0000
1000
0010
0000
1000
0100
1000
0000
0010
0000
,
1000
0100
1000
0000
0100
1000
0010
0000
1000
0000
0010
1000
0100
0000
1000
0010
,
1000
0000
0100
0010
0001
0000
1000
0000
0100
0000
0010
0000
0001
0000
1000
0001
,
0100
0000
0020
0000
0000
0000
0130
0001
1000
0000
0001
0020
0000
0000
0100
0000
,
0000
0000
0130
0000
0010
0000
0001
0000
1000
0100
1000
0000
0001
0100
0001
0000
,
0000
0000
0000
0000
2000
3200
0302
0203
,
2300
3020
0032
0000
0023
0230
0302
2003
,
3001
0010
0000
0100
1000
0000
0001
0000
0000
0000
0000
0000
0000
0000
0000
0000
,
0000
0000
0000
0000
,
0000
0000
0000
0002
,
1003
0001
2000
0000
3001
0000
1001
0000
0000
1000
0010
0000
0100
0001
1000
0000
,
1001
0000
0000
0000
1000
0100
0010
0001
1000
0000
0100
0000
0001
0000
0201
0000
,
0000
0000
0010
0000
1300
0000
0000
0000
1000
0000
0100
0010
0000
0010
0001
0000
,
1001
0000
0000
0000
0001
0100
0010
1000
0001
0000
0100
0000
1000
0000
1200
0000
,
0000
0000
0010
0000
0301
0000
1000
0000
0100
0000
0010
0100
0010
0000
0100
1000
,
0001
0000
0000
0000
1000
0010
0100
0001
1000
0000
0010
0000
0001
0000
0021
0000
,
0000
0000
0100
0000
1030
0000
0000
0000
1000
0000
0010
0100
0000
0100
0001
0000
,
1001
0000
0000
0000
0001
0010
0100
1000
0001
0000
0010
0000
1000
0000
1020
0000
,
0000
0000
0001
0000
0031
0000
1000
0001
0100
0000
0010
0100
0000
0010
1000
0000
,
0001
0000
1000
0100
0010
0000
0200
0000
0000
0000
0310
0000
0100
0000
1000
0000
,
0001
0000
0000
0100
0000
0000
0010
0000
2000
0000
0000
0000
3010
0000
0100
0000
,
0001
0000
1000
0100
0010
0000
2000
0000
0000
0000
3010
0100
1000
0000
0001
0000
,
0000
2000
0010
3002
0010
1003
1001
0000
,
1000
0000
0001
0100
0010
0000
1000
0000
0001
0000
0100
0000
1000
0000
0100
0000
,
0001
0000
0010
0000
1000
0000
0010
0000
0002
0000
0000
0000
1003
0000
0001
0100
,
0010
0000
0010
0000
1000
0000
0001
0010
0000
0010
0100
0000
1000
0001
1000
0000
,
0010
0000
0100
0010
1000
0000
0001
0000
1000
0100
0000
0010
0001
0000
0100
0010
,
1000
0000
1000
0000
0010
0000
0010
0000
0100
0000
0001
1000
0000
1000
0001
0000
,
0020
0000
0130
1000
0000
0000
0010
0000
0100
0001
0000
1000
0000
0000
M00M
0000
;
