#TITLE:lost chain;
#SUBTITLE:;
#ARTIST:まぁ言うてかぼちゃの色も橙だし多分大丈夫;
#TITLETRANSLIT:;
#SUBTITLETRANSLIT:;
#ARTISTTRANSLIT:;
#GENRE:;
#CREDIT:;
#MUSIC:lost chain.ogg;
#BANNER:lost chain.png;
#BACKGROUND:lost chain-bg.png;
#CDTITLE:;
#SAMPLESTART:54.111;
#SAMPLELENGTH:15.000;
#SELECTABLE:YES;
#OFFSET:0.516;
#BPMS:0.000=158.000;
#STOPS:;
#BGCHANGES:;
#FGCHANGES:;

//--------------- dance-single - eataninja ----------------
#NOTES:
     dance-single:
     eataninja:
     Beginner:
     3:
     0,0,0,0,0:
0000
0000
0000
0000
,
0000
0000
0000
0000
,
0000
0000
0000
0000
,
0000
0000
0000
0000
,
0000
0000
0000
0000
,
0000
0000
0000
0000
,
0000
0000
0000
0000
,
1000
0000
0100
0000
,
0010
0010
0000
0000
,
0001
0000
1000
0000
,
0010
0000
0000
0000
,
0100
0000
0001
0000
,
1000
1000
0000
0000
,
0001
0000
0010
0000
,
0100
0000
0000
0000
,
1000
0000
0001
0000
,
0100
0100
0000
0000
,
0010
0000
0100
0000
,
0001
0000
0000
0000
,
1000
0000
0001
0000
,
0010
0010
0000
0000
,
0100
0000
0010
0000
,
0001
0000
0000
0000
,
1001
0000
0000
0000
,
1001
0000
0000
0000
,
0100
0000
0010
0000
,
1000
0000
0001
0000
,
0010
0000
0100
0000
,
1000
0000
0001
0000
,
0200
0000
0300
0000
,
2002
0000
3003
0000
,
0001
0001
0001
0000
,
1000
0000
0100
0000
,
0001
0000
0100
0000
,
1000
0000
0100
0000
,
0010
0000
0010
0000
,
0001
0000
1000
0000
,
0010
0010
0010
0000
,
0100
0000
0001
0000
,
1000
1000
1000
0000
,
1001
0000
0000
0000
,
0110
0000
0000
0000
,
1000
0000
0001
0000
,
1001
0000
1001
0000
,
0100
0000
0000
0000
,
0001
0000
0100
0000
,
0010
0000
0100
0000
,
0001
0000
1000
0000
,
0100
0000
0010
0000
,
0001
0000
1000
0000
,
0010
0000
0001
0000
,
0010
0000
0100
0000
,
0001
0001
0001
0000
,
1001
0000
0000
0000
,
0001
0000
0100
0000
,
1001
0000
0000
0000
,
1000
0000
0100
0000
,
1001
0000
1000
0000
,
0010
0000
0010
0000
,
0100
0000
0001
0000
,
1000
1000
1000
0000
,
0001
0000
0010
0000
,
1000
0000
0010
0000
,
0001
0000
0010
0000
,
0100
0000
0100
0000
,
1000
0000
0001
0000
,
0100
0100
0100
0000
,
0001
0000
1000
0000
,
0100
0100
0100
0000
,
1001
0000
0000
0000
,
0110
0000
0000
0000
,
1001
0000
0000
0000
,
1001
0000
0000
0000
,
0110
0000
0000
0000
,
1001
0000
0000
0000
,
0100
0000
0010
0000
,
1001
0000
0000
0000
,
0110
0000
0000
0000
,
2002
0000
0000
3003
;

//--------------- dance-single - eataninja ----------------
#NOTES:
     dance-single:
     eataninja:
     Easy:
     6:
     0,0,0,0,0:
0000
0000
0000
0000
,
0000
0000
0000
0000
,
0000
0000
0000
0000
,
0000
0000
0000
0000
,
0000
0000
0000
0000
,
0000
0000
0000
0000
,
0000
0000
0000
0000
,
1000
0100
1000
1000
,
0001
0100
0000
0010
,
1000
0001
0010
0010
,
0100
0100
1000
0000
,
0001
0100
0001
0001
,
1000
0100
0000
0010
,
0001
1000
0010
0010
,
0100
0001
1001
0000
,
1000
1000
0001
0001
,
0010
0100
0000
1000
,
0001
1000
0010
0010
,
0100
0100
0001
0000
,
1000
0001
0010
0010
,
0100
0010
0000
0001
,
1000
0010
0100
0100
,
0001
0001
1001
0000
,
0020
0000
0130
0000
,
2000
0000
3001
0000
,
0001
0100
1000
0100
,
0001
0010
0100
0000
,
2000
0000
3002
0000
,
0203
0000
0320
0000
,
2030
0001
0001
3001
,
0010
0100
1000
0000
,
1001
0000
0000
0000
,
1000
0010
0100
0001
,
0010
0100
1000
0000
,
0001
0010
0100
1000
,
0010
0001
0010
1000
,
0001
0100
0010
0100
,
0001
0010
0100
0000
,
1000
0001
0100
0100
,
0010
1000
0001
0010
,
0100
0000
0000
0110
0000
0000
0000
0000
,
0010
0000
0000
0110
0000
0000
0000
0000
,
1000
0001
0100
0010
,
0100
0000
0000
0001
0000
0000
1001
0000
,
0000
0000
0020
0000
,
1030
0001
0010
0010
,
0100
0010
0001
1000
,
0010
0100
0010
1000
,
0001
0010
1000
0010
,
0001
1000
0010
0010
,
0100
0001
1000
1000
,
0100
0010
0001
1000
,
0010
0100
0002
0000
,
1003
0000
0000
0001
0000
0000
0000
0000
,
0010
0100
1000
0000
,
0001
0000
0000
1000
0000
0000
0000
0000
,
0010
0100
0010
0000
,
1000
1000
0001
0001
,
0010
0100
1000
0000
,
0001
0100
1000
0100
,
0010
0010
1001
0000
,
0100
1000
0010
0100
,
0001
0010
0100
0000
,
0010
0001
1000
0010
,
0001
0010
1000
0001
,
0010
0100
1000
1000
,
0001
0100
0010
0000
,
1000
0001
0010
0100
,
1000
0001
0100
0010
,
1000
0000
0000
1001
0000
0000
0000
0000
,
0001
0000
0000
1001
0000
0000
0000
0000
,
0010
0000
0000
0110
0000
0000
0000
0000
,
0100
0000
0000
1000
0000
0000
0000
0000
,
0001
0000
0000
1001
0000
0000
0000
0000
,
1000
0000
0000
1001
0000
0000
0000
0000
,
0001
0010
0100
1000
,
0010
0000
0000
0000
,
0110
0000
0000
0000
,
2002
0000
0000
0000
0000
0000
0000
3003
;

//--------------- dance-single - eataninja ----------------
#NOTES:
     dance-single:
     eataninja:
     Medium:
     10:
     0,0,0,0,0:
0000
0000
0000
0000
,
0000
0000
0000
0000
,
0000
0000
0000
0000
,
0000
0000
0000
0000
,
0000
0000
0000
0000
,
0000
0000
0000
0000
,
0000
0000
0000
0000
,
1000
0100
1000
0000
0100
0010
0100
0000
,
0010
0001
1000
0001
0000
0100
0000
0010
,
1000
0000
0000
0001
0000
0000
0010
0000
0100
0000
0000
0000
0010
0000
0001
0000
,
1000
0010
0100
0000
0101
0000
0000
0000
,
1000
0001
1000
0000
0001
0010
0100
0000
,
1000
0001
0100
0010
0000
0110
0000
0001
,
0010
0000
0000
0100
0000
0000
1000
0000
0000
0000
0001
0000
0100
0000
0010
0000
,
0000
0000
1000
0000
0100
0000
0010
0000
0001
0000
0000
1000
0000
0000
1000
0000
,
0010
0100
0001
0000
1000
0100
0010
0000
,
0001
0100
1000
0100
0000
0010
1000
0001
,
0010
0000
0000
0100
0000
0000
1000
0000
0001
0000
0001
0000
0100
0000
0000
0000
,
0010
1000
0100
0000
0001
0100
1000
0000
,
0010
0100
0001
1000
0001
0001
0010
0000
,
0100
0010
0001
1000
0000
0010
0100
0001
,
1000
0000
0000
0100
0000
0000
1000
0000
0001
0000
0010
0000
1000
0000
0020
0000
,
0000
0000
0100
0000
0130
0000
0000
0000
1000
0000
0000
0001
0000
0000
0100
0000
,
0020
0000
0000
1000
1030
0000
0000
0000
,
0020
0000
0000
0100
0130
0000
0000
0000
,
0001
0000
0000
1000
0000
0000
1000
0000
0010
0000
0000
0100
0000
0000
0001
0000
,
0010
0000
0000
0100
0000
0000
1000
0000
1000
0000
0000
0000
0000
0000
0000
0000
,
0002
0100
2003
0001
,
3002
0000
0000
0000
0010
0000
0000
0000
0103
0000
0000
0010
0000
0000
1000
0000
,
1000
0000
0001
0001
0010
0010
0100
0100
,
0010
0011
1001
0000
,
1000
0000
0000
1000
0000
0000
0001
0000
1001
0000
0000
0000
0000
0000
0000
0000
,
0001
0000
0000
0010
0000
0000
0100
0000
0000
0000
1000
0000
0001
0000
1000
0000
,
0020
0000
0000
0000
0130
0000
0002
0000
0000
0000
1000
0000
0000
1003
0000
0000
,
0001
0000
0000
0010
0000
0000
0100
0000
0000
0000
1000
0000
0001
0000
0100
0000
,
0020
0000
0130
2000
0000
3100
0001
0000
,
1000
0000
0000
0100
0000
0000
0010
0000
0000
0000
0001
0000
1000
0000
0010
0000
,
0100
0000
0000
0010
0000
0000
1000
0000
0000
0000
0001
0000
0010
0000
0100
0000
,
1000
0000
0000
0001
0000
0000
0100
0000
0000
0000
1000
0000
0100
0000
0001
0000
,
1000
0100
0010
0001
,
1000
0000
0000
0010
0000
0000
1010
0000
0000
0000
1000
0000
0001
0000
0000
0000
,
0001
0000
0000
0010
0000
0000
0011
0000
0000
0000
0001
0000
1000
0000
0000
0000
,
0010
0000
0000
0100
0000
0000
0001
0000
1000
0000
0000
0100
0000
0000
0010
0000
,
0001
0000
0000
0011
0000
0000
1010
0000
,
1000
0010
0220
0330
,
0100
0010
1000
0000
0001
0010
0100
0000
,
1000
0000
0001
0000
0100
1000
0100
0000
,
0010
1000
0001
0000
0010
0100
1000
0000
,
0001
0100
0010
0100
0001
0010
0100
0000
,
1000
0000
0100
0000
0001
0000
0000
0000
0100
0000
0000
0010
0000
0000
0001
0000
,
1000
0000
0010
0000
0001
0000
0000
0000
0010
0000
0000
0100
0000
0000
0010
0000
,
1000
0000
1000
0000
0001
0001
0010
0000
,
0100
0010
0001
1000
0020
0100
0130
0000
,
0001
0000
0000
0100
0000
0000
0110
0000
0000
0000
0000
0000
0000
0000
0000
0000
,
1000
0000
0001
0000
0010
0100
1000
0000
,
1000
0000
0000
0010
0000
0000
0110
0000
0000
0000
0000
0000
0000
0000
0000
0000
,
0001
0000
0010
1000
0000
0010
0100
0000
,
1000
0000
0000
0010
0000
0000
0100
0000
0000
0000
0001
0000
0010
0000
0100
0000
,
1000
0000
0000
0001
0000
0000
1000
0000
0000
0000
0010
0000
0010
0000
0000
0000
,
0100
0000
0000
1000
0000
0000
0100
0000
0000
0000
0010
0000
1000
0000
0001
0000
,
0010
0000
0100
0000
1000
1000
0001
0001
,
1000
0000
0000
0010
0000
0000
0100
0000
0001
0000
1000
0000
0100
0000
0010
0000
,
0002
0000
0000
0000
1003
0000
0010
0000
0200
0000
0001
0000
0000
0301
0000
0000
,
1000
0000
0000
0001
0000
0000
0010
0000
0010
0000
0100
0000
0010
0000
0001
0000
,
1000
0000
0010
0001
0010
0100
0001
0000
,
1000
0000
0000
0100
0000
0000
0010
0000
0001
0000
1000
0000
0010
0000
0100
0000
,
1000
0000
0000
0100
0000
0000
0001
0000
1000
0000
0010
0000
1000
0000
0000
0000
,
0001
0000
0000
0010
0000
0000
0100
0000
1000
0000
0001
0000
0100
0000
0010
0000
,
1000
0001
0010
0100
,
1000
0000
0000
0001
0000
0000
0101
0000
0000
0000
0100
0000
0100
0000
0000
0000
,
0001
0000
0000
1000
0000
0000
1100
0000
0000
0000
0100
0000
0100
0000
0000
0000
,
1000
0000
0000
0010
0000
0000
1010
0000
0000
0000
1000
0000
0001
0000
0000
0000
,
0001
0000
0000
0010
0000
0000
0011
0000
0000
0000
0001
0000
1000
0000
0000
0000
,
1000
0000
0000
0100
0000
0000
0110
0000
0000
0000
0001
0000
0001
0000
0000
0000
,
0001
0000
0000
0100
0000
0000
0110
0000
0000
0000
1000
0000
1000
0000
0000
0000
,
0001
0000
0000
0100
0000
0000
0010
0000
1000
0000
0000
0100
0000
0000
0010
0000
,
0001
0000
0000
0000
,
1001
0000
0000
0000
,
0202
0000
0000
0000
0000
0000
0000
0303
;

//--------------- dance-single - eataninja ----------------
#NOTES:
     dance-single:
     eataninja:
     Hard:
     13:
     0,0,0,0,0:
0000
0000
0000
0000
,
0000
0000
0000
0000
,
0000
0000
0000
0000
,
0000
0000
0000
0000
,
0000
0000
0000
0000
,
0000
0000
0000
0000
,
0000
0000
0000
0000
,
1000
0000
0001
0000
0010
0000
0100
0000
0010
0001
0010
0000
0001
0000
1000
0000
,
0010
0000
0100
0000
0001
0000
1000
0100
0000
0000
0001
0000
0100
0000
0100
0000
,
0010
0000
0000
0010
0001
0000
1000
0000
0010
0000
0100
0000
0010
0000
1000
0000
,
0001
0000
0000
0000
0011
0000
0000
0000
1000
0000
0000
0001
0000
0000
0100
0000
,
0010
0000
0010
0000
1000
0000
0001
0000
0010
0100
0010
0000
0001
0000
1000
0000
,
0010
0000
0010
0000
1000
0000
0001
0010
0000
0000
1000
0000
0010
0000
0001
0000
,
1000
0000
0000
0010
0000
0000
0100
0000
0100
0000
0001
0000
0010
0000
0100
0000
,
1000
0000
0010
0000
0001
0000
0010
0000
0100
0000
0000
0001
0000
0000
1000
0000
,
0001
0010
0001
0000
1000
0000
0010
0000
0100
0000
0010
0000
1000
0001
1000
0000
,
0100
0001
0100
1000
0000
0010
0100
0001
,
1000
0000
0000
1000
0010
0000
0001
0000
0010
0000
0010
0000
0100
0000
0001
0000
,
1000
0100
0010
0001
1000
0010
0100
0000
,
0001
0000
1000
0100
1000
0000
0001
0000
0100
0000
0010
0100
0010
0000
1000
0000
,
0001
0000
0010
0100
0010
0000
0100
0000
0100
0000
0001
0000
0100
0000
1000
0000
,
0010
0000
0000
0010
0100
0000
0001
0000
1000
0000
0100
0000
0001
0000
0100
0000
,
0010
0000
0001
0000
0001
1000
0000
0000
0010
0000
0000
0100
0000
0000
0001
0000
,
2000
0000
0000
0000
0000
0000
0100
0000
3100
0000
0000
0010
0000
0000
0001
0000
,
2000
0000
0000
0000
0000
0000
0010
0000
3010
0000
0000
0100
0000
0000
0010
0000
,
0010
0000
0000
1000
0000
0000
0001
0000
0010
0000
0000
0100
0000
0000
1000
0000
,
0010
0000
0000
0001
0000
0000
0010
0000
0100
0000
0000
0001
0000
0000
1000
0000
,
0100
0000
0000
0100
0010
0000
0001
0000
1000
0000
0000
1000
0010
0000
0100
0000
,
1000
0000
0000
1000
0100
0000
0010
0000
1000
0000
0000
0001
0000
0000
0010
0000
,
0100
0100
0010
0010
0001
0001
1000
1000
,
0010
0110
2002
3003
,
0001
0000
0000
0001
0000
0000
1000
0000
1010
0000
0000
0000
0001
0000
0000
0000
,
1000
0000
0001
0100
0000
0001
0100
0000
0010
0000
1000
0000
0100
0000
0001
0000
,
0200
0000
0010
0000
0310
0000
0200
0000
1000
0000
1300
0000
0001
0100
0000
0000
,
0001
0000
1000
0010
0000
0100
0010
0000
1000
0000
0001
0000
0010
0000
0100
0000
,
2000
0000
0001
0000
3001
0000
0200
0000
1000
0000
1300
0000
0100
0010
0000
0000
,
1000
0000
0001
0100
0000
0010
0100
0000
0001
0000
0010
0000
0100
0000
1000
0000
,
0001
0000
0100
0010
0000
0100
1000
0000
0100
0000
0010
0000
1000
0000
0001
0000
,
0010
0000
0100
0010
0000
0001
1000
0000
0010
0000
0001
0000
0010
0000
0100
0000
,
0001
0101
1001
1100
,
0110
0000
0000
0010
0000
0000
0010
0000
0000
0000
0000
0000
1001
0000
0000
0000
,
0110
0000
0000
0100
0000
0000
0100
0000
0000
0000
0000
0000
1001
0000
0000
0000
,
0101
0000
0000
1000
0000
0000
0001
0000
0011
0000
0000
1000
0000
0000
0100
0000
,
0010
0001
0001
1000
0010
0010
0001
0000
,
2000
0000
0000
0000
3200
0000
0000
0000
0301
0000
0000
0001
1000
0000
0100
0000
,
0010
0000
0000
0010
0001
0000
1000
0000
0010
0000
0000
0010
0100
0000
0001
0000
,
1000
0000
0000
1000
0100
0000
0001
0000
0100
0000
0000
0100
0010
0000
0001
1000
,
0001
0000
0000
0001
1000
0000
0010
0000
0100
0000
0000
0100
0001
0000
1000
0000
,
0100
0000
0001
0000
0100
0000
0010
0000
0001
0000
1000
0000
0010
0100
0000
0010
,
1000
0000
0000
1000
0001
0000
0010
0000
0100
0000
0000
0100
0001
0000
0100
0000
,
1000
0000
0000
1000
0001
0000
0100
0000
0010
0000
0000
0010
0100
0000
0001
0000
,
1000
0000
0000
1000
0100
0000
0010
0000
0001
0000
0001
0000
1000
0010
0000
0100
,
0010
1000
0001
0010
0100
0100
1000
1000
,
0010
0000
0000
0100
0000
0000
1001
0000
0000
0000
0000
0000
0000
0000
0000
0000
,
0001
0000
0000
0001
0010
0000
0000
0010
0100
0000
1000
0000
0000
1000
0000
0000
,
0010
0000
0000
0100
0000
0000
1001
0000
0000
0000
0000
0000
0000
0000
0000
0000
,
1000
0000
0010
0002
0000
0013
2000
0000
,
3001
0000
0010
0100
0000
0010
0001
0000
1000
0000
0010
0000
0001
0000
0010
0000
,
0100
0000
0010
1000
0000
0001
1000
0000
0100
0000
0010
0000
0001
0000
0000
0000
,
1000
0000
0010
0100
0000
0010
1000
0000
0001
0000
0010
0000
0100
0000
1000
0000
,
0010
0110
0101
1001
,
1000
0000
0100
0001
0000
0100
0010
0000
0001
0000
1000
0000
0010
0000
0100
0000
,
0002
0000
1000
0000
1003
0000
0002
0000
0010
0000
0013
0000
0001
1000
0000
0000
,
0100
0000
0010
0001
0000
1000
0001
0000
0100
0000
0010
0000
1000
0000
0001
0000
,
0200
0000
0001
0000
0301
0000
0200
0000
1000
0000
1300
0000
0100
0010
0000
0000
,
1000
0000
0001
0010
0000
0001
1000
0000
0010
0000
0100
0000
0001
0000
0010
0000
,
1000
0000
0010
0100
0000
0010
0001
0000
1000
0000
1000
0000
0001
0000
0000
0000
,
1000
0000
0010
0100
0000
0001
0100
0000
0010
0000
1000
0000
0100
0000
0010
0000
,
0001
0011
0110
1001
,
1000
0000
0000
0010
0000
0000
2010
0000
0000
0000
0001
0000
3001
0000
0000
0000
,
0001
0000
0000
0010
0000
0000
0012
0000
0000
0000
1000
0000
1003
0000
0000
0000
,
0001
0000
0000
0010
0000
0000
2001
0000
0000
0000
3010
0000
0100
0000
0001
0000
,
1000
0000
0000
0100
0000
0000
0120
0000
0000
0000
0001
0000
0130
0000
0000
0000
,
1001
0000
0000
1001
0000
0000
0102
0000
0000
0000
1000
0000
1003
0000
0000
0000
,
1001
0000
0000
1001
0000
0000
2100
0000
0000
0000
0001
0000
3001
0000
0000
0000
,
1000
0000
0000
0010
0000
0000
0001
0000
1000
0000
0000
0100
0000
0000
0001
0000
,
1001
0000
0000
0000
,
1100
0000
0000
0000
,
0022
0000
0000
0000
0000
0000
0000
0033
;

//--------------- dance-single - eataninja ----------------
#NOTES:
     dance-single:
     eataninja:
     Challenge:
     15:
     0,0,0,0,0:
0000
0000
0000
0000
,
0000
0000
0000
0000
,
0000
0000
0000
0000
,
0000
0000
0000
0000
,
0000
0000
0000
0000
,
0000
0000
0000
0000
,
0000
0000
0000
0000
,
1000
0100
1000
0000
0001
0000
0100
0000
0010
0100
0010
0100
0001
0000
1000
0000
,
0001
0010
0001
0010
0100
0000
0010
0001
0000
0000
1000
0010
0000
0100
0001
0000
,
1000
0000
0000
1000
0100
0000
0001
0000
0100
0000
1000
0000
0010
0000
0100
0010
,
1000
0000
0000
1000
0001
0000
0000
0000
0001
0000
0010
0100
1000
0001
1000
0001
,
0100
0000
0100
0000
0010
0000
1000
0000
0001
0010
0000
0010
0100
0000
1000
0001
,
0100
0010
0100
0001
0000
1001
0000
1000
,
0100
0000
0000
0100
0010
0000
0001
0000
1000
0000
0001
0000
0100
0000
0010
0100
,
0001
0000
1000
0000
0100
0000
0001
0000
0100
0000
0000
0110
0000
0000
0011
0000
,
1000
0000
0001
0000
0100
0000
0010
0100
0001
1000
0100
0010
0001
1000
0001
1000
,
0010
0100
0000
0100
0001
0000
1000
0000
0000
0000
0100
0010
0100
0000
0010
0001
,
1000
0000
0000
1000
0010
0000
0001
0000
0010
0000
0010
0000
0100
0000
0001
0000
,
1000
0000
0100
0000
0010
0000
0001
0000
1000
0000
0010
0000
0100
0001
0100
0001
,
1000
0001
1000
0100
0010
0000
0001
1000
0010
0100
0010
0100
0001
1000
0100
0010
,
0001
1000
0010
1000
0001
0100
0010
0000
0000
0000
1000
0000
0100
0000
0001
0000
,
0100
0000
0000
0100
0010
0000
0001
0000
0100
0000
0010
1000
0001
0010
0001
0010
,
0100
0000
1000
0001
1000
0001
0000
0000
0101
0000
0000
0110
0000
0000
1000
0000
,
0001
0000
0000
0000
0000
0000
0010
0000
1000
0000
0010
0100
0000
0100
1000
0000
,
0001
0000
0000
0000
0000
0000
0100
0000
0001
0000
1000
0100
0000
0100
0010
0000
,
0001
0000
0000
1001
0000
0000
1000
0000
0010
0000
0000
0110
0000
0000
0100
0000
,
0001
0000
1000
0100
0000
1000
0001
0000
0100
0000
0010
1000
0001
0010
0100
0010
,
0002
0000
0000
1003
0010
0000
0100
0000
0020
0000
0000
1030
0001
0000
0010
0000
,
0200
0000
0000
0310
0001
0010
0001
1000
0020
0000
0000
0100
0000
0000
0130
0000
,
0001
0000
0001
0000
1000
0000
1000
0000
0100
0000
0100
0000
1000
0000
1000
0010
,
0100
0000
0000
0000
0000
0000
0000
0000
0001
0010
0100
1000
0001
0010
0001
0010
,
0100
0000
0000
0100
0000
0000
0100
0000
1001
0000
0000
0000
0101
0000
0000
0000
,
0001
0000
0000
0001
0100
0000
1000
0000
0100
0000
0010
0000
1000
0000
0001
0000
,
0011
0000
0000
0000
0010
0000
1001
0000
0000
0000
1000
0000
0010
0100
0010
0100
,
0001
0000
0000
0001
1000
0000
0100
0000
0001
0000
0100
0000
0010
0000
0001
0000
,
1001
0000
0000
0000
1000
0000
0110
0000
0000
0000
0001
0000
1000
0100
1000
0100
,
0010
0000
0000
0001
0000
0000
0201
0000
0000
0000
1300
0000
0100
0000
0001
0000
,
1000
0000
0000
1000
0000
0000
0001
0000
0010
0000
1000
0000
0010
0000
0001
0000
,
1000
0000
0000
0010
0000
0000
0210
0000
0000
0000
0301
0000
1000
0100
0010
0001
,
0100
0101
1010
1100
,
0011
0000
0000
1001
0000
0000
2001
0000
0000
0000
3010
0100
0001
0000
0000
0000
,
0101
0000
0000
1001
0000
0000
2001
0000
0000
0000
3100
0010
0001
0000
0000
0000
,
1000
0000
0010
0001
0000
0010
0100
0000
0001
0000
0010
1000
0000
0010
0100
0000
,
1000
0000
0001
0100
0001
0100
0010
0000
1000
0100
1000
0100
0001
0000
0000
0000
,
0100
0010
0100
0010
0001
1000
0001
0100
0010
0000
0000
1000
0001
0000
1000
0010
,
0100
0000
0010
0100
0001
0000
1000
0100
0010
0000
0001
1000
0010
0000
0100
0010
,
1000
0000
0001
0010
0100
0000
0010
0001
0200
0000
0000
0310
0100
0010
0000
1000
,
0001
0000
0000
0001
1000
0000
0100
0010
0100
0000
0000
0100
1000
0000
0001
0100
,
0010
0100
0001
1000
0100
0010
0001
1000
0010
0100
0010
0000
0100
1000
0000
0100
,
0001
0000
0000
0001
1000
0000
0100
0010
0002
0000
0000
2003
0000
0000
3010
0000
,
0210
0000
0000
0301
1000
0000
0100
0010
0001
0000
0100
1000
0000
0100
0010
0000
,
1000
0000
0001
0010
0001
0000
1000
0010
0001
0000
0010
0100
0001
1000
0000
0100
,
0010
0001
0000
1000
0000
0010
0000
0002
0000
0000
1003
0000
0100
0010
0100
0010
,
1000
0000
0000
1001
0000
0000
0011
0000
0000
0000
0000
0000
MMMM
0000
0000
0000
,
1000
0000
0100
0000
0001
0000
0100
0000
0010
0000
0001
0000
1000
0010
0000
0000
,
0100
0000
0000
0101
0000
0000
1001
0000
0000
0000
0000
0000
MMMM
0000
0000
0000
,
0001
0000
0100
0000
0100
0000
1000
0000
0100
0000
0001
0000
1000
0001
1000
0001
,
0010
0000
0000
0010
0100
0000
1000
0000
0001
0000
0100
0010
1000
0000
0001
0000
,
0010
0000
0100
0010
0100
0000
0001
0000
0100
0000
0010
0001
1000
0010
0100
0001
,
1000
0000
0001
0010
0100
0000
0010
0000
0001
0000
1000
0010
1000
0010
0100
0001
,
1000
0000
0000
0000
1100
0000
0000
0000
0011
0000
0000
0000
0001
1000
0100
0010
,
0001
0000
1000
0010
0000
1000
0001
0000
0010
0000
0100
0000
0001
0000
0100
0000
,
0120
0000
0000
0000
0031
0000
1000
0000
1000
0000
0010
0000
0001
0010
0000
0000
,
0100
0000
0001
1000
0000
0001
0010
0000
0100
0000
1000
0000
0001
0000
0100
0000
,
0101
0000
0000
0000
0010
0000
1001
0000
0000
0000
1000
0000
0100
0010
0100
0010
,
0001
0000
0000
1000
0010
0000
0001
0000
0010
0000
0100
0000
0001
0000
1000
0000
,
0100
0000
0010
0001
0000
0001
1000
0000
0010
0100
0001
1000
0001
0000
0010
0100
,
1000
0000
0000
1000
0001
0000
0010
0000
0001
0000
0100
0000
1000
0000
0100
0000
,
0010
1010
1100
0011
,
1001
0000
0000
0110
0000
0000
0201
0000
0000
0000
0301
0100
0010
0000
0000
0000
,
1001
0000
0000
0110
0000
0000
1200
0000
0000
0000
1300
0100
0010
0000
0000
0000
,
0011
0000
0000
0101
0000
0000
2010
0000
0000
0000
3001
0010
0100
0000
0001
0100
,
1000
0000
0000
1010
0000
0000
0101
0000
0000
0000
1000
0000
0001
0000
0000
0000
,
0011
0000
0000
1100
0000
0000
1002
0000
0000
0000
0103
0010
1000
0000
0000
0000
,
1100
0000
0000
0011
0000
0000
1002
0000
0000
0000
1003
0010
0100
0000
0000
0000
,
0001
0000
1000
0100
0000
0001
0100
0000
1000
0000
0001
0100
0000
1000
0100
0000
,
0010
0000
1000
0100
0010
0001
1000
0000
0001
0100
0010
1000
0001
0000
0000
0000
,
1000
0000
0100
0010
0001
1000
0001
1000
0010
0000
0000
0100
0000
0000
1000
0100
,
0002
0000
0000
0000
0000
0000
0000
0003
;
