#TITLE:Xroniér;
#SUBTITLE:;
#ARTIST:かめりあ as "fluX Xroisé";
#TITLETRANSLIT:;
#SUBTITLETRANSLIT:;
#ARTISTTRANSLIT:Camellia as "fluX Xroisé";
#GENRE:;
#CREDIT:;
#BANNER:Xronier.png;
#BACKGROUND:Xronier-bg.png;
#LYRICSPATH:;
#CDTITLE:cdtitle.png;
#MUSIC:Xronier.ogg;
#OFFSET:-0.575000;
#SAMPLESTART:73.781998;
#SAMPLELENGTH:22.563999;
#SELECTABLE:YES;
#BPMS:0.000000=234.000000
;
#STOPS:
;
#BGCHANGES:;
#KEYSOUNDS:;
#ATTACKS:;

//---------------dance-single - MEGAtive----------------
#NOTES:
     dance-single:
     :
     Beginner:
     9:
     0.283904,0.479297,0.148075,0.755964,0.000000,255.000000,236.000000,19.000000,97.000000,0.000000,0.000000,0.283904,0.479297,0.148075,0.755964,0.000000,255.000000,236.000000,19.000000,97.000000,0.000000,0.000000:
0000
0000
0000
0000
,
0000
0000
0000
0000
,
0000
0000
0000
0000
,
0000
0000
0000
0000
,
0000
0000
0000
0000
,
0000
0000
0000
0000
,
2002
3003
0000
0000
,
0220
0330
0000
0000
,
2001
0000
3020
0000
,
0230
0000
0302
0000
,
2003
0000
0000
0000
,
3000
0000
0000
0000
,
0001
0010
0001
0000
,
1000
0010
1000
0000
,
0001
0010
0100
1000
,
0001
0100
0001
0000
,
1000
0010
1000
0000
,
0001
0010
0001
0000
,
2000
0000
3200
0000
,
0320
0000
0031
0000
,
1000
0010
0100
0002
,
0000
1003
0000
0100
0000
0020
0000
0000
,
0000
0031
0000
0100
0000
0020
0000
0000
,
0000
1030
0000
2000
0000
0000
0000
0000
,
3001
0000
0000
0000
0000
0110
0000
0000
,
1002
0000
2003
0000
,
3020
0000
0230
0000
,
0301
0000
0000
1000
,
0002
0000
0000
0000
,
0000
0000
0000
0000
,
0023
0000
0000
0000
,
0000
0000
0000
0000
,
0230
0000
0000
0000
,
0000
0000
0000
0000
,
1300
0000
0000
1000
0000
0000
0001
0000
,
0000
0001
0000
0000
0200
0000
0000
0000
,
0310
1000
0001
0000
,
0010
0001
1000
0000
,
0100
0100
1000
0000
,
0001
0001
0100
0000
,
0020
0000
1030
0000
,
0200
0000
0310
0000
,
1001
0000
1001
0000
,
0110
0000
0110
0000
,
2002
0000
0000
0000
,
0000
0000
0000
0000
,
0000
0000
0000
0000
,
3003
0000
0000
0000
,
2000
0000
3000
0002
0000
0003
0200
0000
,
0000
0320
0000
0030
,
2000
0000
3000
0002
0000
0003
0020
0000
,
0000
0230
0000
0300
,
2000
0000
3000
0002
0000
0003
0200
0000
,
0000
0000
0320
0000
0000
0000
0030
2000
,
0000
0000
0000
3002
0000
0000
0000
0023
,
0000
0000
0200
0000
,
0330
0000
0000
0000
,
0000
0000
0000
2000
0000
0000
0010
0000
,
3010
0000
0000
0000
0000
0000
0000
0100
,
0000
0100
0000
0002
0000
0003
2000
0000
,
3002
0000
0010
0000
,
2003
0000
0010
0000
,
3002
0000
0203
0000
,
0320
0000
2030
0000
,
3001
0000
0000
0000
,
0000
0000
0000
0000
,
0000
0000
0000
0000
,
0000
0000
0000
0000
,
0000
0000
0000
0000
,
0000
0000
0000
0000
,
0000
0000
0000
0000
,
1001
0000
0000
0000
,
1000
0100
0010
0001
,
0200
0000
0320
0000
,
1030
0010
0100
0001
,
0020
0000
0230
0000
,
0310
0001
1000
0001
,
0200
0000
0320
0000
,
1030
1000
0001
0001
,
0000
0220
0000
0330
1000
0000
1000
0000
,
0001
0100
0010
1000
,
0200
0000
0000
0000
0300
0000
0000
1001
,
0000
0001
0010
0100
,
2000
0000
0000
0000
3000
0000
0000
1001
,
0000
0001
1000
0001
,
0100
0001
1000
0100
,
0010
0001
1000
0001
,
0200
0000
0000
0000
,
0310
0010
1000
1000
,
0001
0001
0010
0010
,
0100
0000
0000
0110
0000
0000
1001
0000
,
2000
0000
3020
0000
,
0230
0000
0000
0000
,
0000
0000
0000
0300
,
0001
0010
0100
1000
,
0001
1000
0010
0100
,
0002
0000
0203
0000
,
0320
0000
2030
0000
,
3000
0001
1000
0100
,
0010
0001
1000
0001
,
0200
0000
0320
0000
,
0230
0000
0300
0000
,
0001
0100
0010
1000
,
0001
1000
0100
0010
,
0001
1000
0001
0100
,
0010
1000
0001
1000
,
0100
0000
0000
0000
0000
0110
0000
0000
,
2001
0000
3020
0000
,
2030
0000
3200
0000
,
0320
0000
0000
0030
,
0002
0000
0003
2000
0000
3000
0020
0000
,
0000
0230
0000
0300
,
0002
0000
0003
2000
0000
3000
0200
0000
,
0000
0320
0000
0030
,
0002
0000
0003
2000
0000
3000
0020
0000
,
0000
0000
0230
0000
0000
0000
0300
0002
,
0000
0000
0000
2003
0000
0000
0000
3200
,
0000
0000
0000
0020
0000
0000
0000
0000
,
0330
0000
0000
0000
,
0000
0000
0000
0000
,
0000
0000
0000
0000
,
2002
0000
0000
0000
,
0000
0000
0000
0000
,
3003
0000
0000
0000
;

//---------------dance-single - MEGAtive----------------
#NOTES:
     dance-single:
     :
     Easy:
     14:
     0.590075,0.819773,0.148075,0.748170,0.179249,530.000000,511.000000,19.000000,96.000000,0.000000,0.000000,0.590075,0.819773,0.148075,0.748170,0.179249,530.000000,511.000000,19.000000,96.000000,0.000000,0.000000:
0000
0000
0000
0000
,
0000
0000
0000
0000
,
0000
0000
0000
0000
,
0000
0000
0000
0000
,
0000
0000
0000
0000
,
0000
0000
0000
0000
,
0201
0000
0000
0000
0000
0000
0301
0000
1000
0000
0000
0100
0000
0000
1000
0000
,
0002
0000
0000
0000
0000
0000
0103
0000
0010
0000
0000
2000
0000
0000
0000
0000
,
3001
0000
0000
0010
0000
0000
0100
0000
1000
0000
0000
0001
0000
0000
0100
0000
,
0010
0000
0000
1000
0000
0000
0001
0000
0010
0000
0000
0000
0100
0000
0010
0000
,
0002
0000
0000
0000
,
0000
0000
0000
1003
,
1000
0000
0010
0100
0010
0100
0001
0000
,
1000
0100
0001
0000
0100
0000
0020
0000
,
0031
0000
0100
0010
0100
0010
1000
0000
,
1010
0000
0001
0000
0022
0000
0033
1002
,
0000
0000
0013
0100
0010
0100
1000
0000
,
0001
0100
1000
0000
0100
0000
0020
0000
,
2030
3002
2003
3200
,
0320
0032
2000
3003
,
0001
0000
0100
0010
1000
0000
0100
0020
,
0000
0130
1000
0001
0000
1000
0010
0200
,
0000
0310
1000
0001
0000
1000
0100
0020
,
0000
0000
0031
0000
0000
0000
1002
0000
0000
0000
0100
0000
0000
0103
0000
0000
,
0020
0000
0000
0000
0000
0000
0000
0000
0000
0000
1030
0000
0000
0001
0000
0000
,
0020
0000
0230
2300
,
3002
0000
0000
0000
0000
0203
0000
0000
0000
0320
0000
0000
,
2030
0000
0000
3001
,
1000
0100
0010
0002
,
0000
0000
0000
0103
,
0010
1000
0001
0020
,
0000
0000
0130
0010
,
0001
1000
0001
0200
,
0000
0000
0310
0100
,
0001
1000
0000
0100
0010
0000
0001
1000
,
0000
0010
0100
0000
0002
0000
0000
0000
,
1003
0010
0100
0000
1000
0000
0100
0010
,
0100
0000
0001
0000
0001
0000
1000
0100
,
0020
0100
0001
0100
,
0032
1000
0100
1000
,
0013
0000
0100
0000
1000
0000
0001
0000
0100
0000
0000
0100
0000
0000
0100
0000
,
0010
0000
1000
0000
0001
0000
1000
0000
0100
0000
0000
0100
0000
0000
0100
0000
,
0010
0000
0000
0001
0000
0000
1000
0000
0010
0000
0000
0001
0000
0000
0010
0000
,
0200
0000
0302
0000
,
2003
0000
0000
0000
,
0000
0000
0000
0000
,
0000
0000
0000
0000
,
3000
0000
0000
0000
,
0001
0000
0010
0000
0000
0000
1000
0000
0010
0000
0000
0000
0001
0000
0000
0001
,
0000
0010
0000
0001
0000
0000
2000
0000
0000
0020
0000
0000
3030
0000
0000
0000
,
1000
0000
0010
0000
0000
0000
0001
0000
0010
0000
0000
0000
1000
0000
0000
0010
,
0000
1000
0000
0000
0002
0000
0000
0000
0020
0000
0000
0000
0030
0000
0000
0000
,
1003
0000
0100
0000
0000
0000
0001
0000
0100
0000
0000
0000
1000
0000
0000
1000
,
0000
0100
0000
1000
0000
0000
0002
0000
0000
0200
0000
0000
0303
0000
0001
0000
,
0000
1000
0000
0000
0100
0000
0010
0000
0000
0001
0000
0000
0100
0000
0010
0000
,
1000
0002
0000
0000
0000
0020
0000
0000
,
0033
0000
0000
0000
,
0000
0000
0000
0011
0000
0000
1000
0000
,
1001
0000
0000
0000
0000
0000
0000
1010
,
0000
1010
0000
1000
0100
0010
0001
0100
,
0020
0000
0000
0000
0000
0000
1030
0000
0001
0000
0000
0010
0000
0000
0001
0000
,
1000
0000
0010
0000
0000
0000
0100
0000
0001
0000
0000
1000
0000
0000
0001
0000
,
0010
0000
0000
0100
0000
0000
0010
0000
0001
0000
0000
1000
0000
0000
0010
0000
,
0100
0000
0000
0001
0000
0000
1000
0000
0100
0000
0000
0000
0010
0000
0001
0000
,
0200
0000
0320
0000
,
2030
0000
3002
0000
,
0023
0000
0230
0000
,
0320
0000
0032
0000
,
2003
0000
3020
0000
,
0230
0000
0302
0000
,
2003
0000
3200
0000
,
0310
0000
0000
1001
,
1000
0100
0010
0000
0001
0100
0010
0000
,
1000
1010
0001
0011
,
0010
0100
1000
0000
0001
0100
0010
0000
,
1000
0000
1010
0000
0001
0010
0000
0001
,
1000
0000
0010
0000
1000
0001
0100
0001
,
1000
0000
0100
0010
0100
0000
1000
0000
,
0001
0100
0010
0100
2000
0000
0000
0000
,
3000
0100
0020
0000
1030
0001
1000
0001
,
0010
0100
1000
0000
0001
1000
0001
0200
,
1000
0000
0010
0000
0001
0301
0000
1001
,
0000
1000
0010
0100
0001
0000
1000
0200
,
0001
0000
0010
0000
1000
1300
0000
2100
,
0000
3001
0100
0000
1000
0100
0000
0001
,
0100
0000
1000
0100
0010
0000
0110
0000
,
1000
0010
1000
0001
1000
0000
0100
0000
,
0010
0001
0000
0101
0000
2010
0000
3010
,
0100
0001
1000
0000
0100
0010
0100
0000
,
1000
0001
0100
0000
0010
1000
0001
0000
,
1000
0100
0000
0001
0100
0000
1000
0100
,
0010
0000
0000
0001
0000
0000
0100
0000
0010
0000
0000
0001
0000
0000
0010
0000
,
0200
0000
0000
0000
,
0000
0000
0000
0310
,
1000
0001
0100
0010
0100
0000
1000
0100
,
0010
0100
0001
1000
0200
0000
0010
0000
,
2300
3002
0203
0320
,
2030
0000
3002
0000
0013
0100
0010
0100
,
2000
0000
3001
0100
0010
1000
0100
0000
,
0001
0100
0010
0100
1000
0000
0002
0000
,
0103
0010
0100
0001
1000
0000
0001
0010
,
0100
0000
1000
0010
0200
0000
0000
0000
,
0310
1000
0001
1000
0100
1000
0001
1000
,
0010
1000
0001
1000
0100
1000
0001
0100
,
0010
1000
0001
0010
0001
1000
0001
0100
,
0001
1000
0001
0010
0001
0100
0010
1000
,
0002
0000
0000
0000
0000
0000
0000
0000
0000
0000
1003
0000
0000
0100
0000
0000
,
0020
0000
0032
0203
,
0320
0000
0000
0000
0000
2030
0000
0000
0000
3200
0000
0000
,
0320
0000
0000
0031
,
1000
0000
0010
0000
0000
0000
0001
0000
0010
0000
0000
0000
1000
0000
0000
1000
,
0000
0100
0000
0010
0000
0000
0002
0000
0000
2000
0000
0000
0003
0000
0000
0000
,
3001
0000
0100
0000
0000
0000
1000
0000
0100
0000
0000
0000
0001
0000
0000
0010
,
0000
0100
0000
0000
2000
0000
0000
0000
3020
0000
0000
0000
0130
0000
0001
0000
,
1000
0000
0100
0000
0000
0000
0001
0000
0100
0000
0000
0000
1000
0000
0000
1000
,
0000
0010
0000
0100
0000
0000
0002
0000
0000
2000
0000
0000
0003
0000
3001
0000
,
0000
0010
0000
0000
0100
0000
1000
0000
0000
0010
0000
0000
0100
0000
0000
0001
,
0000
1000
0200
0000
0000
0020
0000
0330
,
2002
0000
0000
0000
,
0000
0000
0000
0000
,
3003
0000
0000
0000
,
0001
0010
0001
1000
0001
0100
0010
1000
,
0001
1000
0100
1000
0001
0100
0010
1000
,
0002
0000
0000
0003
;

//---------------dance-single - MEGAtive----------------
#NOTES:
     dance-single:
     :
     Medium:
     16:
     0.774891,0.916217,0.296151,0.592302,0.339015,696.000000,658.000000,38.000000,76.000000,0.000000,0.000000,0.774891,0.916217,0.296151,0.592302,0.339015,696.000000,658.000000,38.000000,76.000000,0.000000,0.000000:
0000
0000
0000
0000
,
0000
0000
0000
0000
,
0000
0000
0000
0000
,
0000
0000
0000
0000
,
0000
0000
0000
0000
,
0000
0000
0000
0000
,
2001
0000
0000
0000
0000
0000
3010
0000
0010
0000
0000
0100
0000
0000
0001
0000
,
0101
0100
0000
0001
1000
0100
0010
0100
,
1000
0000
0000
0001
0000
0000
0100
0000
0101
0000
0000
0001
0000
0000
1000
0000
,
1100
0000
0000
0100
0000
0000
0010
0000
0001
0000
0100
0000
0010
0000
1000
0000
,
0200
0000
0000
0000
,
0000
0000
0000
1300
,
0001
0100
0010
1000
0001
1000
0100
0010
,
0001
0100
0010
0100
1000
0100
0002
0000
,
1003
0010
1000
0001
0010
0100
1000
0001
,
0100
1000
0100
0010
0100
0001
0000
1002
,
0000
0013
0100
1000
0001
0100
0010
1000
,
0001
0010
0100
0010
1000
0010
0002
0000
,
1003
0100
0010
2000
0000
3010
0001
1000
,
0001
0100
0001
1000
0100
1000
0002
0000
0000
0000
0000
0000
,
1003
0010
0100
0001
1000
0001
0010
0200
,
0000
0310
0001
1000
0001
0100
0010
2000
,
0000
3001
0100
0010
1000
0001
1000
0200
,
0000
0000
0310
0001
0000
0000
0001
2000
0000
0000
0010
0000
0000
3010
0000
0000
,
2001
0000
0000
0000
0000
0000
0000
0000
0000
0000
3100
0000
0000
0010
0000
0000
,
1002
0000
0000
0000
0000
0000
0103
0000
0010
1000
0000
0001
,
1000
0100
0000
0100
0000
0010
0000
0010
0001
0100
0000
0100
,
0020
0000
0000
0130
,
0002
1000
1000
0010
,
0010
0000
1000
0000
1003
0200
0010
0000
,
2300
0001
0001
0010
,
0010
0000
0000
0000
0001
0000
0000
0000
3001
0000
0000
1000
0000
0000
0100
0000
,
0020
0100
0100
0001
,
0001
0000
0100
0000
0130
1000
0001
1000
,
0010
0010
0000
0110
0000
0000
1010
0000
,
0000
1001
0000
0000
0012
0000
0000
0000
,
1003
0100
0010
0001
1000
0001
0100
0010
,
0100
0001
0010
0100
1000
0010
0100
0010
,
2000
0001
0100
0001
,
3020
0100
1000
0100
,
1030
0000
0001
0010
0001
0000
1000
0000
0020
0000
0000
0100
0000
0000
0130
0000
,
0001
0000
1000
0010
1000
0000
0001
0000
0020
0000
0000
0100
0000
0000
0130
0000
,
1000
0000
0000
0010
0000
0000
0100
0000
0101
0000
0000
0001
0000
0000
1000
0000
,
1200
0000
0000
1000
0000
0000
1000
0000
0000
1000
0000
0000
2300
0000
0000
0000
,
3002
0000
0000
0000
,
0000
0000
0000
0000
,
0000
0000
0000
0000
,
0003
0000
0000
0000
,
0001
0000
0010
0000
0010
0000
1000
0000
0010
0000
0010
0000
0100
0000
0000
0100
,
0000
1000
0000
0002
0000
0000
0203
0000
0000
0320
0000
0000
0030
0000
0000
0000
,
1000
0000
0010
0000
0010
0000
0001
0000
0010
0000
0010
0000
0100
0000
0000
0001
,
0000
1000
0000
0000
2200
0000
3300
0000
0022
0000
0033
0000
1002
0000
0000
0000
,
1003
0000
0100
0000
0100
0000
0001
0000
0100
0000
0100
0000
0010
0000
0000
0010
,
0000
0001
0000
2000
0000
0000
3020
0000
0000
0230
0000
0000
0300
0000
0001
0000
,
0000
0001
0000
0000
0101
0000
1000
0000
0000
1000
0000
0000
0100
0000
1000
0000
,
0010
0100
0001
0010
1000
0001
0100
1000
,
0002
0000
0000
0000
,
0000
0000
0000
0103
0000
0000
0101
0000
,
2002
0000
3003
0000
0000
0000
0000
1000
,
0000
0000
2100
0000
0000
0000
3001
0000
0100
0010
0100
0000
0001
0000
1000
0100
,
2000
0000
0000
0000
0000
0000
3010
0000
0010
0000
0000
0100
0000
0000
0001
0000
,
1001
0000
1000
0000
0000
0000
0100
0010
0100
0000
1000
0000
0001
0000
0100
0000
,
0010
0000
0000
1000
0000
0000
0001
0000
0101
0000
0000
0100
0000
0000
0001
0000
,
0011
0000
0000
0010
0000
0000
0100
0000
1000
0000
0010
0000
0100
0000
0001
0000
,
0020
0000
0000
0000
0000
0000
0000
0000
0000
0000
0000
0000
0000
0000
0000
0000
0000
0000
0000
0000
0000
0000
0000
0000
0000
0000
0000
0000
0000
0000
0000
0000
0000
0000
0000
0000
0000
0000
0000
0000
0000
0000
0000
0000
0000
0000
0000
0000
0000
0000
0000
0000
0000
0000
0000
0000
0000
0000
0000
0000
0000
0000
0000
0000
0000
0000
0000
0000
0000
0000
0000
0000
0000
0000
0000
0000
0000
0130
0000
0000
0000
0000
0000
0000
0000
0000
0000
0000
0000
0000
0000
0000
0000
0000
0000
0000
2000
0000
0000
0000
0000
0000
0000
0000
0000
0000
0000
0000
0000
0000
0000
0000
0000
0000
0000
0000
0000
0000
0000
0000
0000
0000
0000
0000
0000
0000
0000
0000
0000
0000
0000
0000
0000
0000
0000
0000
0000
0000
0000
0000
0000
0000
0000
0000
3002
0000
0000
0000
0000
0000
0000
0000
0000
0000
0000
0000
0000
0000
0000
0000
0000
0000
0000
0000
0000
0000
0000
0000
0000
0000
0000
0000
0000
0000
0000
0000
0000
0000
0000
0000
0000
0000
0000
0000
0000
0000
0000
0000
0000
0000
0000
0000
,
2003
0000
3020
0000
,
0230
0000
0000
0000
0000
0000
0000
0000
0000
0000
0000
0000
0000
0000
0000
0000
0000
0000
0000
0000
0000
0000
0000
0000
0000
0000
0000
0000
0000
0000
0000
0000
0000
0000
0000
0000
0000
0000
0000
0000
0000
0000
0000
0000
0000
0000
0000
0000
0000
0000
0000
0000
0000
0000
0000
0000
0000
0000
0000
0000
0000
0000
0000
0000
0000
0000
0000
0000
0000
0000
0000
0000
0000
0000
0000
0000
0000
0310
0000
0000
0000
0000
0000
0000
0000
0000
0000
0000
0000
0000
0000
0000
0000
0000
0000
0000
2000
0000
0000
0000
0000
0000
0000
0000
0000
0000
0000
0000
0000
0000
0000
0000
0000
0000
0000
0000
0000
0000
0000
0000
0000
0000
0000
0000
0000
0000
0000
0000
0000
0000
0000
0000
0000
0000
0000
0000
0000
0000
0000
0000
0000
0000
0000
0000
3002
0000
0000
0000
0000
0000
0000
0000
0000
0000
0000
0000
0000
0000
0000
0000
0000
0000
0000
0000
0000
0000
0000
0000
0000
0000
0000
0000
0000
0000
0000
0000
0000
0000
0000
0000
0000
0000
0000
0000
0000
0000
0000
0000
0000
0000
0000
0000
,
2003
0000
3100
0010
,
0002
0000
0203
0000
,
0320
0000
2030
0000
,
3200
0000
0320
0000
,
0031
0000
0000
0000
,
1000
0010
0100
1000
0100
0001
0010
0100
,
2000
0001
0010
0001
,
3100
0010
0001
0100
0010
0001
0010
1000
,
0002
0000
0010
0000
1003
0100
0000
0010
,
0001
0000
0000
0000
1001
0000
0000
0000
1000
0010
1000
0000
0001
0000
0010
0000
,
0200
0000
0000
0000
0310
0000
0001
0000
1000
0010
1000
0000
0001
0000
0010
0000
,
0100
0100
0010
0001
1000
1000
1000
1000
,
0000
0000
0001
0000
0001
0100
0001
0000
0100
0000
0010
0000
1000
0000
0001
0000
,
1000
0000
0100
0000
0010
0000
1000
0000
0010
0000
0001
0010
0001
0000
1000
0000
,
1000
0000
1010
0000
0001
0101
0000
2001
,
0000
3100
0100
0010
0001
1000
0001
0100
,
0010
0000
0101
0000
1000
1001
0000
0012
,
0000
0000
1003
0100
1000
0000
0001
0000
0010
0000
0010
0000
0100
0000
1000
0000
,
1000
0001
0100
0100
0010
1000
0001
1000
,
0100
0010
0001
0100
0010
0001
0010
1000
,
0001
0001
0000
0011
0000
2100
0000
3001
,
0010
0000
0001
0000
1000
0000
0001
0000
0100
0000
0010
0000
1000
0000
0001
1000
,
0001
1000
0100
1000
0001
1000
0010
0100
,
0001
0010
0010
1000
0010
0010
0100
1000
,
0001
0000
0000
0001
0000
0000
1000
0000
1010
0000
0000
0010
0000
0000
0100
0000
,
0102
0000
0000
0000
,
0000
0000
0000
1003
,
0001
0100
0010
1000
0100
0010
0001
1000
,
0001
0100
0010
0100
1000
0100
0010
1000
,
0001
0000
0010
0001
0000
1000
0001
0000
1000
0010
0000
0100
,
0001
1000
0100
0010
0001
0100
1000
0100
,
0020
0000
0130
0001
1000
0001
0010
0100
,
1000
0001
1000
0010
0100
0001
1000
0100
,
0010
0000
0001
0000
1000
0010
1000
0000
0001
0000
0010
0000
0100
1000
0100
0000
,
0010
0000
0001
1000
0000
0010
0200
0000
0000
0000
0000
0000
,
0301
0100
0010
1000
0100
0010
1000
0010
,
0100
1000
0001
0100
0010
0001
1000
0100
,
0010
1000
0001
0010
0100
0001
0100
0010
,
0001
1000
0010
0100
1000
0001
0010
0100
,
0002
0000
0000
0000
0000
0000
0000
0000
0003
0000
0011
0000
0000
0001
0000
0000
,
2001
0000
0000
0000
0000
0000
3010
0000
0100
0001
0000
1000
,
0100
0010
0000
0010
0000
0100
0000
0100
1000
0001
0000
0001
,
0200
0000
0000
0310
,
1000
0000
0010
0000
0010
0000
0001
0000
0010
0000
0010
0000
0100
0000
0000
0100
,
0000
0001
0000
2000
0000
0000
3200
0000
0000
0320
0000
0000
0030
0000
0000
0000
,
0001
0000
0010
0000
0010
0000
1000
0000
0010
0000
0010
0000
0100
0000
0000
0100
,
0000
1000
0000
0000
0001
0100
0001
0000
1000
0100
1000
0000
0001
0000
1000
0000
,
0010
0000
0100
0000
0100
0000
1000
0000
0100
0000
0100
0000
0001
0000
0000
0001
,
0000
1000
0000
0200
0000
0000
0310
0000
0001
0000
0100
0000
0020
0000
1030
0000
,
0000
1000
0000
0000
1100
0000
0001
0000
0000
0001
0000
0000
0101
0000
1000
0000
,
0000
1000
0000
0000
1000
0000
0100
0000
0010
0000
1000
0000
0001
0000
0100
0000
,
2000
0000
0000
0000
,
0000
0000
0000
0000
,
3000
0000
0000
0000
,
0001
0010
0100
1000
0010
0100
1000
0001
,
0010
1000
0100
0010
0001
0100
0010
0001
,
2000
0000
0000
3000
;

//---------------dance-single - MEGAtive----------------
#NOTES:
     dance-single:
     :
     Hard:
     18:
     1.025394,1.591324,0.483193,0.506574,1.028734,921.000000,859.000000,62.000000,65.000000,0.000000,0.000000,1.025394,1.591324,0.483193,0.506574,1.028734,921.000000,859.000000,62.000000,65.000000,0.000000,0.000000:
0000
0000
0000
0000
,
0000
0000
0000
0000
,
0000
0000
0000
0000
,
0000
0000
0000
0000
,
0000
0000
0000
0000
,
0000
0000
0000
0000
,
2100
0000
0000
0000
0000
0000
3001
0000
0001
0000
0000
0101
0000
0000
1000
0000
,
1000
0010
0100
0001
0001
1000
0100
0010
,
0001
0000
0000
0001
0000
0000
1000
0000
1010
0000
0000
0010
0000
0000
0100
0000
,
0101
0000
0000
0001
0000
0000
1000
0100
1000
0000
0001
1000
0001
1000
0010
0100
,
0002
0000
0000
0000
,
0000
0000
0000
0000
0000
1003
1001
0000
,
1000
0010
0100
0001
0010
0100
0001
0100
,
1000
0000
0001
0010
0001
0000
0001
1000
0001
0000
0001
0000
1000
0010
1000
0010
,
0100
0001
0010
0100
0001
0001
0100
0010
,
0001
1000
0010
0000
0100
0001
0010
0000
0100
1000
0002
0000
0000
0000
1003
0000
,
1000
0100
0010
0001
0100
0010
0001
0010
,
1000
0000
0010
0100
0010
0000
1000
0001
1000
0000
0100
0010
0100
0000
1000
0000
,
0001
0100
0010
0001
1000
0100
0010
1000
,
0001
0010
0100
0010
0100
1000
0002
0000
0000
0000
0000
0000
,
1003
0000
0001
0100
0001
0000
1000
0000
0001
0000
0100
0000
0010
0000
0002
0000
,
0000
0013
0100
0001
1000
0100
0010
2000
,
0000
3010
0100
1000
0001
0100
0010
0002
,
0000
0000
0013
0100
0010
0000
1000
0001
2000
0000
0000
0100
0000
0000
3100
0000
,
0012
0000
0000
0000
0000
0000
0000
0000
0000
0000
1003
0000
0000
0010
0000
0000
,
2010
0000
0000
0000
0000
0000
3010
0100
0001
0000
1000
0100
,
0010
0001
0000
0001
0000
1001
0000
1000
0010
0100
0000
0001
,
2000
0000
0000
0000
0000
3100
1100
0000
,
0001
0100
0010
0100
0020
0000
0032
0000
,
0000
0000
0000
0000
0000
0013
0100
0010
,
1000
0000
0000
0001
0000
0000
0020
0000
0000
0000
0000
0000
2030
0000
0000
0000
,
0000
0000
0000
0000
0000
0000
3010
0000
0100
0000
0000
0100
0000
0000
1000
0000
,
0010
0000
0000
0100
0000
0000
0001
0000
0020
0000
0000
0000
2030
0000
0000
0000
,
0000
0000
0000
0000
0000
0000
3001
0100
,
1000
1000
0000
0202
0303
0000
2002
3003
,
0000
2200
3300
0000
0022
0030
0000
0000
,
1003
0010
0100
0001
1000
0001
0010
0100
,
0001
0100
1000
0001
0100
0010
0001
0010
,
0110
1010
1001
0011
,
1100
1001
0101
1001
,
1000
0100
1000
0100
1000
0000
0001
0000
0101
0000
0000
0100
0000
0000
0100
0000
,
0001
0100
0001
0100
0001
0000
1000
0000
1100
0000
0000
0100
0000
0000
0100
0000
,
1001
0000
0000
0001
0000
0000
0100
0000
0110
0000
0000
0010
0000
0000
1000
0000
,
0002
0000
0000
0010
0000
0000
0010
0000
0000
0010
0000
0000
0013
0001
1000
0001
,
2000
0000
0000
0000
,
0000
0000
0000
0000
,
0000
0000
0000
0000
,
3000
0000
0000
0000
,
0001
0010
0001
0010
0001
0000
1000
0010
1000
0010
1000
0000
0001
0010
0000
0010
,
0000
0010
0000
0100
1000
0000
0001
1000
0000
0001
0100
0001
2000
0000
0000
0000
,
3100
0010
0100
0010
0100
0000
1000
0001
1000
0001
1000
0000
0010
0100
0000
0100
,
0000
0001
1000
0000
0100
0010
0001
0000
1000
0100
0010
0000
0002
0000
0000
0000
,
1003
0010
1000
0010
1000
0000
0001
0010
0001
0010
0001
0000
1000
0010
0000
0010
,
0000
0010
0000
0100
0001
0000
1000
0001
0000
1000
0100
1000
0002
0000
0103
0010
,
0000
0100
0010
0000
1010
0000
1000
0001
0000
1000
0001
0000
0011
0000
0010
0100
,
0000
0010
0100
1000
0001
0000
0100
0010
1000
0000
0001
0010
0100
0000
1000
0000
,
1002
0000
0000
0000
,
0000
0000
0000
0103
0000
0000
1010
0000
,
2002
0000
0000
0000
3003
0000
0000
0011
,
0000
0000
1001
0000
0000
0000
1000
0001
1000
0001
0100
0000
0010
1000
0010
1000
,
0002
0000
0000
0000
0000
0000
1003
0100
1000
0000
0000
1001
0000
0000
0001
0000
,
0100
0000
0010
0000
0010
0000
1000
0001
1000
0000
0100
0010
0000
0100
1000
0001
,
1000
0000
0000
0010
0000
0000
0100
0000
0101
0000
0000
0001
0000
0000
1000
0000
,
1100
0000
0000
0100
0000
0000
0010
0001
0010
0000
0100
1000
0001
1000
0001
0100
,
0020
0000
0000
0000
0000
0000
0000
0000
0000
0000
0000
0000
0000
0000
0000
0000
0000
0000
0000
0000
0000
0000
0000
0000
0000
0000
0000
0000
0000
0000
0000
0000
0000
0000
0000
0000
0000
0000
0000
0000
0000
0000
0000
0000
0000
0000
0000
0000
0000
0000
0000
0000
0000
0000
0000
0000
0000
0000
0000
0000
0000
0000
0000
0000
0000
0000
0000
0000
0000
0000
0000
0000
0000
0000
0000
0000
0000
0130
0000
0000
0000
0000
0000
0000
0000
0000
0000
0000
0000
0000
0000
0000
0000
0000
0000
0000
0001
0000
0000
0000
0000
0000
0000
0000
0000
0000
0000
0000
0000
0000
0000
0000
0000
0000
0000
0000
0000
0000
0000
0000
0000
0000
0000
0000
0000
0000
0000
0000
0000
0000
0000
0000
0000
0000
0000
0000
0000
0000
0000
0000
0000
0000
0000
0000
1000
0000
0000
0000
0000
0000
0000
0000
0000
0000
0000
0000
0000
0000
0000
0000
0000
0000
0000
0000
0000
0000
0000
0000
0000
0000
0000
0000
0000
0000
0000
0000
0000
0000
0000
0000
0000
0000
0000
0000
0000
0000
0000
0000
0000
0000
0000
0000
,
0200
0000
0320
0000
,
0230
0000
0000
0000
0000
0000
0000
0000
0000
0000
0000
0000
0000
0000
0000
0000
0000
0000
0000
0000
0000
0000
0000
0000
0000
0000
0000
0000
0000
0000
0000
0000
0000
0000
0000
0000
0000
0000
0000
0000
0000
0000
0000
0000
0000
0000
0000
0000
0000
0000
0000
0000
0000
0000
0000
0000
0000
0000
0000
0000
0000
0000
0000
0000
0000
0000
0000
0000
0000
0000
0000
0000
0000
0000
0000
0000
0000
1300
0000
0000
0000
0000
0000
0000
0000
0000
0000
0000
0000
0000
0000
0000
0000
0000
0000
0000
0002
0000
0000
0000
0000
0000
0000
0000
0000
0000
0000
0000
0000
0000
0000
0000
0000
0000
0000
0000
0000
0000
0000
0000
0000
0000
0000
0000
0000
0000
0000
0000
0000
0000
0000
0000
0000
0000
0000
0000
0000
0000
0000
0000
0000
0000
0000
0000
0203
0000
0000
0000
0000
0000
0000
0000
0000
0000
0000
0000
0000
0000
0000
0000
0000
0000
0000
0000
0000
0000
0000
0000
0000
0000
0000
0000
0000
0000
0000
0000
0000
0000
0000
0000
0000
0000
0000
0000
0000
0000
0000
0000
0000
0000
0000
0000
,
0320
0000
2030
0001
,
3200
0000
0000
0000
0000
0000
0000
0000
0000
0000
0000
0000
0000
0000
0000
0000
0000
0000
0000
0000
0000
0000
0000
0000
0000
0000
0000
0000
0000
0000
0000
0000
0000
0000
0000
0000
0000
0000
0000
0000
0000
0000
0000
0000
0000
0000
0000
0000
0000
0000
0000
0000
0000
0000
0000
0000
0000
0000
0000
0000
0000
0000
0000
0000
0000
0000
0000
0000
0000
0000
0000
0000
0000
0000
0000
0000
0000
0310
0000
0000
0000
0000
0000
0000
0000
0000
0000
0000
0000
0000
0000
0000
0000
0000
0000
0000
0002
0000
0000
0000
0000
0000
0000
0000
0000
0000
0000
0000
0000
0000
0000
0000
0000
0000
0000
0000
0000
0000
0000
0000
0000
0000
0000
0000
0000
0000
0000
0000
0000
0000
0000
0000
0000
0000
0000
0000
0000
0000
0000
0000
0000
0000
0000
0000
0000
0000
0000
0000
0000
0000
0000
0000
0000
0000
0000
0000
0000
0000
0000
0000
0000
0000
0000
0000
0000
0000
0000
0000
0000
0000
0000
0000
0000
0000
0000
0000
0000
0000
0000
0000
0000
0000
0000
0000
0000
0000
0000
0000
0000
0000
0000
0000
,
0203
0000
0320
0000
,
2030
0000
0002
0000
,
3003
0000
0000
0011
,
1000
0000
0100
0010
0100
0000
0001
0000
0100
0010
0001
0000
1000
0000
0010
0000
,
1010
0000
0000
1000
0001
0000
0000
0001
0010
0000
0100
0000
1000
0000
0001
0000
,
1000
0000
0010
0100
0010
0000
0001
0000
0010
0100
0001
0000
1000
0000
0100
0000
,
1100
0000
0000
1000
0001
0000
0000
0001
0100
0000
0200
0000
0000
0000
0310
0000
,
1010
0000
1000
0000
0001
0000
0010
0000
0001
1000
0010
0000
0100
0000
0010
1000
,
0002
0000
0013
0100
1000
0010
0100
0001
,
1001
0000
1000
0000
0100
0000
0010
0000
0001
0010
0001
1000
0001
1000
0010
0000
,
0000
0100
0102
0000
1003
0010
0100
0001
,
1000
0000
0100
0010
0100
0000
0001
0000
0100
0010
0001
0000
1000
0100
0010
0001
,
1000
0000
1010
0000
0101
0101
0000
2010
,
0000
0000
3001
0010
0001
0000
1000
0000
0100
0010
0100
0000
1000
0001
1000
0001
,
0100
0000
0110
0000
1001
1001
0000
0012
,
0000
0000
0103
0010
0100
0000
0001
0000
0010
0000
1000
0000
0010
0000
0100
0000
,
1000
0000
0010
0000
0100
0000
1000
0000
0100
0000
0001
0000
1000
0001
1000
0001
,
0010
0000
0100
1000
0100
0000
0010
0000
0001
0100
0001
0000
0010
0000
0100
0000
,
1100
1100
0000
1001
0000
2010
0000
3001
,
0001
0000
0010
0100
0010
0000
0001
0000
1000
0010
1000
0000
0001
0000
0010
0100
,
1000
0000
0001
0000
0001
0000
1000
0010
0100
0000
0001
1000
0000
0001
0010
0100
,
1000
0000
0001
0100
0010
0000
0001
0000
0010
0100
0010
0000
0100
0001
0100
0001
,
1000
0000
0000
1010
0000
0000
0001
0000
0011
0000
0000
1000
0000
0000
0001
0000
,
0021
0000
0000
0000
,
0100
0000
0100
0000
0130
0010
0001
0000
,
1000
0000
0001
0010
0001
0000
1000
0010
1000
0010
0100
0000
0001
0000
0001
0000
,
1000
0100
0010
0001
0100
0010
0001
1000
,
0100
0010
0100
0010
0000
1000
0001
0000
0001
0000
1000
0100
,
0010
0000
0000
0100
1000
0000
0001
0000
1000
0000
0010
0100
0010
0000
1000
0000
,
0002
0000
0000
0000
1003
0000
0100
0010
0100
0000
1000
0000
0001
0000
1000
0000
,
0010
0000
0100
0000
0001
0000
1000
0100
1000
0000
0001
0000
0100
0000
0010
0000
,
0001
1000
0100
0010
1000
1000
0001
0001
,
0011
0000
0001
0100
0010
1000
0002
0000
0000
0000
0000
0000
,
1003
0010
1000
0010
1000
0010
1000
0010
1000
0010
1000
0010
1000
0010
1000
0010
,
0100
0001
0100
0001
0100
0001
0100
0001
0100
0001
0100
0001
0100
0001
0100
0001
,
1000
0100
1000
0100
1000
0100
1000
0100
1000
0100
1000
0100
1000
0100
1000
0100
,
0010
0001
0010
0001
0010
0001
0010
0001
0010
0001
0010
0001
0010
0001
0010
0001
,
2000
0000
0000
0000
0000
0000
0000
0000
0000
0000
3010
0000
0000
1010
0000
0000
,
1002
0000
0000
0000
0000
0000
0013
0100
0010
1000
0001
0100
,
0010
0001
0000
0011
0000
1000
0000
1000
0010
0100
0000
0001
,
2000
0000
0000
0000
,
3001
0100
0001
0100
0010
0000
1000
0100
1000
0100
0010
0000
0001
0100
0000
0100
,
0000
0100
0000
0010
1000
0000
0001
1000
0000
0001
0010
0100
2000
0000
0000
0000
,
3100
0010
0100
0010
0001
0000
1000
0001
1000
0001
0100
0000
0010
0100
0000
0100
,
0000
0001
1000
0000
0100
0010
0001
0000
0010
0100
1000
0000
0002
0000
0000
0000
,
1003
0010
1000
0010
0100
0000
0001
0010
0001
0010
0100
0000
1000
0010
0000
0010
,
0000
0010
0000
0100
0001
0000
1000
0000
0100
0010
0100
0010
0100
0000
1000
0001
,
0000
1000
0001
0000
0101
0000
0100
0010
0000
0100
0010
0000
1010
0000
1000
0001
,
0000
1000
0001
0010
0100
1000
0001
0000
1000
0010
0100
0001
1000
0000
0100
0000
,
0020
0000
0000
0000
,
0000
0000
0000
0000
,
0032
0000
0000
0000
,
1003
0001
1000
0001
1000
0001
1000
0001
1000
0001
1000
0001
1000
0001
1000
0001
,
1000
0001
1000
0001
1000
0001
1000
0001
1000
0001
1000
0001
1000
0001
1000
0001
,
2000
0000
0000
3000
;

//---------------dance-single - MEGAtive----------------
#NOTES:
     dance-single:
     :
     Challenge:
     19:
     1.221344,1.591324,0.755964,0.490987,1.414510,1097.000000,1000.000000,97.000000,63.000000,12.000000,0.000000,1.221344,1.591324,0.755964,0.490987,1.414510,1097.000000,1000.000000,97.000000,63.000000,12.000000,0.000000:
0000
0000
0000
0000
,
0000
0000
0000
0000
,
0000
0000
0000
0000
,
0000
0000
0000
0000
,
0000
0000
0000
0000
,
0000
0000
0000
0000
,
2100
0000
0000
0000
0000
0000
3001
0100
0010
0000
0000
0110
0000
0000
1000
0000
,
1001
0000
0001
0000
0010
0000
0100
1000
0100
0000
0010
0001
1000
0001
1000
0010
,
0100
0000
0000
0110
0000
0000
0001
0000
0101
0000
0000
1000
0000
0000
0100
0000
,
1100
0000
0000
1000
0000
0000
0001
0100
0010
0000
0100
0001
0010
0100
1000
0001
,
0200
0000
0000
0000
,
0010
0000
0010
0000
0310
0100
0001
0000
,
1000
0000
0001
0010
0001
0000
0100
0010
1000
0000
0001
0000
0101
0000
0100
0000
,
0001
0000
1000
0100
1000
0000
0100
0010
0001
0000
0011
0000
1000
0100
1000
0001
,
0100
0000
0010
1000
0010
0000
0100
0001
0010
0000
0010
0000
0110
0000
0100
0000
,
0010
0001
1000
0001
0100
0010
0100
0001
1000
0001
0010
0200
0000
0000
0010
0000
,
0310
0000
0100
1000
0100
0000
0010
0001
0100
0000
0100
0000
1001
0000
0001
0000
,
1000
0000
0001
0010
0001
0000
1000
0010
0100
0000
0110
0000
0010
1000
0001
1000
,
0100
0010
0100
0010
0001
1000
0010
0000
0100
0001
1000
0000
0100
0010
0001
0000
,
1000
0100
1000
0001
0100
0010
0002
0000
0000
0000
0000
0000
,
0013
0000
0100
0010
0100
0000
0001
1000
0100
0000
0010
0000
0010
0000
2000
0000
,
0000
0000
3010
0100
0010
0000
0100
1000
0001
0000
1000
0010
0100
0000
2000
0000
,
0000
0000
3100
0000
0010
0100
0010
0100
0001
0000
0010
0000
0010
0000
2000
0000
,
0000
0000
3010
0001
0010
0000
0100
1000
0001
0000
0100
0010
0000
1000
0001
0000
,
2100
0000
0000
0000
0000
0000
0000
0000
0000
0000
3100
0000
0000
0011
0000
0000
,
1002
0000
0000
0000
0000
0000
0000
0000
0000
0000
0000
0000
0103
0000
0000
0010
0000
0000
0100
0000
0000
0010
0000
0000
1000
0000
0000
0000
0001
0000
0000
0000
0010
0000
0000
0000
0100
0000
0000
0000
0001
0000
0000
0000
0100
0000
0000
0000
,
1000
0001
0000
0011
0000
2001
0000
3010
0100
0010
0000
0100
,
2000
0000
0000
0000
0000
3100
0002
0000
,
1003
0010
0100
0001
0020
0000
2030
0000
,
0000
0000
0000
0000
0000
3010
0100
0010
,
0001
0000
0000
0100
0000
0000
0020
0000
0000
0000
0000
0000
0032
0000
0000
0000
,
0000
0000
0000
0013
0100
0010
1000
0001
,
0020
0000
0000
0130
0000
0000
1000
0000
0200
0000
0000
0000
0302
0000
0000
0000
,
0000
0000
0000
0000
0000
0000
0000
0000
0000
0000
0000
0000
0103
0000
0010
0001
,
1000
1000
0000
0110
0010
0000
0101
0100
,
0000
0000
1001
0000
0001
0000
0000
0000
0010
0001
1000
0001
0100
0010
1000
0001
,
0010
0000
0010
0000
0100
1000
0100
0000
0010
0000
0010
0000
0001
0010
0001
1000
,
0010
0000
0010
0000
0100
0001
0100
0000
0010
0000
0010
0000
1000
0010
1000
0001
,
0010
0011
1001
1010
,
1000
0010
0100
0001
0010
0100
1000
0001
,
0001
0100
0010
0100
0010
1000
0001
0000
0011
0000
1000
0100
0000
0100
1000
0000
,
0001
0010
0100
0010
0100
1000
0001
0000
0101
0000
1000
0010
0000
0010
1000
0000
,
1001
0000
0000
0011
0000
0000
1100
0000
1100
0000
0000
1001
0000
0000
0101
0000
,
0201
0000
0000
0010
0000
0000
1000
0000
0000
0310
0000
0000
0100
0010
1000
0001
,
0020
0000
0000
0000
,
0000
0000
0000
0000
,
0000
0000
0000
0000
,
0030
0000
0000
0000
,
0001
0010
0001
0010
M100
0000
0001
0100
0001
0100
M010
0000
0001
0010
0000
0001
,
0000
1001
0000
1000
0100
0000
1000
0001
0000
1000
0010
0100
0002
0000
0000
0000
,
1003
0010
1000
0010
010M
0000
1000
0100
1000
0100
001M
0000
1000
0010
0000
1010
,
0000
1000
0001
0000
0010
0100
1000
0000
0001
0010
0100
0000
0010
0001
0010
0001
,
1000
0010
1000
0010
010M
0000
1000
0100
1000
0100
001M
0000
1000
0010
0000
1000
,
0000
1001
0000
0001
0100
0000
0001
1000
0000
0001
0010
0100
2000
0000
3100
0010
,
0100
0010
0001
0000
0011
0000
1000
0010
1000
0010
0100
0000
0110
0000
0010
0100
,
0010
1000
0001
0010
0100
1000
0001
0100
0010
0100
0001
1000
0001
0010
0100
0010
,
2000
0000
0000
0000
,
0000
0000
0000
3010
0000
0000
0110
0000
,
2002
0000
3003
0000
0000
0000
0000
0011
,
0000
0000
0110
0000
0000
0000
0010
0001
1000
0001
0100
0000
0010
1000
0001
1000
,
0200
0000
0000
0000
0000
0000
0310
0001
0100
0000
0000
1010
0000
0000
0001
0000
,
0101
0000
0100
0000
0001
0000
1000
0100
1000
0000
0001
0100
0010
0100
0010
1000
,
0001
0000
0000
0012
0000
0000
1003
0000
1100
0000
0000
1002
0000
0000
0103
0000
,
0110
0000
0000
2010
0000
0000
3010
0100
0010
1000
0001
1000
0100
0010
0001
1000
,
0002
0000
0000
0000
0000
0000
0000
0000
0000
0000
0000
0000
0000
0000
0000
0000
0000
0000
0000
0000
0000
0000
0000
0000
0000
0000
0000
0000
0000
0000
0000
0000
0000
0000
0000
0000
0000
0000
0000
0000
0000
0000
0000
0000
0000
0000
0000
0000
0000
0000
0000
0000
0000
0000
0000
0000
0000
0000
0000
0000
0000
0000
0000
0000
0000
0000
0000
0000
0000
0000
0000
0000
0000
0000
0000
0000
0000
0103
0000
0000
0000
0000
0000
0000
0000
0000
0000
0000
0000
0000
0000
0000
0000
0000
0000
0000
0020
0000
0000
0000
0000
0000
0000
0000
0000
0000
0000
0000
0000
0000
0000
0000
0000
0000
0000
0000
0000
0000
0000
0000
0000
0000
0000
0000
0000
0000
0000
0000
0000
0000
0000
0000
0000
0000
0000
0000
0000
0000
0000
0000
0000
0000
0000
0000
0230
0000
0000
0000
0000
0000
0000
0000
0000
0000
0000
0000
0000
0000
0000
0000
0000
0000
0000
0000
0000
0000
0000
0000
0000
0000
0000
0000
0000
0000
0000
0000
0000
0000
0000
0000
0000
0000
0000
0000
0000
0000
0000
0000
0000
0000
0000
0000
,
0320
0000
0032
0000
,
0023
0000
0000
0000
0000
0000
0000
0000
0000
0000
0000
0000
0000
0000
0000
0000
0000
0000
0000
0000
0000
0000
0000
0000
0000
0000
0000
0000
0000
0000
0000
0000
0000
0000
0000
0000
0000
0000
0000
0000
0000
0000
0000
0000
0000
0000
0000
0000
0000
0000
0000
0000
0000
0000
0000
0000
0000
0000
0000
0000
0000
0000
0000
0000
0000
0000
0000
0000
0000
0000
0000
0000
0000
0000
0000
0000
0000
1030
0000
0000
0000
0000
0000
0000
0000
0000
0000
0000
0000
0000
0000
0000
0000
0000
0000
0000
0001
0000
0000
0000
0000
0000
0000
0000
0000
0000
0000
0000
0000
0000
0000
0000
0000
0000
0000
0000
0000
0000
0000
0000
0000
0000
0000
0000
0000
0000
0000
0000
0000
0000
0000
0000
0000
0000
0000
0000
0000
0000
0000
0000
0000
0000
0000
0000
1000
0000
0000
0000
0000
0000
0000
0000
0000
0000
0000
0000
0000
0000
0000
0000
0000
0000
0000
0000
0000
0000
0000
0000
0000
0000
0000
0000
0000
0000
0000
0000
0000
0000
0000
0000
0000
0000
0000
0000
0000
0000
0000
0000
0000
0000
0000
0000
,
0200
0000
0302
0103
,
2000
0000
0000
0000
0000
0000
0000
0000
0000
0000
0000
0000
0000
0000
0000
0000
0000
0000
0000
0000
0000
0000
0000
0000
0000
0000
0000
0000
0000
0000
0000
0000
0000
0000
0000
0000
0000
0000
0000
0000
0000
0000
0000
0000
0000
0000
0000
0000
0000
0000
0000
0000
0000
0000
0000
0000
0000
0000
0000
0000
0000
0000
0000
0000
0000
0000
0000
0000
0000
0000
0000
0000
0000
0000
0000
0000
0000
3100
0000
0000
0000
0000
0000
0000
0000
0000
0000
0000
0000
0000
0000
0000
0000
0000
0000
0000
0020
0000
0000
0000
0000
0000
0000
0000
0000
0000
0000
0000
0000
0000
0000
0000
0000
0000
0000
0000
0000
0000
0000
0000
0000
0000
0000
0000
0000
0000
0000
0000
0000
0000
0000
0000
0000
0000
0000
0000
0000
0000
0000
0000
0000
0000
0000
0000
0000
0000
0000
0000
0000
0000
0000
0000
0000
0000
0000
0000
0000
0000
0000
0000
0000
0000
0000
0000
0000
0000
0000
0000
0000
0000
0000
0000
0000
0000
0000
0000
0000
0000
0000
0000
0000
0000
0000
0000
0000
0000
0000
0000
0000
0000
0000
0000
,
0032
0000
0203
0000
,
0320
0000
2030
0000
,
3001
0000
0001
0000
0001
1000
1001
0000
,
1000
0100
0010
0100
0001
0000
0100
0010
0100
0010
0001
0000
0010
0001
1000
0010
,
0200
0000
0000
0000
0000
0000
0000
0000
0000
0000
0000
0000
0010
0000
0000
0000
0000
0000
1000
0000
0000
0000
0000
0300
0200
0000
0000
0000
0000
0000
0000
0000
0000
0000
0000
0000
0010
0000
0000
0000
0000
0000
0001
0000
0000
0000
0000
0300
0200
0000
0000
0000
0000
0000
0000
0000
0000
0000
0000
0000
0310
0000
0000
0000
0000
0000
0000
0000
0000
0000
0000
0000
0100
0000
0000
0000
0000
0000
0000
0000
0000
0000
0000
0000
0101
0000
0000
0000
0000
0000
0000
0000
0000
0000
0000
0000
,
0001
0100
0010
0100
1000
0000
0100
0000
0010
0100
0001
0000
0100
0001
1000
0001
,
0020
0000
0000
0000
0000
0000
0000
0000
0000
0000
0000
0000
0100
0000
0000
0000
0000
0000
1000
0000
0000
0000
0000
0030
0020
0000
0000
0000
0000
0000
0000
0000
0000
0000
0000
0000
0100
0000
0000
0000
0000
0000
0001
0000
0000
0000
0000
0030
0020
0000
0000
0000
0000
0000
0000
0000
0000
0000
0000
0000
0130
0000
0000
0000
0000
0000
1000
0000
0000
0000
0000
0000
0000
0000
0000
0000
0000
0000
0000
0000
0000
0000
0000
0000
1100
0000
0000
0000
0000
0000
0000
0000
0000
0000
0000
0000
,
1002
0000
0103
0010
0100
0000
1000
0000
0100
0010
1000
0000
0001
0000
0010
0100
,
0010
0000
1000
0000
0010
0100
1000
0000
0001
1000
0001
0100
0010
0100
0001
0000
,
0101
0000
0100
0000
0001
0000
0010
0000
0100
1000
0100
0010
0001
1000
0001
0000
,
0000
0000
0101
0000
0001
1000
0010
0000
1010
0000
0001
0000
0011
0000
0010
0000
,
0001
0010
0100
0010
1000
0000
0010
0100
0010
0100
1000
0000
0100
0010
0100
1000
,
0001
0000
1010
0000
0101
0100
0010
1002
,
0000
0000
0013
0100
1000
0000
1000
0000
0010
0100
0010
0000
0100
0001
1000
0001
,
0010
0000
0000
0100
2000
0000
0000
0000
3001
0000
0101
0000
0000
0000
2010
0000
,
0000
0000
3001
0010
0100
0000
0001
0000
0100
0010
0100
0000
1000
0000
0001
0100
,
0010
0000
0001
0000
0010
0100
0010
0000
0100
0001
1000
0001
0010
0100
1000
0001
,
0100
0000
0100
0010
0100
0000
0001
0000
0001
1000
0001
0000
0010
0000
0100
0000
,
1100
1001
0000
0101
0000
1010
0000
0001
,
0101
0000
0001
1000
0001
0000
0011
0000
0001
1000
0001
0000
0101
0000
0100
0010
,
1000
0000
1010
0000
0010
0000
0010
1000
0001
0000
0011
0000
0010
0100
1000
0000
,
1100
0000
1000
0001
1000
0000
1010
0000
1000
0001
1000
0000
0001
0010
0100
1000
,
0001
0000
0000
0101
0000
0000
0110
0000
0110
0000
0000
1001
0000
0000
1100
0000
,
2100
0000
0000
0000
,
0100
0000
0100
0000
3100
0010
0001
0000
,
1001
0000
0001
0010
0001
0000
1000
0010
0100
0010
1000
0000
1001
0000
1000
0000
,
1100
0000
0100
0010
0100
1000
0001
0100
0010
1000
0100
0010
0001
1000
0001
0100
,
0010
1000
0001
0010
0000
1000
0020
0000
0031
1000
0001
0100
,
1000
0000
0100
0010
0100
0000
0010
1000
0001
0000
0010
0100
0010
0100
1000
0001
,
0200
0000
0000
0000
0301
0000
0001
0100
0001
0000
1000
0000
1100
0000
0001
0000
,
0011
0000
0010
0100
0010
0001
1000
0001
0100
0000
0110
0000
0010
1000
0001
1000
,
0100
0010
0001
1000
0100
0010
0001
0000
1000
0010
0100
0010
0100
0001
1000
0001
,
0010
0000
0100
0001
0100
0010
0002
0000
0000
0000
0000
0000
,
1003
0100
0010
0001
1000
0001
0100
0010
1000
0100
0010
0001
1000
0001
0100
0010
,
1000
0001
0010
0100
1000
0001
1000
0010
0100
0001
0010
0100
1000
0001
1000
0010
,
0100
0001
1000
0001
0010
0100
1000
0001
0100
0010
1000
0001
1000
0100
0010
0001
,
1000
0010
0100
0001
1000
0001
0010
0100
1000
0001
1000
0010
0100
0001
1000
0001
,
0010
0000
0000
0000
0001
0000
0000
0000
0000
0000
1100
0000
0000
0011
0000
0000
,
1001
0000
0000
0000
0000
0000
0000
0000
0000
0000
0000
0000
1000
0000
0000
0010
0000
0000
0100
0000
0000
0010
0000
0000
0100
0000
0000
0000
1000
0000
0000
0000
0100
0000
0000
0000
0010
0000
0000
0000
1000
0000
0000
0000
0001
0000
0000
0000
,
0010
0100
0000
0110
0000
1001
0000
1000
0010
0001
0000
0010
,
0200
0000
0300
1001
,
0001
0100
0001
0100
M010
0000
0001
0010
0001
0010
M100
0000
0001
0100
0000
0101
,
0000
0101
0000
0100
0010
0000
1000
0001
0000
0010
0100
1000
0002
0000
0000
0000
,
1003
0010
1000
0010
010M
0000
1000
0100
1000
0100
001M
0000
1000
0010
0000
0110
,
0000
0100
0001
0000
0001
0010
0100
0000
0010
0001
0100
0000
0010
1000
0010
1000
,
0001
0010
0001
0010
M100
0000
0001
0100
0001
0100
M010
0000
0001
0010
0000
0011
,
0000
0011
0000
0001
1000
0000
0010
0100
0010
1000
0001
1000
0100
0000
0010
0001
,
0010
0000
0011
0000
0011
0000
0001
1000
0000
0010
1000
0000
1010
0000
0010
0100
,
0000
0100
0001
1000
0100
0010
0100
0010
0001
0000
0100
0010
0100
0000
1000
0000
,
0200
0000
0000
0000
,
0000
0000
0000
0000
,
0302
0000
0000
0000
,
0013
0001
1000
0010
0100
0001
0010
0001
1000
0100
0010
0001
0100
0001
1000
0010
,
0100
0001
0010
0001
1000
0100
0010
0001
0100
0001
1000
0010
0100
0001
0010
0001
,
2000
0000
0000
3000
;

//---------------dance-single - MEGAtive 改----------------
#NOTES:
     dance-single:
     Rejected by Reality:
     Edit:
     20:
     1.278125,1.832433,1.091082,0.452020,1.445684,1148.000000,1008.000000,140.000000,58.000000,9.000000,0.000000,1.278125,1.832433,1.091082,0.452020,1.445684,1148.000000,1008.000000,140.000000,58.000000,9.000000,0.000000:
// measure 0
0000
0000
0000
0000
,  // measure 1
0000
0000
0000
0000
,  // measure 2
0000
0000
0000
0000
,  // measure 3
0000
0000
0000
0000
,  // measure 4
0000
0000
0000
0000
,  // measure 5
0000
0000
0000
0000
,  // measure 6
2100
0000
0000
0000
0000
0000
3001
0100
0010
0000
0000
0110
0000
0000
1000
0000
,  // measure 7
1001
0000
0001
0000
0010
0000
0100
1000
0100
0000
0010
0001
1000
0001
0100
0010
,  // measure 8
1000
0000
0000
1010
0000
0000
1001
0000
0011
0000
0000
1001
0000
0000
1100
0000
,  // measure 9
1001
0000
0000
1100
0000
0000
0001
0100
0010
0000
0100
0001
0010
0100
1000
0001
,  // measure 10
0200
0000
0000
0000
,  // measure 11
0010
0000
0010
0000
0310
0100
1001
0000
,  // measure 12
1001
0000
0001
0010
0100
0000
0010
0001
1000
0000
0010
0000
0110
0000
0100
0000
,  // measure 13
0001
0000
1000
0100
0010
0000
0100
1000
0001
0000
0011
0000
1000
0100
0010
0001
,  // measure 14
0100
0000
0010
1000
0100
0000
0010
0100
1000
0000
1100
0000
0001
0000
0101
0000
,  // measure 15
0100
0010
0100
0001
1000
0100
0010
0100
1000
0001
2000
0000
0000
3000
0102
0000
,  // measure 16
1003
0010
0100
0001
1000
0000
1100
0000
0010
0000
1001
0000
0001
0000
0101
0000
,  // measure 17
0100
0000
0010
1000
0100
0000
0010
0001
0100
0000
0110
0000
0010
1000
0001
1000
,  // measure 18
0100
0010
0100
0010
0001
1000
0100
0000
0010
0001
0100
1000
0100
0010
0100
0000
,  // measure 19
0001
0010
0001
1000
0010
0100
2000
0000
0000
0000
0000
0000
,  // measure 20
3100
0000
0100
0010
0100
0000
0001
0000
0101
0000
1000
0000
1001
0000
0002
0000
,  // measure 21
0000
0000
0013
1000
0010
0000
0100
1000
0001
0000
0100
0010
0001
0000
0020
0000
,  // measure 22
0000
0000
0130
0000
0010
1000
0001
0000
1000
0100
0010
0000
0001
0000
0012
0000
,  // measure 23
0000
0000
0013
0100
0010
0001
0100
1000
0100
0010
1000
0001
0000
1000
0100
0000
,  // measure 24
2001
0000
0000
0000
0000
0000
0000
0000
0000
0000
3100
0000
0000
0011
0000
0000
,  // measure 25
1002
0000
0000
0000
0000
0000
0000
0000
0000
0000
0000
0000
0103
0000
0000
0010
0000
0000
0100
0000
0000
0010
0000
0000
1000
0000
0000
0000
0001
0000
0000
0000
0010
0000
0000
0000
1000
0000
0000
0000
0001
0000
0000
0000
0100
0000
0000
0000
,  // measure 26
0010
0001
0000
0012
0000
1003
0000
0001
0100
0020
0000
0130
,  // measure 27
2000
0000
0000
0000
0000
3100
0010
0000
,  // measure 28
1000
0100
0010
0001
0200
0000
2300
0000
,  // measure 29
0000
0000
0000
0000
0000
3100
0010
0100
,  // measure 30
0001
0000
0000
0010
0000
0000
0100
0000
2000
0000
0000
0000
3020
0000
0000
0000
,  // measure 31
0000
0000
0000
0130
0001
1000
0100
0010
,  // measure 32
0002
0000
0000
1003
0000
0000
0010
0000
0200
0000
0000
0000
2300
0000
0000
0000
,  // measure 33
0000
0000
0000
0000
0000
0000
0000
0000
0000
0000
0000
0000
3100
0000
0010
1000
,  // measure 34
0001
0011
0000
0011
1001
0000
1010
1001
,  // measure 35
0000
0000
0110
0000
1001
0000
0000
0000
0010
1000
0001
1000
0100
0010
0001
1000
,  // measure 36
0100
0000
0100
0000
0010
0001
0010
0000
0100
0000
0100
0000
1000
0100
1000
0001
,  // measure 37
0100
0000
0100
0000
0010
1000
0010
0000
0100
0000
0100
0000
0001
0100
0001
1000
,  // measure 38
0100
0000
1100
0010
1001
0000
0101
0010
,  // measure 39
1001
1000
0010
1000
0100
0010
0001
1000
,  // measure 40
1000
0010
0100
0010
0001
0010
1000
0000
1100
0000
0001
0010
0000
0010
0001
0000
,  // measure 41
0001
0010
0100
0010
1000
0010
0001
0000
0011
0000
1000
0010
0000
0010
1000
0000
,  // measure 42
1010
0000
0000
0110
0000
0000
0101
0000
1001
0000
0000
1100
0000
0000
0110
0000
,  // measure 43
1200
0000
0000
0001
0000
0000
0001
0000
0000
0301
0000
0000
0001
0100
0010
0100
,  // measure 44
2000
0000
0000
0000
,  // measure 45
0000
0000
0000
0000
,  // measure 46
0000
0000
0000
0000
,  // measure 47
3000
0000
0000
0000
,  // measure 48
1000
0100
1000
0100
001M
0000
1000
0010
1000
0010
010M
0000
1000
0100
0000
0011
,  // measure 49
0000
1100
0000
0010
0010
0000
1000
1000
0000
0001
0010
0100
2000
0000
0000
0000
,  // measure 50
3001
0100
0001
0100
M010
0000
0001
0010
0001
0010
M100
0000
0001
0100
0000
0110
,  // measure 51
0000
0000
0000
0001
0000
0000
0001
0000
0000
0000
0000
0000
1000
0000
0100
0000
0010
0000
0001
0000
0000
0000
0000
0000
0100
0000
0010
0000
1000
0000
0001
0000
0000
0000
0000
0000
1000
0000
0000
0100
0000
0000
0010
0000
0000
0000
0000
0000
,  // measure 52
0001
0100
0001
0100
M010
0000
0001
0010
0001
0010
M100
0000
0001
0100
0000
0011
,  // measure 53
0000
1100
0000
0001
0001
0000
1000
1000
0000
0010
0100
0001
0020
0000
0130
0010
,  // measure 54
0001
0100
0010
0000
0110
0000
0100
0001
1000
0100
0010
0000
0110
0000
0010
0001
,  // measure 55
1000
0001
0100
0010
0100
1000
0001
0010
0100
0010
0100
0001
1000
0100
0010
0001
,  // measure 56
2000
0000
0000
0000
,  // measure 57
0000
0000
0000
3100
0000
0000
0110
0000
,  // measure 58
2002
0000
3003
0000
0000
0000
0000
0011
,  // measure 59
0000
0000
0110
0000
0000
0000
0100
1000
0001
1000
0010
0000
0100
0001
1000
0001
,  // measure 60
0020
0000
0000
0000
0000
0000
0130
1000
0010
0000
0000
0101
0000
0000
1001
0000
,  // measure 61
1100
0000
0100
0000
0010
0000
0001
1000
0001
0000
0100
0010
0100
0001
0010
0100
,  // measure 62
1000
0000
0000
1100
0000
0000
0011
0000
1001
0000
0000
0101
0000
0000
1010
0000
,  // measure 63
1001
0000
0000
0011
0000
0000
0100
1000
0001
1000
0010
0100
0001
0010
0100
1000
,  // measure 64
0001
0000
0000
0000
0000
0000
0000
0000
0000
0000
0000
0000
0000
0000
0000
0000
0000
0000
0000
0000
0000
0000
0000
0000
0000
0000
0000
0000
0000
0000
0000
0000
0000
0000
0000
0000
0000
0000
0000
0000
0000
0000
0000
0000
0000
0000
0000
0000
0000
0000
0000
0000
0000
0000
0000
0000
0000
0000
0000
0000
0000
0000
0000
0000
0000
0000
0000
0000
0000
0000
0000
0000
0000
0000
0000
0000
0000
0100
0000
0000
0000
0000
0000
0000
0000
0000
0000
0000
0000
0000
0000
0000
0000
0000
0000
0000
0010
0000
0000
0000
0000
0000
0000
0000
0000
0000
0000
0000
0000
0000
0000
0000
0000
0000
0000
0000
0000
0000
0000
0000
0000
0000
0000
0000
0000
0000
0000
0000
0000
0000
0000
0000
0000
0000
0000
0000
0000
0000
0000
0000
0000
0000
0000
0000
0100
0000
0000
0000
0000
0000
0000
0000
0000
0000
0000
0000
0000
0000
0000
0000
0000
0000
0000
0000
0000
0000
0000
0000
0000
0000
0000
0000
0000
0000
0000
0000
0000
0000
0000
0000
0000
0000
0000
0000
0000
0000
0000
0000
0000
0000
0000
0000
,  // measure 65
2000
0000
3200
0000
,  // measure 66
0302
0000
0000
0000
0000
0000
0000
0000
0000
0000
0000
0000
0000
0000
0000
0000
0000
0000
0000
0000
0000
0000
0000
0000
0000
0000
0000
0000
0000
0000
0000
0000
0000
0000
0000
0000
0000
0000
0000
0000
0000
0000
0000
0000
0000
0000
0000
0000
0000
0000
0000
0000
0000
0000
0000
0000
0000
0000
0000
0000
0000
0000
0000
0000
0000
0000
0000
0000
0000
0000
0000
0000
0000
0000
0000
0000
0000
1003
0000
0000
0000
0000
0000
0000
0000
0000
0000
0000
0000
0000
0000
0000
0000
0000
0000
0000
0100
0000
0000
0000
0000
0000
0000
0000
0000
0000
0000
0000
0000
0000
0000
0000
0000
0000
0000
0000
0000
0000
0000
0000
0000
0000
0000
0000
0000
0000
0000
0000
0000
0000
0000
0000
0000
0000
0000
0000
0000
0000
0000
0000
0000
0000
0000
0000
0010
0000
0000
0000
0000
0000
0000
0000
0000
0000
0000
0000
0000
0000
0000
0000
0000
0000
0000
0000
0000
0000
0000
0000
0000
0000
0000
0000
0000
0000
0000
0000
0000
0000
0000
0000
0000
0000
0000
0000
0000
0000
0000
0000
0000
0000
0000
0000
,  // measure 67
0200
0000
2300
0001
,  // measure 68
3020
0000
0000
0000
0000
0000
0000
0000
0000
0000
0000
0000
0000
0000
0000
0000
0000
0000
0000
0000
0000
0000
0000
0000
0000
0000
0000
0000
0000
0000
0000
0000
0000
0000
0000
0000
0000
0000
0000
0000
0000
0000
0000
0000
0000
0000
0000
0000
0000
0000
0000
0000
0000
0000
0000
0000
0000
0000
0000
0000
0000
0000
0000
0000
0000
0000
0000
0000
0000
0000
0000
0000
0000
0000
0000
0000
0000
0130
0000
0000
0000
0000
0000
0000
0000
0000
0000
0000
0000
0000
0000
0000
0000
0000
0000
0000
0002
0000
0000
0000
0000
0000
0000
0000
0000
0000
0000
0000
0000
0000
0000
0000
0000
0000
0000
0000
0000
0000
0000
0000
0000
0000
0000
0000
0000
0000
0000
0000
0000
0000
0000
0000
0000
0000
0000
0000
0000
0000
0000
0000
0000
0000
0000
0000
0000
0000
0000
0000
0000
0000
0000
0000
0000
0000
0000
0000
0000
0000
0000
0000
0000
0000
0000
0000
0000
0000
0000
0000
0000
0000
0000
0000
0000
0000
0000
0000
0000
0000
0000
0000
0000
0000
0000
0000
0000
0000
0000
0000
0000
0000
0000
0000
,  // measure 69
2003
0000
3200
0000
,  // measure 70
0320
0000
0032
0000
,  // measure 71
1003
0000
0000
0020
0000
0000
1030
0000
,  // measure 72
0001
0100
0010
0100
1000
0000
0100
0010
0100
0001
1000
0000
0100
0010
0001
1000
,  // measure 73
0020
0000
0000
0000
0000
0000
0000
0000
0000
0000
0000
0000
0000
0000
0000
0000
0000
0000
0000
0000
0000
0000
0000
0000
0100
0000
0000
0000
0000
0000
0000
0000
0000
0000
0000
0000
0001
0000
0000
0000
0000
0000
0000
0000
0000
0000
0030
0000
0020
0000
0000
0000
0000
0000
0000
0000
0000
0000
0000
0000
0000
0000
0000
0000
0000
0000
0000
0000
0000
0000
0000
0000
0100
0000
0000
0000
0000
0000
0000
0000
0000
0000
0000
0000
1000
0000
0000
0000
0000
0000
0000
0000
0000
0000
0030
0000
0020
0000
0000
0000
0000
0000
0000
0000
0000
0000
0000
0000
0000
0000
0000
0000
0000
0000
0000
0000
0000
0000
0000
0000
0130
0000
0000
0000
0000
0000
0000
0000
0000
0000
0000
0000
0000
0000
0000
0000
0000
0000
0000
0000
0000
0000
0000
0000
0001
0000
0000
0000
0000
0000
0000
0000
0000
0000
0000
0000
0000
0000
0000
0000
0000
0000
0000
0000
0000
0000
0000
0000
1001
0000
0000
0000
0000
0000
0000
0000
0000
0000
0000
0000
0000
0000
0000
0000
0000
0000
0000
0000
0000
0000
0000
0000
,  // measure 74
1000
0100
0010
0100
0001
0000
0100
0000
0010
0001
1000
0000
0010
0100
0001
1000
,  // measure 75
0200
0000
0000
0000
0000
0000
0000
0000
0000
0000
0000
0000
0000
0000
0000
0000
0000
0000
0000
0000
0000
0000
0000
0000
0010
0000
0000
0000
0000
0000
0000
0000
0000
0000
0000
0000
0001
0000
0000
0000
0000
0000
0000
0000
0000
0000
0300
0000
0200
0000
0000
0000
0000
0000
0000
0000
0000
0000
0000
0000
0000
0000
0000
0000
0000
0000
0000
0000
0000
0000
0000
0000
0010
0000
0000
0000
0000
0000
0000
0000
0000
0000
0000
0000
1000
0000
0000
0000
0000
0000
0000
0000
0000
0000
0300
0000
0200
0000
0000
0000
0000
0000
0000
0000
0000
0000
0000
0000
0000
0000
0000
0000
0000
0000
0000
0000
0000
0000
0000
0000
0310
0000
0000
0000
0000
0000
0000
0000
0000
0000
0000
0000
0001
0000
0000
0000
0000
0000
0000
0000
0000
0000
0000
0000
0000
0000
0000
0000
0000
0000
0000
0000
0000
0000
0000
0000
0000
0000
0000
0000
0000
0000
0000
0000
0000
0000
0000
0000
0011
0000
0000
0000
0000
0000
0000
0000
0000
0000
0000
0000
0000
0000
0000
0000
0000
0000
0000
0000
0000
0000
0000
0000
,  // measure 76
2001
0000
3010
0100
0010
0000
1001
0000
0010
0100
0001
0000
1100
0000
0001
0010
,  // measure 77
0100
0000
1001
0000
0100
0010
0100
1000
0001
1000
0010
0100
0001
0000
1000
0000
,  // measure 78
1100
1100
1001
0101
0110
0110
0110
0110
,  // measure 79
0000
0000
1010
0000
1000
0001
0010
0000
0100
0000
1100
0000
1100
0000
0010
0001
,  // measure 80
1000
0100
0010
0100
0001
0000
0100
0010
0100
1000
0001
0000
0100
0010
1000
0001
,  // measure 81
0010
0000
0110
0000
1001
0001
0100
2001
,  // measure 82
0000
0000
3100
0010
0100
0000
0001
0000
1000
0001
0010
0000
0100
1000
0100
0010
,  // measure 83
0001
0000
0000
1000
1100
0000
0000
0001
0101
0000
1100
0000
0000
0000
0102
0000
,  // measure 84
0000
0000
1003
0100
0010
0000
0100
0000
0001
0100
0010
0000
0001
0000
1000
0010
,  // measure 85
0100
0000
0010
0000
0100
0001
0010
0000
0100
1000
0001
1000
0010
0100
0001
1000
,  // measure 86
0100
0000
0100
0010
0100
0000
1100
0000
1000
0001
1000
0000
1010
0000
0100
0000
,  // measure 87
1001
0011
0000
0110
0000
1100
0000
0100
,  // measure 88
1100
0000
1000
0001
1000
0000
1010
0000
1000
0001
1000
0000
1100
0000
0100
0010
,  // measure 89
0001
0000
0011
0000
0010
0000
0010
0001
1000
0000
1010
0000
0010
0100
0001
0000
,  // measure 90
0011
0000
0001
1000
0001
0000
0101
0000
0001
1000
0001
0000
1000
0100
0010
0001
,  // measure 91
0100
0000
0000
0110
0000
0000
1010
0000
1001
0000
0000
0011
0000
0000
1100
0000
,  // measure 92
0012
0000
0000
0000
,  // measure 93
0010
0000
0010
0000
0013
0100
1001
0000
,  // measure 94
1001
0000
1000
0010
1000
0000
0001
0010
0100
0010
0001
0000
1100
0000
0001
0000
,  // measure 95
0101
0000
0100
0010
0100
0001
1000
0100
0010
0001
0100
0010
1000
0001
1000
0100
,  // measure 96
0010
0001
1000
1010
0000
0001
0021
0000
1030
0001
1000
0100
,  // measure 97
0110
0000
0100
0010
0100
0000
0010
0001
1000
0000
0010
0100
0010
1000
0001
0010
,  // measure 98
0200
0000
0000
0300
1010
0000
1000
0010
1000
0000
1001
0000
0011
0000
1000
0000
,  // measure 99
1001
0000
0100
0010
0100
1000
0001
1000
0010
0000
0110
0000
0100
0001
1000
0100
,  // measure 100
0010
0001
1000
0001
0100
0010
0100
0000
0010
1000
0001
1000
0100
0010
0001
1000
,  // measure 101
0010
0000
0100
1000
0100
0001
2001
0000
0000
0000
0000
0000
,  // measure 102
3010
0100
0001
0100
1000
0100
0001
0100
0010
1000
0100
0001
0100
1000
0100
0010
,  // measure 103
0001
1000
0010
0100
0010
0001
0010
1000
0001
0010
0100
0001
0100
0010
0100
1000
,  // measure 104
0001
0100
0010
1000
0100
0001
1000
0010
0100
0010
0001
1000
0001
0100
0010
0001
,  // measure 105
0010
0000
0000
1000
0000
0000
0010
0000
0000
0100
0000
0000
0001
0000
0000
1000
0000
0000
0100
0000
0010
0000
0001
0000
1000
0000
0100
0000
0010
0000
0001
0000
1000
0000
0100
0000
0010
0000
0001
0000
1000
0000
0100
0000
0010
0000
0001
0000
,  // measure 106
1000
0000
0000
0000
1000
0000
0000
0000
0000
0000
1100
0000
0000
0011
0000
0000
,  // measure 107
1001
0000
0000
0000
0000
0000
0000
0000
0000
0000
0000
0000
1000
0000
0000
0010
0000
0000
0100
0000
0000
0010
0000
0000
0100
0000
0000
0000
1000
0000
0000
0000
0100
0000
0000
0000
0010
0000
0000
0000
1000
0000
0000
0000
0001
0000
0000
0000
,  // measure 108
0010
0100
0000
1100
0000
1001
0000
0001
0100
1000
0000
0100
,  // measure 109
0020
0000
0030
1001
,  // measure 110
1000
0100
1000
0100
001M
0000
1000
0010
1000
0010
0100
0000
0001
0010
0000
0110
,  // measure 111
0000
1001
0000
0001
0010
0000
0010
0100
0000
0100
0001
0100
2000
0000
0000
0000
,  // measure 112
3001
0010
0001
0010
M100
0000
0001
0100
0001
0100
0010
0000
1000
0100
0000
0110
,  // measure 113
0000
0010
0001
0000
1000
0010
0001
0000
0001
0010
1000
0000
0010
0100
0001
1000
,  // measure 114
0001
0010
0001
0010
M100
0000
0001
0100
0001
0100
0010
0000
1000
0100
0000
0011
,  // measure 115
0000
1100
0000
0010
0001
0000
1000
0100
0010
0001
1000
0001
0100
0000
0010
1000
,  // measure 116
0100
0000
0110
0000
0110
0000
0001
0100
0000
0010
1000
0000
1001
0000
1000
0100
,  // measure 117
0010
0001
1000
0001
0100
0010
0100
0010
1000
0000
0001
0010
1000
0000
0001
0000
,  // measure 118
0201
0000
0000
0000
,  // measure 119
0000
0000
0000
0000
,  // measure 120
2300
0000
0000
0000
,  // measure 121
3001
0010
0100
0010
1000
0001
0100
0010
0100
1000
0001
0100
0010
0100
1000
0001
,  // measure 122
0010
0100
0010
1000
0100
0001
0100
1000
0010
0100
0010
0001
1000
0100
0001
0010
,  // measure 123
2000
0000
0000
3000
;
