#TITLE:Warrior;
#SUBTITLE:;
#ARTIST:Cranky;
#TITLETRANSLIT:;
#SUBTITLETRANSLIT:;
#ARTISTTRANSLIT:;
#GENRE:;
#CREDIT:;
#MUSIC:Warrior.ogg;
#BANNER:Warrior.png;
#BACKGROUND:Warrior-bg.png;
#CDTITLE:;
#SAMPLESTART:80.480;
#SAMPLELENGTH:15.000;
#SELECTABLE:YES;
#OFFSET:1.364;
#BPMS:0.000=170.000;
#STOPS:;
#BGCHANGES:;
#FGCHANGES:;

//--------------- dance-single - chrononical ----------------
#NOTES:
     dance-single:
     chrononical:
     Beginner:
     5:
     0,0,0,0,0:
0000
0000
0000
0000
,
0000
0000
0000
0000
,
0000
0000
0000
0000
,
0000
0000
0000
0000
,
0000
0000
0000
0000
,
0000
0000
0000
0000
,
0000
0000
0000
0000
,
0000
0000
0000
0000
,
0000
0000
0000
0000
,
0002
0000
0100
0000
,
2003
0000
0100
0000
,
3002
0000
0010
0000
,
2003
0000
0010
0000
,
3002
0000
0100
0000
,
2003
0000
0100
0000
,
3002
0000
0100
0000
,
0103
0000
0010
1000
,
0001
0010
0100
0000
,
0100
0010
0001
0000
,
1000
0010
0100
0000
,
0100
0010
1000
0000
,
0001
0010
0100
0000
,
0100
1000
0001
0000
,
1000
0010
0100
0000
,
0100
0001
1000
0001
,
1000
0100
0010
0000
,
0010
0100
1000
0000
,
0001
0100
0010
0000
,
0010
0100
0001
0000
,
1000
0100
0010
0000
,
0010
0001
1000
0000
,
0001
0100
0010
0000
,
0010
1000
0001
0000
,
1001
0000
0000
0000
,
0110
0000
0000
0000
,
1001
0000
0000
0000
,
1001
0000
1000
0000
,
0100
0010
0001
0000
,
0001
1000
0001
0000
,
0100
0010
1000
0000
,
0001
0010
0100
0000
,
0010
0100
1000
0000
,
0001
0100
0020
0030
,
1000
0100
0020
0030
,
0001
0100
0010
0100
,
0001
1000
0002
0003
,
1001
0000
0100
0000
,
1001
0000
0010
0000
,
1001
0000
0110
0000
,
2002
0000
0000
3003
,
0001
0010
0100
1000
,
0001
0000
0001
0000
,
1000
0010
0100
0001
,
1000
0000
1000
0000
,
0001
0010
0100
0010
,
0001
0000
0001
0000
,
1000
0000
0010
0000
,
2002
0000
0000
3003
,
0001
0010
0100
0000
,
0001
0100
1000
0000
,
0001
0100
0010
0000
,
0001
0010
1000
0000
,
1000
0100
0010
0000
,
1000
0010
0001
0000
,
1000
0010
0100
0000
,
1000
0100
0001
0000
,
1000
0000
0100
0010
,
0001
1000
0001
0000
,
0001
0000
0100
0010
,
1000
0001
1000
0000
,
0001
0000
0010
0100
,
1000
0001
1000
0000
,
1000
0000
0010
0100
,
0001
1000
0001
1000
,
0001
0000
0010
0100
,
1000
0000
0001
0000
,
1000
0000
0010
0100
,
0001
0000
1000
0000
,
0001
0000
0010
0100
,
1000
0000
0001
0000
,
1001
0000
1001
0000
,
1001
0000
0110
0000
,
2002
0000
3003
0000
,
0000
0220
0000
0000
,
0000
0000
0000
0330
;

//--------------- dance-single - chrononical ----------------
#NOTES:
     dance-single:
     chrononical:
     Easy:
     9:
     0,0,0,0,0:
0000
0000
0000
0000
,
0000
0000
0000
0000
,
0000
0000
0000
0000
,
0000
0000
0000
0000
,
0000
0000
0000
0000
,
0000
0000
0000
0000
,
0000
0000
0000
0000
,
0000
0000
0000
0000
,
0000
0000
0000
0000
,
2000
0000
0000
0000
0001
0000
0000
3010
,
0200
0000
0302
0000
,
2003
0000
0001
0000
,
3200
0000
0320
0000
,
0032
0000
0000
0000
1000
0000
0000
0103
,
0020
0000
2030
0000
,
3002
0000
1000
0000
,
0013
0100
1000
0001
,
1000
0010
0100
0010
,
1000
0100
0010
0001
,
0001
0010
0100
0010
,
0001
0100
0010
1000
,
1000
0001
0010
0001
,
1000
0001
0100
0001
,
0001
1000
0100
1000
,
0001
0000
1000
0000
0010
0000
1000
0001
,
1000
0100
0100
0010
,
0001
1000
0010
0100
,
0001
0010
0010
0100
,
1000
0010
0100
0001
,
0001
0010
0100
0010
,
1000
0010
0100
0010
,
0001
0100
0010
0100
,
1000
0000
0100
0000
0010
0100
0010
0000
,
1001
0000
0000
1010
0000
0000
0000
0000
,
1001
0000
0000
0011
0000
0000
0000
0000
,
1001
0000
0000
1100
0000
0000
0000
0000
,
1001
0101
1001
1100
,
1000
0000
0100
0002
0000
0000
0103
0000
,
1000
0000
0010
0002
0000
0000
0013
0000
,
1000
0100
0010
0100
,
2100
3001
0100
0001
,
0102
1003
0100
1000
,
0001
0100
0010
0000
0001
0000
0010
0000
,
1000
0100
0010
0000
1000
0000
0010
0000
,
0001
0100
0001
0000
1000
0100
1000
0000
,
0001
0010
0001
0000
1000
0010
1000
0000
,
1001
0001
0010
0100
,
1001
1000
0010
0100
,
0001
0010
0001
0100
,
0210
0000
0310
0000
,
1010
0000
1000
0100
0000
0100
0010
0000
,
0010
0001
0000
0001
1000
0000
1001
0000
,
0011
0000
0001
0100
0000
0100
0010
0000
,
0010
1000
0000
1000
0001
0100
0001
0000
,
0101
0000
0001
0010
0000
0010
0100
0000
,
0100
1000
0000
1000
0001
0000
1001
0000
,
1010
1100
0100
0010
,
0220
0000
0000
0330
,
1001
0000
1000
0000
0010
0000
0100
0001
,
1000
0000
0001
0000
0010
0000
0100
1000
,
0001
0000
1000
0000
0010
0000
0100
0001
,
1000
0100
0001
0100
,
0010
0000
0001
0000
0100
0000
0001
1000
,
0010
0000
1000
0000
0100
0000
1000
0001
,
0100
0001
0010
0001
,
0101
1001
1100
1000
,
0010
0100
0010
1000
,
0100
0010
0100
0001
,
0100
0010
0100
1000
,
0010
0100
0001
0001
,
0100
0010
0100
0001
,
0010
0100
0010
1000
,
0010
0100
0010
0001
,
0101
0000
1001
0000
1000
0010
0100
0000
,
0001
0000
0010
0100
1000
0000
0001
0000
,
1000
0010
0001
0010
,
1000
0000
0100
0010
0001
0000
1000
0000
,
0001
0100
1000
0100
,
0001
0000
1000
0001
0100
0000
0010
0000
,
1000
0100
0001
0100
,
1000
0001
1001
1000
,
0100
0010
1000
0010
,
0011
0000
0000
2001
0000
0000
3010
0000
,
0000
2020
0000
0000
,
0000
0000
0000
3030
;

//--------------- dance-single - chrononical ----------------
#NOTES:
     dance-single:
     chrononical:
     Medium:
     13:
     0,0,0,0,0:
0000
0000
0000
0000
,
0000
0000
0000
0000
,
0000
0000
0000
0000
,
0000
0000
0000
0000
,
0000
0000
0000
0000
,
0000
0000
0000
0000
,
0000
0000
0000
0000
,
0000
0000
0000
0000
,
0000
0000
0000
0000
,
0002
0000
0000
0000
1000
0000
0000
0013
,
0200
0000
2300
0000
,
3002
0000
1000
0000
,
0203
0000
0320
0000
,
2030
0000
0000
0000
0001
0000
0000
3100
,
0020
0000
0032
0000
,
2003
0000
0001
0000
,
3010
0100
0001
1000
0001
0010
0100
0000
,
1000
0001
0100
0001
1000
0001
0010
0000
,
0001
1000
0010
1000
0001
1000
0100
0000
,
1000
0001
0100
0010
0100
0001
0100
0000
,
0001
1000
0100
0010
0100
1000
0100
0000
,
1000
0010
0100
0010
1000
0001
1000
0000
,
0001
0010
0100
0010
0001
1000
0001
0000
,
1000
0010
0100
0010
0001
0010
0100
0000
,
0001
0010
0100
0010
1000
0010
0001
0001
,
1000
0001
0100
0010
1000
0001
0010
0100
,
0010
0001
1000
0010
1000
0001
0100
0000
,
0001
1000
0100
0010
0001
1000
0010
0100
,
0010
1000
0001
0010
0001
0100
0010
0000
,
1000
0010
0100
0010
0001
0010
0100
0010
,
1000
0100
0010
0100
0001
0100
0010
0000
,
0001
0100
0010
0100
1000
0100
0010
0100
,
0001
0010
0100
1000
0010
0100
0010
1000
,
1010
0000
0000
0102
0000
0013
0100
1000
,
1100
0000
0000
0012
0000
0103
0010
0100
,
0101
0000
0000
2010
0000
3100
0010
0000
,
0110
0000
0011
0000
1001
1000
0010
0100
,
0101
0001
0010
2000
0000
3010
0001
0100
,
0101
0100
0010
0002
0000
0013
1000
0001
,
0011
0000
0010
0000
0100
0000
1000
0001
0000
1000
0001
0000
0100
0000
0010
0000
,
0120
0000
0031
0010
0100
0000
0001
0010
,
0210
0000
0301
0100
0010
0001
1000
0000
,
0001
0100
0010
0100
1000
0100
0001
0000
,
1000
0100
0010
0100
0001
0100
1000
0000
,
0001
0100
0010
0100
0001
0010
0100
0000
,
1000
0100
0010
0100
1000
0010
0100
0000
,
1001
0001
0010
0100
1000
0001
1000
0000
,
1001
1000
0010
0100
0001
1000
0001
0000
,
1000
0100
0001
1000
0010
0001
0100
0000
,
0210
0000
0000
0000
0000
0000
0000
0000
0310
0000
0000
1000
0000
0000
0001
0000
,
0010
0100
1000
0010
0100
0001
0010
0100
,
1000
0010
0100
0001
0010
0100
0010
0001
,
1000
0001
0100
0001
1000
0100
1000
0001
,
0010
0001
1000
0010
1000
0100
0010
0000
,
0100
0010
0001
0100
0010
1000
0100
0010
,
0001
0100
0010
1000
0100
0010
0100
1000
,
0010
0000
0100
0010
0000
0100
0010
0000
1000
0001
0000
1000
0001
0000
0010
0000
,
0220
0000
0000
0330
,
2001
0000
0000
0000
3010
0000
0100
0010
0000
0100
0010
0000
1000
0000
0001
0000
,
1000
0000
0000
0000
0100
0000
0010
0100
0000
0010
0100
0000
1000
0000
0001
0000
,
0001
0000
0000
0000
0100
0000
0010
0100
0000
0010
0100
0000
0001
0000
1000
0000
,
0001
0000
0000
0000
0010
0000
0100
0010
0000
0100
0010
0000
0001
0000
1000
0000
,
1000
0000
0000
0000
0001
0000
0100
0010
0000
1000
0001
0000
1000
0000
0100
0000
,
0010
0000
0000
0000
0001
0000
0010
0100
0000
1000
0001
0000
1000
0000
0010
0000
,
0010
0000
0000
0000
1000
0000
0010
0100
0000
0001
1000
0000
0001
0000
0010
0000
,
0110
0000
0000
0000
0110
0000
0000
0010
0001
0000
0100
0000
0010
0000
1000
0000
,
0001
0000
0100
0010
0000
0100
0001
0000
1000
0001
0000
1000
0100
0000
0000
0000
,
1000
0000
0100
1000
0000
0001
1000
0000
0010
0000
0100
0000
1000
0000
0100
0000
,
0001
0000
0010
0100
0000
0010
0001
0000
1000
0001
0000
1000
0010
0000
0000
0000
,
1000
0000
0100
1000
0000
0001
1000
0000
0001
0100
0000
0010
0100
0000
0001
0000
,
1000
0000
0100
0010
0000
0100
1000
0000
0001
1000
0000
0001
0100
0000
0000
0000
,
0001
0000
0100
0001
0000
1000
0001
0000
0010
0000
0100
0000
0001
0000
0100
0000
,
1000
0000
0010
0100
0000
0010
1000
0000
0001
1000
0000
0001
0010
0000
0000
0000
,
0001
0000
0100
0001
0000
1000
0001
0000
1000
0000
0010
0000
0001
0000
0010
0000
,
1000
0000
0100
0000
0010
0100
0000
0000
1000
0000
0010
0200
0000
0000
0000
0000
,
0310
1000
0001
0010
0001
1000
0010
0100
,
0001
0000
0010
0000
0100
0010
0000
0000
0001
0000
0100
0020
0000
0000
0000
0000
,
0130
0001
1000
0100
1000
0001
0200
0000
,
0301
0000
0100
0000
0010
0100
0000
0000
0001
0000
0010
0200
0000
0000
0000
0000
,
0310
0001
1000
0010
1000
0001
0100
0010
,
1010
0000
1000
0100
1100
0000
0100
0010
,
0001
0100
0010
0100
1000
0100
0010
0100
,
0110
0000
0000
0110
0000
0010
1000
0100
,
0000
0220
0000
0000
,
0000
0000
0000
0330
;

//--------------- dance-single - chrononical ----------------
#NOTES:
     dance-single:
     chrononical:
     Hard:
     17:
     0,0,0,0,0:
0000
0000
0000
0000
,
0000
0000
0000
0000
,
0000
0000
0000
0000
,
0000
0000
0000
0000
,
0000
0000
0000
0000
,
0000
0000
0000
0000
,
0000
0000
0000
0000
,
0000
0000
0000
0000
,
0000
0000
0000
0000
,
2000
0000
0000
0000
0001
0000
0000
3100
,
0020
0000
0032
0000
,
2003
0000
0001
0000
,
3020
0000
0230
0000
,
0302
0000
1000
0000
1000
0000
0010
0013
,
0200
0010
2300
0010
,
3002
1000
1000
0100
,
0103
0010
1000
0001
1000
0100
0010
0001
,
1000
0010
1000
0000
0010
0100
0010
0000
0100
0010
0100
0000
0001
0100
0001
0000
,
1000
0100
1000
0000
0100
0010
0100
0000
0010
0100
0010
0000
0001
0010
0001
0000
,
1000
0001
1000
0000
0010
1000
0010
0000
1000
0001
1000
0000
0100
1000
0100
0000
,
1000
0100
1000
0000
0001
1000
0001
0000
1000
0010
1000
0000
0010
0100
0001
0000
,
0001
1000
0001
0000
0010
0001
0010
0000
0001
1000
0001
0000
0100
0001
0100
0000
,
0001
0100
0001
0000
1000
0001
1000
0000
0001
0010
0001
0000
0010
0100
1000
0000
,
1000
0010
0100
0000
0010
0100
0001
0000
0001
0100
0010
0000
0100
0010
1000
0000
,
0001
0010
0100
0000
0010
0100
1000
0000
1000
0100
0010
0000
0001
1000
0001
0000
,
0001
0100
0010
0000
0100
0010
1000
0000
0001
0010
0100
0000
0010
0100
1000
0000
,
1000
0100
0010
0000
0100
0010
0001
0000
0001
0100
0010
0000
0100
0010
1000
0000
,
0001
1000
0100
0000
0100
1000
0001
0000
1000
0001
0100
0000
0100
0001
1000
0000
,
0001
1000
0010
0000
0010
1000
0001
0000
1000
0001
0010
0000
0010
0001
1000
0000
,
0100
1000
0001
0000
0100
0001
1000
0000
0010
1000
0001
0000
0010
0001
1000
0000
,
0010
1000
0001
0000
0010
0001
1000
0000
0100
1000
0001
0000
0100
0001
1000
0000
,
0001
0010
0100
0000
0100
0010
0001
0000
1000
0010
0100
0000
0100
0010
1000
0000
,
1000
0100
0010
0000
0010
0100
1000
0000
1000
0010
0100
0010
0100
0001
1000
0000
,
1001
0000
1000
0100
0010
0000
1002
0000
0000
0000
0103
0000
1000
0000
0100
0000
,
1001
0000
0001
0010
0100
0000
2001
0000
0000
0000
3100
0010
0001
0000
0100
0000
,
1001
0000
1000
0010
0100
0000
1002
0000
0000
0000
0013
0000
0100
0000
0000
0000
,
1100
0000
1000
0000
0001
0000
0100
0000
0101
0000
0001
0010
0100
1000
0001
1000
,
0001
0000
0100
0010
1000
0001
0020
0000
0000
0000
1030
0000
0010
0000
0001
0000
,
1000
0001
0100
0010
1000
0001
0200
0000
0000
0000
1300
0100
0001
0000
0010
0000
,
0110
0000
0100
1000
0100
0010
0001
1000
0000
1000
0010
0000
0010
0000
0100
0000
,
0120
0031
0010
0100
1001
1000
0100
0010
,
0210
0000
0301
0000
0100
0000
0010
0000
0001
1000
0001
0100
0010
0000
0010
0100
,
0001
0000
1000
0100
0010
0100
1000
0000
2100
0000
0001
0000
3010
0000
0100
0000
,
0001
0000
1000
0000
0010
0100
0001
0000
0102
0000
1000
0000
0013
0000
0100
0000
,
1000
0010
0100
0010
2000
0000
0100
0000
3001
0100
0010
0100
0002
0000
0100
0000
,
1003
0000
0010
0100
0020
0000
0001
0000
1030
0000
0100
0000
0020
0000
1000
0000
,
0031
0000
0101
0000
0100
0000
0010
1000
0001
1000
0100
0010
0100
0000
0010
0001
,
1000
0000
1010
0000
0010
0100
0001
0000
0020
0000
0100
0000
0031
0000
1000
0001
,
1000
0000
0010
0100
0010
0000
1000
0001
1000
0000
0100
0010
0100
0000
0010
0001
,
0200
0000
0000
0000
0000
0000
0300
0000
0110
0000
0000
0101
0000
0000
1002
0000
,
0103
0000
0010
0100
0010
1000
0100
0000
0010
0100
0010
0001
0100
0000
0010
0100
,
0010
1000
0100
0000
0010
0100
0010
0001
0200
0000
1000
0000
0320
0000
0001
0000
,
1030
0000
0010
1000
0001
0010
0001
0000
0100
0001
1000
0100
1000
0000
0010
1000
,
0001
0010
0001
0000
0100
0001
1000
0100
0010
0000
0100
0000
0001
0000
0100
0000
,
0010
0000
0100
0010
0100
1000
0010
0000
0100
0010
0100
0001
0010
0000
0100
0010
,
0100
1000
0010
0000
0100
0010
0100
0001
0020
0000
1000
0000
0230
0000
0001
0000
,
1300
0000
0010
0100
0000
0010
0100
0000
0001
1000
0000
0001
1000
0100
0010
0001
,
0200
0000
0000
0000
,
0301
0000
1000
0010
0100
0000
0001
0010
0000
0010
0100
0000
0001
0000
0100
0000
,
1000
0000
0001
0010
0100
0000
1000
0010
0000
0010
0100
0000
1000
0000
0100
0000
,
0001
0000
1000
0001
0100
0000
0010
1000
0000
1000
0100
0000
0001
0000
0100
0000
,
1000
0000
0001
1000
0100
0000
0010
0001
0000
0001
0100
0000
1000
0000
0100
0000
,
0001
0000
1000
0100
0010
0000
0001
0100
0000
0100
0010
0000
0001
0000
0010
0000
,
1000
0000
0001
0100
0010
0000
1000
0100
0000
0100
0010
0000
1000
0000
0010
0000
,
0001
0000
1000
0001
0010
0000
0100
1000
0000
1000
0010
0000
0001
0000
0010
0000
,
0110
0000
0000
0000
0110
0000
0000
0010
1000
0000
0100
0000
0001
0000
0100
0000
,
1000
0000
0001
0100
0000
0010
0100
0000
1000
0100
0000
0010
0100
0001
1000
0000
,
0100
0000
0010
0100
0000
0010
0001
0000
0010
0000
0100
0000
0001
0000
0100
0000
,
1000
0000
0001
0010
0000
0100
0010
0000
1000
0010
0000
0100
0010
0001
1000
0000
,
0010
0000
0100
0001
0000
1000
0001
0000
0100
0010
0000
0100
1000
0000
0100
0000
,
0001
0000
1000
0010
0000
0100
0010
0000
0001
0010
0000
0100
0010
1000
0001
0000
,
0010
0000
0100
0010
0000
0100
1000
0000
0100
0000
0010
0000
1000
0000
0010
0000
,
0001
0000
1000
0100
0000
0010
0100
0000
0001
0100
0000
0010
0100
1000
0001
0000
,
0100
0000
0010
1000
0000
0001
1000
0000
0010
0000
0100
0000
1000
0000
0100
0000
,
0001
0000
1000
0100
0010
0100
0000
0100
0010
0001
1000
0020
0000
0100
0000
0130
,
0001
0100
0010
0100
0000
1000
0000
0001
0010
0100
0010
1000
0001
0000
0001
0000
,
0001
0000
1000
0010
0100
0010
0000
0010
0100
0001
1000
0200
0000
0010
0000
0310
,
0100
0010
0001
1000
0010
0100
0010
0001
0000
1000
0100
0010
0100
0002
0000
0000
,
1003
0000
0001
0010
0100
0010
0000
0010
0100
1000
0001
0200
0000
0010
0000
0310
,
1000
0010
0100
0010
0000
0001
0000
1000
0100
0010
0100
0001
0000
0001
1000
0100
,
0010
0000
0001
1000
0000
1000
0001
0010
0100
0000
1000
0001
0100
0010
1000
0001
,
1000
0100
0010
0100
0000
0100
0010
0100
0001
0100
0010
0001
1000
0001
0100
0010
,
1000
0000
0000
0000
0000
0000
1010
0000
0000
0000
0010
0100
1000
0100
0010
1000
,
0000
2200
0000
0000
,
0000
0000
0000
3300
;
