#VERSION:0.83;
#TITLE:Violent Purple;
#SUBTITLE:;
#ARTIST:meganeko;
#TITLETRANSLIT:;
#SUBTITLETRANSLIT:;
#ARTISTTRANSLIT:;
#GENRE:;
#ORIGIN:;
#TAGS:;
#CREDIT:;
#BANNER:banner.png;
#BACKGROUND:bg.png;
#PREVIEWVID:;
#JACKET:jacket.png;
#CDIMAGE:;
#DISCIMAGE:;
#LYRICSPATH:;
#CDTITLE:;
#MUSIC:Violent Purple.ogg;
#OFFSET:-0.942000;
#SAMPLESTART:32.951927;
#SAMPLELENGTH:14.222221;
#SELECTABLE:YES;
#BPMS:0.000000=135.000000
;
#STOPS:;
#DELAYS:;
#WARPS:;
#TIMESIGNATURES:0.000000=4=4
;
#TICKCOUNTS:0.000000=4
;
#COMBOS:0.000000=1
;
#SPEEDS:0.000000=1.000000=0.000000=0
;
#SCROLLS:0.000000=1.000000
;
#LABELS:0.000000=Song Start
;
#BGCHANGES:;
#KEYSOUNDS:;
#ATTACKS:
;

//---------------dance-single - ----------------
#NOTEDATA:;
#CHARTNAME:;
#CHARTHASH:4270850048;
#STEPSTYPE:dance-single;
#BANNER:;
#DESCRIPTION:;
#CHARTSTYLE:;
#DIFFICULTY:Hard;
#METER:13;
#METERF:13.000000;
#LASTSECONDHINT:0.942000;
#RADARVALUES:0.570325,0.656793,0.248980,0.266152,0.528010,465.000000,436.000000,29.000000,31.000000,0.000000,0.000000,0.000000,0.000000,0.000000,0.570325,0.656793,0.248980,0.266152,0.528010,465.000000,436.000000,29.000000,31.000000,0.000000,0.000000,0.000000,0.000000,0.000000;
#CREDIT:;
#NOTES:
0000
0000
0000
0000
,
0000
0000
0000
0000
,
0000
0000
0000
0000
,
0000
0000
0000
0000
0000
0000
0000
0000
0000
0000
0000
0000
0000
0000
1000
0001
,
1000
0000
0000
0100
0000
0000
1000
0000
0000
0010
0000
0000
0100
0000
0001
0000
,
0010
0000
0000
0100
0000
0000
0010
0000
0000
0001
0000
0000
1000
0000
0001
0000
,
0100
0000
0000
0001
0000
0000
0010
0000
0000
0100
0000
0000
0010
0000
0001
0000
,
1000
0000
0000
0010
0000
0000
0100
0000
0000
0010
0000
0000
1000
0000
0001
0000
,
1002
0000
0100
0000
1003
0100
0010
0000
,
1002
0000
0010
0000
1003
0010
0100
0000
,
0001
0000
0000
0000
0001
0000
0000
0000
0001
0000
0000
0000
1000
0000
0001
1000
,
0000
1000
0001
0000
1000
0000
0000
0000
0010
0100
0000
0100
0001
0000
0010
0000
,
0110
0000
0000
0000
1100
0000
0000
0000
0110
0000
0000
0010
0001
0000
1000
0001
,
0000
0100
0001
0000
0101
0000
0000
0000
0110
0000
0000
0100
0001
0000
1000
0001
,
0000
0010
0001
0000
0011
0000
0000
0000
0110
0000
0000
0100
1000
0001
1000
0001
,
0000
1000
0001
0000
0010
0000
0001
0000
0100
0000
0001
0000
0010
0000
0100
0000
,
1001
0000
0000
0000
1010
0000
0000
0000
0110
0000
0000
0100
0001
0000
1000
0001
,
0000
0010
0100
0000
0110
0000
0000
0000
1001
0000
0000
1010
0000
0000
0001
0100
,
0002
0000
0000
1003
0000
0000
0100
0000
0000
0010
0000
0000
0001
0000
1000
0001
,
0100
0000
0000
0010
0000
0000
1000
0000
0000
0100
0000
0000
0010
0000
0001
1000
,
0100
0000
0000
1000
0000
0000
0001
0000
0000
0100
0000
0000
0010
0000
1000
0001
,
0010
0000
0000
0100
0000
0000
1000
0000
0000
0001
0000
0000
0100
0000
0001
0000
,
1000
0100
0000
0010
0100
0000
1000
0100
0000
0010
0001
0000
1000
0001
0010
0000
,
0001
0100
0000
0010
0100
0000
0001
0100
0000
0010
1000
0000
0001
0000
1000
0100
,
0010
0100
0000
0010
0001
0000
0010
0100
0000
1000
0001
0000
0100
0000
0010
1000
,
0001
0000
0000
1001
0000
0000
1002
0000
0000
1000
0000
0000
0023
0000
0000
0000
,
0130
0000
1000
0002
0000
0000
0003
0000
0000
0000
0000
0000
0000
0000
1000
0010
,
0000
0100
0020
0000
0000
0000
0030
0000
0000
0000
0000
0000
0000
0000
0000
1000
,
0100
0000
0010
0002
0000
0000
0003
0000
0000
0000
0000
0000
0000
0000
0001
0100
,
0000
0010
0200
0000
0000
0000
0300
0000
0010
0000
0000
1000
0000
0000
0100
0000
,
0010
0000
0001
0000
0011
0000
0000
1000
0000
0010
1000
0010
0000
1000
0010
0000
,
0100
0000
0001
0000
0101
0000
0000
1000
0000
0100
0000
0010
0100
0000
1000
0000
,
0001
0000
0100
0000
0101
0000
0000
0001
0000
0010
0001
0010
0000
0001
0010
0000
,
0100
0000
1000
0000
1100
0000
0000
0100
0000
0010
0001
0000
0200
0000
0000
0000
,
0310
0000
1000
0200
0000
0000
0310
0000
0001
0000
0100
0000
0001
0000
0010
0100
,
0000
1000
0100
0000
0010
0000
0001
0000
0100
0000
0010
0000
1000
0000
0001
1000
,
0010
0000
0100
0010
1000
0000
0001
0000
0010
0000
0100
0000
1000
0000
0001
0100
,
0000
0010
0000
0100
0001
0000
1000
0000
0100
0000
0010
0001
1000
0001
0100
0000
,
0010
0000
2000
0000
3100
0000
2000
0000
3010
0000
2000
0000
3100
0000
0010
0100
,
1000
0000
0002
0000
0103
0000
0002
0000
0013
0000
0000
0110
0000
0000
0100
1000
,
0002
1000
1000
1003
,
0001
0000
0100
0000
0010
0000
1000
0000
0010
0000
0100
0000
0001
0000
1000
0100
,
0020
0000
0000
0000
0001
0000
0000
0000
0100
0000
0000
0000
0031
0000
1000
0001
,
0100
0000
0000
0100
0010
0000
0000
0010
1000
0000
0001
0000
0010
0000
0200
0000
,
1000
0000
0000
0000
0310
0000
0002
0000
1000
0000
0000
0000
0103
0000
0010
1000
,
0001
0000
0000
0001
0100
0000
0000
0100
0010
0000
1000
0000
0100
0000
0020
0000
,
0000
0000
0030
0001
1000
0000
0010
0000
0000
0000
0100
0000
0000
0000
0002
0000
,
0000
0000
0003
1000
0001
0000
0100
0000
0000
0000
0010
0000
0000
0000
2000
0000
,
0000
3001
0010
0000
0001
0010
0100
0000
0010
0100
1000
0000
0100
1000
0001
0000
,
0010
0001
0100
0001
1000
0100
1000
0010
,
0200
0000
0000
0000
0001
0000
0000
0000
0010
0000
0000
0000
0301
0000
1000
0001
,
0010
0000
0000
0010
0100
0000
0000
0100
1000
0000
0001
0000
0100
0000
0020
0000
,
1000
0000
0000
0000
0130
0000
0002
0000
1000
0000
0000
0000
0013
0000
0001
1000
,
0010
0000
0000
0010
0100
0000
0000
0100
0001
0000
1000
0000
0100
0000
0220
0000
,
0000
0000
0330
1000
0001
0000
0100
0000
0010
0000
0100
0000
0001
0000
0020
0000
,
0000
0000
0030
0100
1000
0000
0001
0000
0010
0000
0001
0000
0100
0000
0010
0000
,
1000
0001
0100
0000
0001
0100
0010
0000
0100
0010
1000
0000
0010
1000
0001
0000
,
0010
0001
0010
0000
0001
0100
0001
0000
1000
0000
0100
0000
0010
0000
0001
0000
,
1001
0000
0000
0000
0001
0000
0100
0000
0101
0000
0000
0001
1000
0000
0010
0000
,
0100
0000
0010
0000
1010
0000
0000
1000
0001
0000
0010
0000
0100
0000
1000
0000
,
1100
0000
0000
0100
0010
0000
0001
0000
0100
0000
0010
0000
0110
0000
0000
0100
,
0001
0000
1000
0000
0100
0000
0010
0000
0001
0010
0000
0100
1000
0000
0010
0000
,
0220
0000
0000
0000
,
0000
0000
0000
0330
;

//---------------dance-single - ----------------
#NOTEDATA:;
#CHARTNAME:;
#CHARTHASH:110;
#STEPSTYPE:dance-single;
#BANNER:;
#DESCRIPTION:;
#CHARTSTYLE:;
#DIFFICULTY:Challenge;
#METER:16;
#METERF:16.000000;
#LASTSECONDHINT:114.275337;
#RADARVALUES:0.767792,0.875724,0.429277,0.463619,0.974458,626.000000,576.000000,50.000000,54.000000,4.000000,0.000000,0.000000,0.000000,0.000000,0.767792,0.875724,0.429277,0.463619,0.974458,626.000000,576.000000,50.000000,54.000000,4.000000,0.000000,0.000000,0.000000,0.000000;
#CREDIT:;
#NOTES:
// measure 0
0000
0000
0000
0000
,  // measure 1
0000
0000
0000
0000
,  // measure 2
0000
0000
0000
0000
,  // measure 3
0000
0000
0000
0000
0000
0000
0000
0000
0000
0000
0000
0000
0000
0000
0001
1000
,  // measure 4
0200
0000
0000
0310
0000
0001
1000
0000
0000
0010
0000
0100
0001
0000
1000
0001
,  // measure 5
0200
0000
0000
0310
0000
1000
0001
0000
0000
0010
0000
0001
1000
0000
0100
0000
,  // measure 6
0020
0000
0000
0130
0000
1000
0001
0000
0000
0100
0000
0010
1000
0000
0001
1000
,  // measure 7
0020
0000
0000
0130
0000
0001
1000
0000
0000
0100
0000
0010
0100
0000
1000
0000
,  // measure 8
0010
0000
0000
0000
1010
0000
0000
1000
0010
1000
0100
0000
0010
0000
0001
1000
,  // measure 9
0100
0000
0000
0000
1100
0000
0000
1000
0100
1000
0010
0000
0200
0000
0000
0000
,  // measure 10
0302
0000
0003
0000
0002
0000
0003
0000
0002
0000
0003
1000
0001
1000
0001
1000
,  // measure 11
0000
1000
0001
0000
2000
0000
3001
0000
MMMM
0100
0000
1000
0100
0000
1000
0000
,  // measure 12
2100
0000
3001
0000
0012
0000
1003
0000
2100
0000
3001
0100
0001
0100
0001
0010
,  // measure 13
0000
0001
0100
0000
0201
0000
0310
0000
1020
0000
0130
0001
1000
0100
1000
0010
,  // measure 14
0000
1000
0100
0000
1200
0000
0310
0000
0021
0000
0130
1000
0001
0100
0001
0010
,  // measure 15
0000
0100
0010
0000
1001
0000
0001
0000
0100
0000
0100
0000
0010
0000
0010
0000
,  // measure 16
0102
0000
1003
0000
2010
0000
3001
0000
1200
0000
0310
0001
1000
0001
0100
0010
,  // measure 17
0000
0100
1000
0000
1200
0000
0010
0000
0301
1000
0010
1000
0001
0010
0001
1000
,  // measure 18
0100
0000
0010
0100
0000
0010
0001
0000
0010
1000
0000
0010
0001
1000
0100
1000
,  // measure 19
0010
0000
0100
0010
0000
0100
0001
0000
0100
1000
0000
0100
0001
1000
0001
0010
,  // measure 20
0100
0000
0010
0001
0000
1000
0100
0000
0010
1000
0000
0010
0100
1000
0001
0100
,  // measure 21
0010
0000
0100
0001
0000
1000
0010
0000
0100
1000
0000
0100
0010
1000
0001
1000
,  // measure 22
0100
0010
0001
1000
0000
1000
0010
0100
0010
0001
0000
0001
0010
0100
0001
1000
,  // measure 23
0001
0010
0100
1000
0000
1000
0100
0010
0100
0001
0000
0001
0100
0010
0001
1000
,  // measure 24
0001
0100
0001
1000
0100
1000
0001
0100
0010
1000
0100
0010
0001
0010
0100
1000
,  // measure 25
0020
0000
0000
0030
0000
0000
2020
0000
0000
3030
0000
0000
2002
0000
0000
3003
0000
0000
1100
0000
0000
0000
0100
0000
2000
0000
0000
0000
0000
0000
0000
0000
,  // measure 26
3010
0000
1000
0002
0000
0000
0003
0000
0000
0000
0000
0000
0000
0000
0100
0001
,  // measure 27
0000
0010
0002
0000
0000
0000
0003
0000
0000
0000
0000
0000
0000
0000
0000
1000
,  // measure 28
0010
0000
0100
0002
0000
0000
0003
1000
0000
1000
0100
0000
0010
0000
0001
1000
,  // measure 29
0000
0010
2000
0000
0001
0000
3000
0001
0010
0100
1000
0001
0100
0000
0010
0000
,  // measure 30
1010
0000
1000
0000
0110
0000
0010
0100
0000
0001
1000
0010
0000
0010
0100
0000
,  // measure 31
0101
0000
0001
0000
0110
0000
0100
0010
1000
0001
0000
0001
0100
0000
0001
0010
,  // measure 32
0100
0000
1000
0000
0110
0000
0100
0010
0000
0001
1000
0100
0000
0100
0010
0000
,  // measure 33
0011
0000
0001
0000
0110
0000
1000
1001
0000
0101
0000
0001
0200
0000
0000
0000
,  // measure 34
1300
0000
0100
0001
1000
0000
0100
0010
0000
0001
1000
0000
0001
0000
0100
0010
,  // measure 35
0000
0001
0010
0000
1000
0000
0001
0010
0000
0001
1000
0000
0100
0000
0010
0100
,  // measure 36
0001
0000
0100
1000
0001
0000
0100
0010
0000
1000
0001
0000
0010
0000
0100
0001
,  // measure 37
0000
1000
0000
0001
0100
0000
1000
0000
0001
0000
1000
0001
0100
0010
1000
0000
,  // measure 38
0001
0000
0020
0000
0031
0000
0200
0000
0301
0000
0020
0000
0031
0000
0100
0010
,  // measure 39
1000
0000
0000
0000
0000
0000
0200
0000
0000
0000
0000
0000
1300
0000
0000
0000
0000
0000
0010
0000
0000
0000
0000
0000
1010
0000
0000
0000
0000
0000
0000
0000
0000
0110
0000
0000
0000
0000
0000
0000
0000
0000
0001
0000
0100
0000
0010
0000
,  // measure 40
2000
0000
0000
0000
3001
0000
0000
0000
0001
0000
0000
0000
0001
0000
0000
1000
,  // measure 41
0001
0010
0100
1000
0001
0100
0010
0100
0001
1000
0100
0010
0100
1000
0100
0010
,  // measure 42
0002
0000
0000
0000
0000
0000
1000
0000
0000
0000
0000
0000
0100
0000
0000
0000
0000
0000
1003
0000
0000
0001
1000
0001
,  // measure 43
0010
0000
0000
0001
0010
0001
1000
0000
0000
0001
1000
0001
0100
0000
0000
0010
0000
0000
1000
0000
0000
0001
0020
0000
,  // measure 44
0001
0000
0000
0000
0000
0000
0130
0000
0000
1000
0002
0000
1000
0000
0000
0000
0000
0000
0103
0000
0000
0001
1000
0001
,  // measure 45
0010
0000
0000
0001
0010
0001
1000
0000
0000
0001
1000
0001
0100
0000
0000
0010
0000
0000
1000
0010
0000
2000
0000
0000
,  // measure 46
0000
0000
3000
0001
0100
0000
0010
0000
0000
0000
0110
0000
0000
0000
1002
0000
,  // measure 47
0000
0000
0003
1000
0100
0000
0010
0000
0000
0000
0110
0000
0000
0000
1001
0000
,  // measure 48
0000
1000
0001
1000
0100
0010
0100
1000
0001
0100
0010
1000
0010
0100
0001
1000
,  // measure 49
0100
0010
0100
0001
0100
1000
0001
1000
0010
0100
0010
0001
0010
0100
0010
1000
,  // measure 50
0002
0000
0000
0000
0000
0000
0100
0000
0000
0000
0000
0000
1000
0000
0000
0000
0000
0000
0013
0000
0000
0001
0010
0001
,  // measure 51
1000
0000
0000
0001
1000
0100
1000
0000
0000
0001
1000
0001
0100
0000
0000
0010
0000
0000
1000
0000
0000
0100
0020
0000
,  // measure 52
0100
0000
0000
0000
0000
0000
0031
0000
0000
0100
0002
0000
0100
0000
0000
0000
0000
0000
1003
0000
0000
0010
1000
0001
,  // measure 53
1000
0000
0000
0001
0010
0001
1000
0000
0000
0100
0010
0100
1000
0000
0000
0001
0000
0000
0100
0010
0000
0210
0000
0000
,  // measure 54
0000
0000
0300
0010
1000
0000
0001
0000
0010
0000
0100
0000
1000
0000
2010
0000
,  // measure 55
0000
0000
3000
0010
1000
0000
0001
0000
0010
0000
0100
0000
0010
0000
2000
0000
,  // measure 56
0000
3010
0001
1000
0001
0100
0010
0100
1000
0100
0010
1000
0001
0010
0100
0000
,  // measure 57
0010
0001
0100
0000
0010
1000
0100
0000
0110
0000
0001
0000
0011
0000
0010
0001
,  // measure 58
0200
0000
0300
0000
0101
0000
0001
0000
0110
0000
0000
1000
1010
0000
0001
0000
,  // measure 59
0101
0000
1000
0000
1100
0000
0000
0001
0011
0000
0010
0000
1001
0000
0001
0000
,  // measure 60
0101
0000
0000
1000
2001
0000
3010
0000
1002
0000
0013
0000
1001
0000
0000
0001
,  // measure 61
1002
0000
0103
0000
2001
0000
3100
0000
1000
0010
0100
1000
0100
0010
1000
0000
,  // measure 62
2002
0000
0000
0000
,  // measure 63
0000
0000
0000
3003
;
