#VERSION:0.83;
#TITLE:Vanquish;
#SUBTITLE:;
#ARTIST:Powerless;
#TITLETRANSLIT:;
#SUBTITLETRANSLIT:;
#ARTISTTRANSLIT:;
#GENRE:;
#ORIGIN:;
#CREDIT:;
#BANNER:Vanquish banner.png;
#BACKGROUND:Vanquish bg.png;
#PREVIEWVID:;
#JACKET:Vanquish jk.png;
#CDIMAGE:;
#DISCIMAGE:;
#LYRICSPATH:;
#CDTITLE:;
#MUSIC:Vanquish.ogg;
#OFFSET:-0.536000;
#SAMPLESTART:82.761734;
#SAMPLELENGTH:13.714279;
#SELECTABLE:YES;
#BPMS:0.000=140.000;
#STOPS:30.000=0.429,
189.000=0.429;
#DELAYS:;
#WARPS:;
#TIMESIGNATURES:0.000=4=4;
#TICKCOUNTS:0.000=4;
#COMBOS:0.000=1;
#SPEEDS:0.000=1.000=0.000=0;
#SCROLLS:0.000=1.000;
#FAKES:;
#LABELS:0.000=Song Start;
#BGCHANGES:;
#KEYSOUNDS:;
#ATTACKS:
;

//---------------dance-single - XO FS DS XMOD JU----------------
#NOTEDATA:;
#CHARTNAME:;
#STEPSTYPE:dance-single;
#DESCRIPTION:XO FS DS XMOD JU;
#CHARTSTYLE:;
#DIFFICULTY:Challenge;
#METER:17;
#RADARVALUES:0.631925,0.910676,0.088880,0.615322,0.772570,647.000000,634.000000,13.000000,90.000000,18.000000,0.000000,0.000000,0.000000,0.000000,0.631925,0.910676,0.088880,0.615322,0.772570,647.000000,634.000000,13.000000,90.000000,18.000000,0.000000,0.000000,0.000000,0.000000;
#CREDIT:Karl with a K;
#NOTES:
// measure 0
0000
0000
0000
0000
,  // measure 1
0000
0000
0000
0000
,  // measure 2
0000
0000
0000
0000
,  // measure 3
0000
0000
0000
0000
,  // measure 4
1000
0000
0000
0000
0000
0000
0000
0000
0000
0000
0000
0000
0100
0000
0000
0000
0000
0000
0000
0000
0000
0000
0000
0000
0010
0000
0000
0000
0000
0000
0000
0000
0000
0000
0000
0000
0001
0000
0010
0000
0100
0000
1000
0000
0000
0001
0000
0000
,  // measure 5
1000
0000
0000
0000
0000
0000
0000
0000
0000
0000
0000
0000
0010
0000
0000
0000
0000
0000
0000
0000
0000
0000
0000
0000
0100
0000
0000
0000
0000
0000
0000
0000
0000
0000
0000
0000
0001
0000
0100
0000
0010
0000
1000
0000
0000
0001
0000
0000
,  // measure 6
1000
1000
0100
0100
0010
0010
0001
0001
,  // measure 7
0100
0010
0100
0010
0100
0010
0100
0010
0000
0000
0000
0000
2001
0000
0000
0000
,  // measure 8
3010
0000
0100
0001
0000
1000
0100
0010
0001
0100
0020
0000
1030
0000
1000
0000
,  // measure 9
0010
0200
0000
1300
0000
1000
0100
0010
1000
0100
0020
0000
0032
0000
1000
0000
,  // measure 10
0013
0100
0010
0100
1000
0001
0100
0010
1000
0100
0020
0000
0031
0000
0001
0000
,  // measure 11
0010
0200
0000
0301
1000
0010
0001
0010
0002
0000
0103
0010
2000
0000
0001
0000
,  // measure 12
3020
0000
0000
0130
0001
1000
0100
0010
0001
0100
0020
0000
2030
0000
0010
0000
,  // measure 13
3002
0000
0000
0000
0103
010M
1000
0010
1000
0100
0020
0000
0032
0000
1000
0000
,  // measure 14
1003
0000
1000
0100
1000
0000
0100
0000
0100
0000
0100
0000
0002
0000
0000
2003
,  // measure 15
0000
0000
3020
0000
0000
0032
0000
0000
0023
0000
0000
0000
0130
1000
0001
0100
,  // measure 16
0010
1000
0001
0100
0001
0010
0100
1000
0000
0001
0100
0001
0000
1000
0100
1000
,  // measure 17
0001
0010
0100
1000
0010
1000
0001
0100
0000
0001
0020
0000
0130
1000
0001
0010
,  // measure 18
0100
1000
0001
0010
0001
0100
0010
1000
0000
0001
0010
0001
0000
1000
0010
1000
,  // measure 19
0001
0100
0010
1000
0200
0000
1300
0010
1000
0001
1000
0001
0100
0001
1000
0100
,  // measure 20
0010
0001
1000
0100
1000
0010
0100
0001
0000
1000
0100
1000
0000
0001
0100
0001
,  // measure 21
1000
0010
0100
0001
0010
0001
1000
0100
0000
1000
0020
0000
0130
0001
1000
0010
,  // measure 22
0100
0001
1000
0010
1000
0100
0010
0001
0000
1000
0010
1000
0000
0001
0010
0000
,  // measure 23
0001
0100
010M
1000
0200
0000
1300
0010
M010
0001
1000
0001
1000
0000
0000
1001
,  // measure 24
0000
0011
0002
0203
0000
2300
0000
3001
,  // measure 25
0000
0010
0000
0000
1000
0000
0001
0000
0010
001M
1000
0100
0010
0001
0010
0000
,  // measure 26
1000
0001
0000
0100
1000
0100
1000
0020
0000
0000
0130
0000
2000
0000
0000
0000
,  // measure 27
3002
0000
0000
0000
0000
0000
0023
0000
0000
0000
0000
0000
1030
0000
0000
0001
0000
0000
0010
0000
0000
001M
0000
0000
1000
0000
0000
0001
0000
0000
0100
0000
0000
010M
0000
0000
1000
0000
0001
0000
1000
0000
0001
0000
0000
0010
0000
0000
,  // measure 28
0001
0100
0010
1000
0001
0000
0000
1100
0000
0000
1001
0000
1000
0000
0200
0000
,  // measure 29
0000
0302
0000
0000
0203
0000
1300
0000
0100
01M0
0001
1000
0001
0010
002M
0000
,  // measure 30
1030
0010
0100
0001
1000
0001
0100
0001
0100
010M
1000
0001
0010
001M
1000
0001
,  // measure 31
0100
010M
1000
0001
0010
001M
1000
0001
0010
001M
0100
01M0
2000
0000
0000
0000
,  // measure 32
0000
0000
0000
0000
,  // measure 33
0000
0000
0000
0100
,  // measure 34
0000
0100
0000
0000
0100
0200
0000
0000
,  // measure 35
0000
0000
3000
0010
,  // measure 36
0000
0010
0000
0000
0010
0020
0000
0000
,  // measure 37
0000
0000
0300
0001
,  // measure 38
0000
0001
0000
0000
0001
0002
0000
0000
,  // measure 39
0000
0000
0000
0000
0030
0000
2003
0001
,  // measure 40
0100
3001
2000
0001
0010
3001
0002
1000
,  // measure 41
0100
1003
0002
1000
0010
1003
2000
0100
,  // measure 42
0001
3100
2000
0100
0010
0001
3002
0100
,  // measure 43
1000
0103
0002
0100
0010
1003
0001
0000
,  // measure 44
0100
0010
1000
0001
,  // measure 45
0010
0000
0100
0000
1000
0000
0001
0001
,  // measure 46
0100
0000
0100
0000
0010
0000
0010
0000
1000
0000
1000
0000
0100
0010
0100
0010
,  // measure 47
0100
0010
0100
0010
0000
0000
0000
0000
2001
0000
0001
0000
3020
0000
0000
0031
,  // measure 48
0000
0001
1000
0100
0002
0000
0023
0000
1030
0010
0100
0010
0001
0010
0100
0010
,  // measure 49
1000
0010
0100
0010
0001
0200
0000
0000
0302
0000
1000
0000
0023
0000
0000
1030
,  // measure 50
0000
1000
0001
0100
2000
0000
3020
0000
0031
0010
0100
0010
1000
0100
0010
0001
,  // measure 51
2000
0000
3010
0100
0010
1000
0002
0000
2003
0000
3001
0010
0100
0010
0001
0100
,  // measure 52
0001
1000
0001
1000
0000
0100
0010
0001
2000
0000
0001
0000
3001
0010
0001
0010
,  // measure 53
0100
0010
0100
0010
0200
0000
0000
0000
0320
0000
0032
0000
0203
0000
0000
0000
,  // measure 54
0302
0000
0203
0000
0320
0000
0000
0000
1030
0000
0100
M100
0001
0000
0100
010M
,  // measure 55
1000
0000
0100
M100
0010
0000
0M10
0000
1002
0000
1000
0000
0103
0001
1000
0200
,  // measure 56
0000
1300
0001
0010
0000
0001
0010
0000
2001
0000
0001
0000
3010
1000
0100
0020
,  // measure 57
0000
0031
1000
0010
0000
0100
0010
2000
0001
0000
0001
0000
3010
1000
0001
0020
,  // measure 58
0000
0031
1000
0100
0000
1000
0100
0000
1002
0000
1000
0000
0103
0001
0010
0200
,  // measure 59
0000
1300
0001
0100
0000
0010
0100
0002
1000
0000
1000
0000
0013
0001
1000
0020
,  // measure 60
0000
1030
0001
0100
0000
0001
0100
0000
2001
0000
0001
0000
3100
1000
0010
0200
,  // measure 61
0000
0301
1000
0100
0000
0010
0100
2000
0001
0000
0001
0000
3100
1000
0001
0000
,  // measure 62
1002
0000
1000
0000
0103
0001
0200
0000
2300
0000
0000
3001
0000
0001
0010
0000
,  // measure 63
0000
0010
1000
0000
0010
0100
0010
0100
0002
0000
0000
0000
0000
0000
0100
0000
,  // measure 64
0000
0000
0100
0200
0000
0000
0000
0000
,  // measure 65
0000
0000
0003
0000
0010
0000
0000
0010
,  // measure 66
0000
0000
0010
0020
0000
0000
0000
0000
,  // measure 67
0000
0000
0300
0000
1000
0000
0000
1000
,  // measure 68
0000
0000
1000
2000
0000
0000
0000
0000
,  // measure 69
0000
0000
0030
0000
0001
0000
0000
0001
,  // measure 70
0000
0000
0001
0002
0000
0000
0000
0000
,  // measure 71
3000
2003
3001
0100
,  // measure 72
0001
0010
0100
1000
,  // measure 73
0010
1000
0011
0010
,  // measure 74
0001
1000
0010
1000
,  // measure 75
0001
1000
0101
0100
,  // measure 76
0010
0000
0000
0000
0000
0000
0000
0000
0000
0000
0000
0000
1000
0000
0010
0000
0100
0000
0001
0000
0000
1000
0000
0000
0001
0000
0000
0000
0000
0000
0000
0000
0000
0000
0000
0000
0010
0000
0000
0000
0000
0000
0000
0000
0000
0000
0000
0000
,  // measure 77
0100
0000
0000
0000
0000
0000
0000
0000
0000
0000
0000
0000
1000
0000
0100
0000
0010
0000
0001
0000
0000
1000
0000
0000
0001
0000
0000
0000
0000
0000
0001
0000
0000
0000
0000
0000
0010
0000
0000
0000
0000
0000
0010
0000
0000
0000
0000
0000
,  // measure 78
0100
0000
0100
0000
1000
0000
1000
0000
0010
0100
0010
0100
0010
0100
0010
0100
,  // measure 79
0001
0010
0100
1000
0010
0100
0001
1000
0200
0000
0000
0000
0000
0000
0000
0000
,  // measure 80
0000
0000
0000
0000
,  // measure 81
0000
0000
0000
0000
,  // measure 82
0000
0000
0000
0000
,  // measure 83
0000
0300
0000
0000
;

//---------------dance-single - XO DS- XMOD JU----------------
#NOTEDATA:;
#CHARTNAME:;
#STEPSTYPE:dance-single;
#DESCRIPTION:XO DS- XMOD JU;
#CHARTSTYLE:;
#DIFFICULTY:Hard;
#METER:14;
#RADARVALUES:0.471746,0.711465,0.075206,0.362356,0.389704,483.000000,472.000000,11.000000,53.000000,0.000000,0.000000,0.000000,0.000000,0.000000,0.471746,0.711465,0.075206,0.362356,0.389704,483.000000,472.000000,11.000000,53.000000,0.000000,0.000000,0.000000,0.000000,0.000000;
#CREDIT:Karl with a K;
#NOTES:
// measure 0
0000
0000
0000
0000
,  // measure 1
0000
0000
0000
0000
,  // measure 2
0000
0000
0000
0000
,  // measure 3
0000
0000
0000
0000
,  // measure 4
0001
0000
0000
0000
0100
0000
0000
0000
0010
0000
0000
0000
1000
0000
0000
1000
,  // measure 5
0001
0000
0000
0000
0010
0000
0000
0000
0100
0000
0000
0000
1000
0000
0000
1000
,  // measure 6
0001
0010
0001
0000
1000
0010
1000
0000
,  // measure 7
0001
0010
0100
1000
0000
0000
1002
0000
,  // measure 8
1003
0000
0000
0010
0000
0010
0200
0000
0000
0302
0000
0000
1003
0000
1000
0000
,  // measure 9
0200
0000
0000
0310
0000
0010
0001
0010
0000
0001
0100
0000
0002
0000
0000
0000
,  // measure 10
1003
0000
0100
0010
0100
0010
0200
0000
0000
2300
0000
0000
3001
0000
0001
0000
,  // measure 11
0200
0000
0000
0000
0310
0000
1000
0100
1000
0000
0001
0100
0002
0000
0000
0000
,  // measure 12
2003
0000
0000
3100
0000
0000
0020
0000
0000
0032
0000
0000
1003
0000
1000
0000
,  // measure 13
0020
0000
0000
0030
0100
0001
0100
0001
0000
0001
0010
0000
0001
0000
1000
0000
,  // measure 14
0001
0000
1000
0000
0010
0000
0010
0000
0100
0000
0100
0000
0002
0000
0000
0023
,  // measure 15
0000
0000
0230
0000
0000
2300
0000
0000
3020
0000
0000
0000
1030
0000
0001
0100
,  // measure 16
0001
0000
1000
0100
1000
0000
0100
1000
0000
0010
1000
0010
0000
0100
0001
0000
,  // measure 17
1000
0100
1000
0000
0001
0010
0001
0010
0000
0100
0010
0000
0001
0000
1000
0100
,  // measure 18
1000
0000
0001
0100
0001
0000
0100
0001
0000
0010
0001
0010
0000
0100
1000
0000
,  // measure 19
0001
0100
0001
0000
1000
0000
1000
0010
0000
0100
0010
0100
0001
1000
0010
0000
,  // measure 20
1000
0000
0001
0010
0001
0000
0010
0001
0000
0100
0001
0100
0000
0010
1000
0000
,  // measure 21
0001
0010
0001
0000
1000
0100
1000
0100
0000
0010
0100
0000
1000
0000
0001
0010
,  // measure 22
0001
0000
1000
0010
1000
0000
0010
1000
0000
0100
1000
0100
0000
0010
0001
0000
,  // measure 23
1000
0000
1000
0000
0001
0000
0001
0100
0000
0010
0100
0000
0110
0000
0000
1001
,  // measure 24
0000
0110
2001
0000
0000
3200
0000
0010
,  // measure 25
0000
0010
0000
0000
0320
0000
0000
0000
0001
0000
0031
0000
1000
0010
1000
0000
,  // measure 26
0010
1000
0000
0000
0100
0010
0100
0020
0000
0000
0031
0000
2000
0000
0000
0000
,  // measure 27
3020
0000
0000
0000
0130
0000
0100
0000
0001
0000
0001
0000
1000
0000
0100
0010
,  // measure 28
0001
0000
0100
0010
1000
0000
0000
0110
0000
0000
1001
0000
0002
0000
0100
0000
,  // measure 29
0000
0100
0000
0000
0023
0000
0000
0000
0100
0000
0130
0000
1000
0000
1000
0000
,  // measure 30
0020
0000
0230
0000
0302
1000
2003
0000
,  // measure 31
3200
0000
0000
0000
0310
0000
0001
0000
0100
0010
0100
0000
0220
0000
0000
0000
,  // measure 32
0000
0000
0000
0000
,  // measure 33
0000
0000
0330
1000
,  // measure 34
0000
0100
0000
0000
0010
0001
0000
0000
,  // measure 35
0000
0000
0000
1000
,  // measure 36
0000
0010
0000
0000
0100
0001
0000
0000
,  // measure 37
0000
0000
0000
1000
,  // measure 38
0000
0100
0000
0000
0010
0001
0000
0000
,  // measure 39
0000
0000
0000
0000
0000
0000
1000
0100
,  // measure 40
1000
0001
1000
0100
1000
0001
1000
0010
,  // measure 41
1000
0001
1000
0010
1000
0000
0001
0100
,  // measure 42
0001
1000
0001
0100
0001
1000
0001
0010
,  // measure 43
0001
1000
0001
0010
0001
0000
2000
0000
,  // measure 44
0100
0001
0100
3002
,  // measure 45
0100
0000
1000
0000
0100
0000
1003
0010
,  // measure 46
1000
0000
0001
0010
0001
0000
1000
0010
,  // measure 47
0100
0000
0001
0000
0000
0000
0000
0000
2001
0000
0000
0000
3020
0000
0000
0031
,  // measure 48
0000
0010
1000
0000
0001
0000
0000
0000
1000
0000
0100
0000
0010
0000
0100
0000
,  // measure 49
0001
0000
0100
0000
0010
0002
0000
0000
2003
0000
0000
0000
3200
0000
0000
0301
,  // measure 50
0000
0100
0000
0000
1000
0000
0001
0000
1000
0000
0010
0000
0100
0010
0100
0000
,  // measure 51
0010
0000
0001
0000
0010
0200
0000
0000
0301
0000
0010
0001
0000
0010
0001
0000
,  // measure 52
0001
0100
0000
0100
0000
0100
0010
0000
1000
0000
0010
0000
0001
0000
0010
0000
,  // measure 53
1000
0100
0001
0100
1000
0100
0002
0000
,  // measure 54
1003
0010
0002
0000
0203
0000
2300
0000
,  // measure 55
3002
0000
0000
0000
0013
0000
0010
0000
1000
0000
0100
0000
0010
0100
0000
1000
,  // measure 56
0000
0000
0001
0010
0000
0001
0010
0000
0001
0000
0100
0000
0010
0100
0000
0001
,  // measure 57
0000
0000
1000
0010
0000
1000
0010
0000
1000
0000
0100
0000
0010
0001
0000
0100
,  // measure 58
0000
0000
0001
0010
0000
0001
0010
0000
0001
0000
0100
0000
0010
1000
0000
0100
,  // measure 59
0000
0000
1000
0010
0000
1000
0010
0000
1000
0000
0100
0000
0010
1000
0000
0010
,  // measure 60
0000
0000
0001
0100
0000
0001
0010
0000
0001
0000
0100
0000
0010
0001
0000
0010
,  // measure 61
0000
0000
1000
0100
0000
1000
0010
0000
1000
0000
0010
0000
0100
0000
0010
0100
,  // measure 62
0010
0000
0001
0000
0010
0000
0100
0000
0002
0000
0000
0023
0000
0000
2030
0000
,  // measure 63
0000
3002
0000
0000
0103
0000
1000
0000
2001
0000
0000
0000
0000
0000
0100
0000
,  // measure 64
0000
0000
0100
0100
0000
0000
0000
0000
,  // measure 65
0000
0000
0000
0000
0100
0000
0000
0100
,  // measure 66
0000
0000
0100
0100
0000
0000
0000
0000
,  // measure 67
0000
0000
3000
0000
1002
0000
0000
0100
,  // measure 68
0000
0000
0100
0100
0000
0000
0000
0000
,  // measure 69
0000
0000
0000
0000
0100
0000
0000
0100
,  // measure 70
0000
0000
0100
0100
0000
0000
0000
0000
,  // measure 71
0000
0000
1003
0100
,  // measure 72
1000
0100
0010
0001
,  // measure 73
0010
0001
1000
0010
,  // measure 74
1000
0010
0100
0001
,  // measure 75
0100
0001
1000
1000
,  // measure 76
0001
0001
0010
0010
,  // measure 77
0100
0000
0100
0000
1000
0010
0100
0001
,  // measure 78
0010
0000
0100
0000
1000
0000
0000
0000
0001
1000
0001
0000
0100
0010
0100
0000
,  // measure 79
0010
0100
0010
0000
1000
0100
0010
0001
2000
0000
0000
0000
0000
0000
0000
0000
,  // measure 80
0000
0000
0000
0000
,  // measure 81
0000
0000
0000
0000
,  // measure 82
0000
0000
0000
0000
,  // measure 83
0000
3000
0000
0000
;

//---------------dance-single - XO- DS- XMOD----------------
#NOTEDATA:;
#CHARTNAME:;
#STEPSTYPE:dance-single;
#DESCRIPTION:XO- DS- XMOD;
#CHARTSTYLE:;
#DIFFICULTY:Medium;
#METER:10;
#RADARVALUES:0.281290,0.426879,0.000000,0.259802,0.140157,288.000000,288.000000,0.000000,38.000000,0.000000,0.000000,0.000000,0.000000,0.000000,0.281290,0.426879,0.000000,0.259802,0.140157,288.000000,288.000000,0.000000,38.000000,0.000000,0.000000,0.000000,0.000000,0.000000;
#CREDIT:Karl with a K;
#NOTES:
0000
0000
0000
0000
,
0000
0000
0000
0000
,
0000
0000
0000
0000
,
0000
0000
0000
0000
,
1000
0100
0010
0001
,
0001
0100
0010
1000
,
0001
0001
1000
1000
,
0100
0010
0100
0010
0000
0000
0002
0000
,
0103
0000
0000
0100
0000
0000
0001
0000
0000
0010
0000
0000
0200
0000
0000
0000
,
1300
0000
0000
1000
0000
0000
0010
0000
0000
1000
0000
0000
0200
0000
0000
0000
,
1300
0000
0001
0000
1000
0000
0001
0000
0000
0001
0000
0000
0200
0000
0000
0000
,
0301
1000
0010
0100
0001
0000
2000
0000
,
3100
0000
0000
0100
0000
0000
1000
0000
0000
0010
0000
0000
0200
0000
0000
0000
,
0301
0000
0000
0001
0000
0000
0010
0000
0000
0001
0000
0000
0100
0000
0001
0000
,
1000
0000
0000
0000
0010
0000
1000
0000
0001
0000
1000
0000
0100
0000
0000
0001
,
0000
0000
0100
0000
0000
1000
0000
0000
0002
0000
0000
0000
1003
0000
0010
0000
,
1000
0000
0000
0000
0001
0000
0000
0010
0000
0000
0100
0000
0000
0010
0000
0000
,
0001
0000
1000
0001
1000
0010
1000
0100
,
1000
0000
0000
0000
0001
0000
0000
0100
0000
0000
0010
0000
0000
0100
0000
0000
,
0001
0000
0000
0000
1000
0000
0000
0001
0000
0000
0100
0000
0001
0000
0100
0000
,
0001
0000
0000
0000
1000
0000
0000
0100
0000
0000
0010
0000
0000
0100
0000
0000
,
1000
0000
0001
1000
0001
0100
0001
0010
,
0001
0000
0000
0000
1000
0000
0000
0010
0000
0000
0100
0000
0000
0010
0000
0000
,
1000
0000
0000
0000
0001
0000
0000
1000
0000
0000
0010
0000
1000
0000
0000
1000
,
0000
1000
2000
0000
0000
0000
0100
0000
,
0000
0001
0000
3001
,
0100
0000
0000
0000
0001
0000
0000
0010
0000
0000
0001
0000
0002
0000
0000
0000
,
1000
0000
1000
0000
1000
0000
1003
0010
,
0100
0000
0001
0000
1000
0000
0000
1000
0000
0000
1000
0000
2000
0000
0100
0000
,
0000
0100
0000
0000
3002
0000
0000
0000
0103
0000
0000
0000
0001
0000
0002
0000
,
0000
0023
0230
2300
,
3020
0230
0302
2003
,
0000
0000
0000
0000
,
0000
0000
0000
0000
,
0000
0000
0000
0000
,
0000
0000
0000
3002
,
0000
0000
0000
0000
,
0000
0000
0000
0000
,
0000
0000
0000
0000
,
0000
0000
0000
2003
,
0000
3020
0000
0000
0230
0000
0000
0000
,
0000
0000
0300
0002
,
0000
0203
0000
0000
0320
0000
0000
2030
,
0000
3002
0000
1003
,
0100
0100
1000
0001
,
0100
0000
0100
0000
0001
0000
0001
0100
,
0010
0000
0100
0010
1000
0000
1000
0100
,
0010
0001
0000
0000
0001
0000
0020
0000
,
1030
0010
0001
0100
,
0010
0100
0001
0200
,
1300
0100
0001
0010
,
0100
0000
1000
0000
0000
1000
0000
0000
1000
0000
0010
0000
0000
0001
0000
0000
,
0010
0000
1000
0000
0001
0000
0100
0010
,
0100
0010
1000
0200
,
0301
0200
0301
1000
,
0010
0000
0000
0000
0001
0000
0000
0000
1000
0000
0000
0000
0010
0000
0000
1000
,
0000
0000
0010
0000
0000
1000
0000
0000
0100
0000
0000
0000
0010
0000
0000
0100
,
0000
0000
0010
0000
0000
0100
0000
0000
0010
0000
0000
0000
0001
0000
0000
0010
,
0000
0000
0001
0000
0000
0010
0000
0000
0001
0000
0000
0000
0100
0000
0000
0001
,
0000
0000
0100
0000
0000
0001
0000
0000
0100
0000
0000
0000
0010
0000
0000
0100
,
0000
0000
0010
0000
0000
0100
0000
0000
0001
0000
0000
0000
0010
0000
0000
0100
,
0000
0000
0010
0000
0000
0100
0000
0000
1000
0000
1000
0000
1000
0000
0000
0000
,
0001
0000
0001
0000
0001
0000
0000
0000
1000
0000
0000
0010
0000
0000
0001
0000
,
0000
1000
0000
0000
0200
0000
0000
0000
0302
0000
0000
0000
0000
0000
0000
0000
,
0000
0000
0000
0000
,
0000
0000
0023
0000
,
0000
0000
0000
0000
,
0000
0000
0230
0000
,
0000
0000
0000
0000
,
0000
0000
2300
0000
,
0000
0000
0000
0000
,
0000
0000
3001
0001
,
0001
0001
1000
1000
,
1000
1000
0100
0100
,
0100
0100
0010
0010
,
0010
0010
0001
0100
,
0010
1000
0100
0010
,
0001
0000
1000
0000
0001
0100
0001
0000
,
1000
0100
1000
0000
0100
0010
0100
0010
,
0001
0100
0010
1000
0002
0000
0000
0000
,
0000
0000
0000
0000
,
0000
0000
0000
0000
,
0000
0000
0000
0000
,
0000
0003
0000
0000
;

//---------------dance-single - ----------------
#NOTEDATA:;
#CHARTNAME:;
#STEPSTYPE:dance-single;
#DESCRIPTION:;
#CHARTSTYLE:;
#DIFFICULTY:Easy;
#METER:8;
#RADARVALUES:0.203154,0.341503,0.020511,0.184596,0.020511,208.000000,205.000000,3.000000,27.000000,0.000000,0.000000,0.000000,0.000000,0.000000,0.203154,0.341503,0.020511,0.184596,0.020511,208.000000,205.000000,3.000000,27.000000,0.000000,0.000000,0.000000,0.000000,0.000000;
#CREDIT:Karl with a K;
#NOTES:
0000
0000
0000
0000
,
0000
0000
0000
0000
,
0000
0000
0000
0000
,
0000
0000
0000
0000
,
1000
1000
1000
0000
,
0001
0001
0001
0000
,
1000
0100
0010
0001
,
0100
0010
0000
1000
,
1000
0000
0000
0001
0000
0000
0001
0000
,
0001
0100
0010
1000
,
1000
0000
0000
0001
0000
0000
0001
0000
,
0010
0100
1000
0001
,
0001
0000
0000
1000
0000
0000
1000
0000
,
1000
0010
0100
0001
,
1000
0001
1000
0001
,
0000
0001
0000
0000
0001
0000
1000
0000
,
0100
0010
0100
1000
,
0001
0100
0010
1000
,
0010
0100
0010
1000
,
0001
0010
0110
0001
,
0100
0010
0100
0001
,
1000
0100
0010
0001
,
0010
0100
0010
0001
,
1000
0010
0010
2000
,
0000
3200
0000
0302
,
0000
0203
0000
2300
,
0000
3020
0000
0032
,
0000
0023
0000
1030
,
0001
0100
0100
2000
,
0000
3200
0000
0302
,
0000
0023
0000
2030
,
0000
3010
0001
2002
,
0000
0000
0000
0000
,
0000
0000
0000
0000
,
0000
0000
0000
0000
,
0000
0000
0000
0000
,
0000
0000
0000
0000
,
0000
0000
0000
0000
,
0000
0000
0000
0000
,
0000
0000
3003
2000
,
0000
3020
0000
0230
,
0000
0302
0000
0023
,
0000
0230
0000
2300
,
0000
3002
0000
1003
,
1000
1000
1000
0001
,
0001
0001
0001
0100
,
0010
0100
0010
1000
,
0100
0000
1000
0010
,
0100
0001
1000
0010
,
0001
0010
1000
0100
,
0010
0001
1000
0100
,
2000
0010
3001
0100
,
0010
1000
0001
0100
,
1000
0100
0001
0010
,
0100
1000
0001
0010
,
0010
0000
0000
0000
0010
0000
0000
0000
0001
0000
0000
0000
0100
0000
0000
0001
,
0000
0000
0001
0000
0000
0000
0000
0000
1000
0000
0000
0000
0100
0000
0000
1000
,
0000
0000
1000
0000
0000
0000
0000
0000
0001
0000
0000
0000
0010
0000
0000
0001
,
0000
0000
0001
0000
0000
0000
0000
0000
1000
0000
0000
0000
0010
0000
0000
1000
,
0000
0000
1000
0000
0000
0000
0000
0000
0100
0000
0000
1000
0000
0000
1000
0000
,
0000
0000
0000
0000
0001
0000
0000
0000
0100
0000
0000
0001
0000
0000
0001
0000
,
0000
1000
0010
0100
,
0001
0000
0010
0000
0100
0000
0000
0100
,
0000
0100
0200
0000
,
0000
0000
0000
0000
,
0000
0000
0000
0000
,
0000
0000
0000
0000
,
0000
0000
0000
0000
,
0000
0000
0000
0000
,
0000
0000
0000
0000
,
0000
0000
0000
0000
,
0000
0300
1000
0000
,
1000
0000
1000
0000
,
1000
0000
0001
0000
,
0001
0000
0001
0000
,
0001
0000
1000
0001
,
1000
0001
0100
0010
,
0100
0010
1000
1000
,
0001
0000
0001
0000
1000
0100
1000
0000
,
0001
0100
0001
0000
2002
0000
0000
0000
,
0000
0000
0000
0000
,
0000
0000
0000
0000
,
0000
0000
0000
0000
,
0000
3003
0000
0000
;

//---------------dance-single - ----------------
#NOTEDATA:;
#CHARTNAME:;
#STEPSTYPE:dance-single;
#DESCRIPTION:;
#CHARTSTYLE:;
#DIFFICULTY:Beginner;
#METER:4;
#RADARVALUES:0.107437,0.244590,0.020511,0.027348,0.000000,110.000000,107.000000,3.000000,4.000000,0.000000,0.000000,0.000000,0.000000,0.000000,0.107437,0.244590,0.020511,0.027348,0.000000,110.000000,107.000000,3.000000,4.000000,0.000000,0.000000,0.000000,0.000000,0.000000;
#CREDIT:Karl with a K;
#NOTES:
0000
0000
0000
0000
,
0000
0000
0000
0000
,
0000
0000
0000
0000
,
0000
0000
0000
0000
,
1000
0000
0000
0000
,
1000
0000
0000
0000
,
0001
0000
0000
0000
,
0001
0001
0000
1000
,
0000
0000
0001
0001
,
0000
0000
1000
1000
,
0000
0000
0001
0001
,
0000
0100
0000
0100
,
0000
0000
0010
0010
,
0000
0000
0100
0100
,
0000
0001
0000
1000
,
0000
0100
0000
1000
,
0000
0001
0000
1000
,
0000
0001
0000
1000
,
0000
0001
0000
1000
,
0000
0100
0000
0010
,
0000
0100
0000
0010
,
0000
0100
0000
0010
,
0000
0100
0000
0010
,
0000
0001
0000
1000
,
1000
1000
0000
0000
,
0000
0000
0000
0000
,
0000
0001
0001
0000
,
0000
0000
0000
0000
,
0000
0100
0100
0000
,
0000
0000
0000
0010
,
0000
0010
0000
0100
,
0000
0100
0000
1001
,
0000
0000
0000
0000
,
0000
0000
0000
0000
,
0000
0000
0000
0000
,
0000
0000
0000
0000
,
0000
0000
0000
0000
,
0000
0000
0000
0000
,
0000
0000
0000
0000
,
0000
0000
0000
2000
,
0000
0000
0000
0000
,
0000
0000
3000
0002
,
0000
0000
0000
0000
,
0000
0000
0003
0020
,
0000
0000
0000
0000
,
0000
0000
0030
0200
,
0000
0000
0000
0000
,
0300
0000
0001
0000
,
0100
0000
1000
0000
,
0100
0000
0001
0000
,
0010
0000
1000
0000
,
0010
0000
0001
0000
,
0100
0000
1000
0000
,
0100
0000
0001
0000
,
0010
0000
1000
0000
,
0001
0000
0100
0000
,
1000
0000
0100
0000
,
1000
0000
0001
0000
,
0010
0000
0001
0000
,
0010
0000
0001
0000
,
0100
0000
0001
0000
,
0100
0000
0010
0000
,
1000
0000
0010
0000
,
0000
0000
0110
0000
,
0000
0000
0000
0000
,
0000
0000
0000
0000
,
0000
0000
0000
0000
,
0000
0000
0000
0000
,
0000
0000
0000
0000
,
0000
0000
0000
0000
,
0000
0000
0000
0000
,
0000
0000
1000
0000
,
1000
0000
1000
0000
,
1000
0000
0001
0000
,
0001
0000
0001
0000
,
0001
0000
1000
1000
,
1000
0000
0001
0001
,
0001
0000
0100
0100
,
0100
0100
0100
0100
,
0100
0000
1001
0000
;

//---------------dance-double - ----------------
#NOTEDATA:;
#CHARTNAME:;
#STEPSTYPE:dance-double;
#DESCRIPTION:;
#CHARTSTYLE:;
#DIFFICULTY:Challenge;
#METER:17;
#RADARVALUES:0.535232,0.739924,0.075206,0.540116,0.608485,548.000000,537.000000,11.000000,79.000000,0.000000,0.000000,0.000000,0.000000,0.000000,0.535232,0.739924,0.075206,0.540116,0.608485,548.000000,537.000000,11.000000,79.000000,0.000000,0.000000,0.000000,0.000000,0.000000;
#CREDIT:Karl with a K;
#NOTES:
00000000
00000000
00000000
00000000
,
00000000
00000000
00000000
00000000
,
00000000
00000000
00000000
00000000
,
00000000
00000000
00000000
00000000
,
10000000
00000000
00000000
00000000
00000000
00000000
00000000
00000000
00000000
00000000
00000000
00000000
01000000
00000000
00000000
00000000
00000000
00000000
00000000
00000000
00000000
00000000
00000000
00000000
00100000
00000000
00000000
00000000
00000000
00000000
00000000
00000000
00000000
00000000
00000000
00000000
00001000
00000000
00010000
00000000
00001000
00000000
00010000
00000000
00000000
00001000
00000000
00000000
,
00010000
00000000
00000000
00000000
00000000
00000000
00000000
00000000
00000000
00000000
00000000
00000000
00000010
00000000
00000000
00000000
00000000
00000000
00000000
00000000
00000000
00000000
00000000
00000000
00000100
00000000
00000000
00000000
00000000
00000000
00000000
00000000
00000000
00000000
00000000
00000000
00000001
00000000
00001000
00000000
00000001
00000000
00001000
00000000
00000000
00000001
00000000
00000000
,
00000100
00000100
00001000
00001000
00010000
00010000
00100000
00100000
,
01000000
00010000
01000000
00010000
01000000
00010000
01000000
00010000
00000000
00000000
00000000
00000000
10020000
00000000
00000000
00000000
,
00130000
00000000
01000000
10000000
00000000
10000000
01000000
00100000
00000000
00100000
00002000
00000000
00013000
00000000
00010000
00000000
,
00000020
00000000
00000000
00001030
00000000
00001000
00000100
00000010
00000000
00000010
00000002
00000000
00000203
00000000
00000000
00000000
,
00000310
00010000
00001000
00010000
00001000
00000000
01000000
00100000
00000000
01000000
00200000
00000000
20300000
00000000
00000000
00000000
,
30100000
01000000
00000000
00010000
00100000
00010000
00001000
00000100
00000020
00000000
00000031
00000000
00000002
00000000
00000000
00000000
,
00002003
00000000
00000000
00003100
00000000
00000000
00010000
00001000
00000000
00100000
00020000
00000000
20030000
00000000
00000000
00000000
,
30020000
00000000
00000000
00000000
01030000
00010000
10000000
00100000
10000000
01000000
00200000
00000000
00302000
00000000
00013000
00000000
,
00010000
00000000
00010000
00000010
00001000
00000000
00000100
00000000
00000010
00000000
00000001
00000000
00000200
00000000
00000000
00002300
,
00000000
00000000
00023000
00000000
00000000
00032000
00000000
00000000
00203000
00000000
00000000
00000000
01300000
10000000
00010000
00000000
,
01000000
00001000
00010000
00000000
00001000
00010000
00000100
00000010
00000000
00000001
00001000
00000001
00000000
00001000
00000100
00000000
,
00010000
00001000
01000000
00000000
00010000
10000000
00010000
01000000
00000000
00100000
00020000
00000000
00130000
01000000
00010000
00000000
,
00100000
00010000
10000000
00000000
01000000
00100000
00010000
10000000
00000000
00010000
00100000
00010000
00000000
10000000
01000000
00100000
,
00001000
00010000
00001000
00000000
02000000
00000000
03001000
00020000
00000000
00030100
00001000
00000100
00000010
00000001
00001000
00000000
,
00000010
00010000
00001000
00000000
00010000
00001000
01000000
00100000
00000000
10000000
00010000
10000000
00000000
00010000
01000000
00000000
,
00001000
00010000
00000010
00000000
00001000
00000001
00001000
00000100
00000000
00000010
00002000
00000000
00003010
00000100
00001000
00000000
,
00000100
00001000
00000001
00000000
00000100
00000010
00001000
00000001
00000000
00001000
00000010
00001000
00000000
00000001
00000100
00000010
,
00010000
00001000
00010000
00000000
00000200
00000000
00010300
00002000
00000000
01003000
00010000
01000000
00010000
00000000
00000000
10010000
,
00000000
00110000
00020000
02030000
00000000
23000000
00000000
30010000
,
00000000
00100000
00000000
00000000
00001000
00000000
00010000
00000000
01000000
00100000
10000000
01000000
00100000
00001000
00100000
00000000
,
00001000
00010000
00000000
00000000
00000100
00000010
00000100
00000020
00000000
00000000
00000031
00000000
00000200
00000000
00000000
00000000
,
00002300
00000000
00023000
00000000
00031000
00010000
00001000
00000000
00100000
00010000
01000000
00000000
00010000
00000000
10000000
00100000
,
00010000
00000000
00001000
00000010
00000001
00000000
00000000
00000011
00000000
00000000
00001001
00000000
00001000
00000000
00020000
00000000
,
00000000
00030020
00000000
00000000
00000032
00000000
00000010
00000000
00001003
00000000
00000100
00000000
00001000
00000000
00020000
00000000
,
00000000
00000000
00130000
00010000
10000000
00010000
01000000
00010000
01000000
00000000
00001000
00010000
00001000
00000000
00010000
00000100
,
00000010
00000000
00000100
00001000
00000010
00000000
00000001
00000010
00001000
00000000
00000010
00000000
00021000
00000000
00000000
00000000
,
00000000
00000000
00000000
00000000
,
00000000
00000000
00000000
00000100
,
00000000
00000100
00000000
00000000
00000100
00000200
00000000
00000000
,
00000000
00000000
00030000
00000010
,
00000000
00000010
00000000
00000000
00000010
00000020
00000000
00000000
,
00000000
00000000
00000300
00000001
,
00000000
00000001
00000000
00000000
00000001
00000002
00000000
00000000
,
00000000
00000000
00000033
00000002
,
00000100
00002003
00000001
00003020
,
00001000
00020030
00001000
00030200
,
00001000
00020300
00001000
00032000
,
00010000
00203000
00310000
00010000
,
01000000
00100000
10000000
00010000
,
00100000
00000000
00001000
00000000
00001000
00000000
01000000
01000000
,
00010000
00000000
00010000
00000000
00001000
00000000
00001000
00000000
00000010
00000000
00000010
00000000
00001000
00000100
00001000
00000100
,
00001000
00000100
00001000
00000100
00000000
00000000
00000000
00000000
00012000
00000000
00000000
00000000
00203000
00000000
00000000
00310000
,
00000000
00010000
10000000
00100000
00020000
00000000
00032000
00000000
00013000
00001000
01000000
00000000
00001000
00010000
00000100
00000000
,
00010000
00001000
01000000
00001000
00010000
00000200
00000000
00000000
00020300
00000000
00000000
00000000
00030020
00000000
00000000
00001030
,
00000000
00001000
00000001
00000010
00002000
00000000
00023000
00000000
00030010
00010000
00001000
00010000
00001000
00100000
00001000
00010000
,
00000010
00000000
00010000
00001000
00000000
00000200
00000000
00000000
00000301
00000000
00000010
00000100
00000000
00010000
00000100
00000000
,
00010000
00001000
00010000
00001000
00000000
01000000
00100000
00000000
20000000
00000000
00000000
00000000
31000000
00100000
00010000
00100000
,
01000000
00100000
00010000
00100000
00002000
00000000
00000000
00000000
00013000
00000000
01000000
00000000
20000000
00000000
00000000
00000000
,
30100000
00000000
00010000
00000000
00002000
00000000
00000000
00000000
00003010
00000000
00000001
00000100
00000010
00000000
00001000
00000100
,
00010000
00000000
00001000
01000000
00100000
00000000
10000000
00000000
10020000
00000000
00000000
00000000
01030000
00010000
00000000
00001000
,
00000000
00010000
01000000
00100000
00000000
00010000
00001000
00000000
00020000
00000000
00000000
00000000
00031000
00000010
00000000
00000100
,
00000000
00000000
00000010
00000001
00000000
00000010
00000100
00000000
00002001
00000000
00000000
00000000
00003010
00001000
00000000
00010000
,
00000000
00001000
00000010
00000100
00000000
00001000
00010000
00000000
00002000
00000000
00000000
00000000
00013000
01000000
00000000
00100000
,
00000000
00000000
01000000
10000000
00000000
01000000
00100000
00000000
10020000
00000000
00000000
00000000
00130000
00010000
00000000
00001000
,
00000000
00010000
00100000
01000000
00000000
00010000
00001000
00000000
00020000
00000000
00000000
00000000
00031000
00000100
00000000
00000010
,
00000000
00000000
00000100
00000001
00000000
00000010
00000100
00000000
00000001
00000000
00000100
00000000
00001000
00000000
00000100
00000000
,
00001000
00000000
00000010
00000000
00000001
00000000
00000010
00000000
00000002
00000000
00000000
00000023
00000000
00000000
00002030
00000000
,
00000000
00003200
00000000
00000000
00010300
00000000
00000000
00000000
00021000
00000000
00000000
00000000
00000000
00000000
00001000
00000000
,
00000000
00000000
00001000
00002000
00000000
00000000
00000000
00000000
,
00000000
00000000
00030000
00000000
01000000
00000000
00000000
01000000
,
00000000
00000000
01000000
02000000
00000000
00000000
00000000
00000000
,
00000000
00000000
00003000
00000000
00100000
00000000
00000000
00100000
,
00000000
00000000
00100000
00200000
00000000
00000000
00000000
00000000
,
00000000
00000000
03000000
00000000
10000000
00000000
00000000
10000000
,
00000000
00000000
10000000
20000000
00000000
00000000
00000000
00000000
,
00000000
30300000
10000000
01000000
,
00010000
01000000
10000000
00100000
,
00010000
00001000
00100000
00001000
,
00010000
00001000
00100000
00010000
,
00001000
00000010
00000001
00000010
,
00001000
00000000
00000000
00000000
00000000
00000000
00000000
00000000
00000000
00000000
00000000
00000000
00000100
00000000
00001000
00000000
00000100
00000000
00001000
00000000
00000000
00000100
00000000
00000000
00001000
00000000
00000000
00000000
00000000
00000000
00000000
00000000
00000000
00000000
00000000
00000000
00000100
00000000
00000000
00000000
00000000
00000000
00000000
00000000
00000000
00000000
00000000
00000000
,
00010000
00000000
00000000
00000000
00000000
00000000
00000000
00000000
00000000
00000000
00000000
00000000
00001000
00000000
00010000
00000000
00001000
00000000
00010000
00000000
00000000
00001000
00000000
00000000
01000000
00000000
00000000
00000000
00000000
00000000
01000000
00000000
00000000
00000000
00000000
00000000
00010000
00000000
00000000
00000000
00000000
00000000
00010000
00000000
00000000
00000000
00000000
00000000
,
00001000
00000000
00001000
00000000
00000100
00000000
00000100
00000000
00000010
00000001
00000010
00000001
00000010
00000001
00000010
00000001
,
00001000
00000100
00010000
00001000
01000000
00100000
10000000
00100000
02000000
00000000
00000000
00000000
00000000
00000000
00000000
00000000
,
00000000
00000000
00000000
00000000
,
00000000
00000000
00000000
00000000
,
00000000
00000000
00000000
00000000
,
00000000
03000000
00000000
00000000
;
