#TITLE:VALEDICT;
#SUBTITLE:;
#ARTIST:void(Mounfinale);
#TITLETRANSLIT:;
#SUBTITLETRANSLIT:;
#ARTISTTRANSLIT:;
#GENRE:;
#CREDIT:;
#MUSIC:VALEDICT.ogg;
#BANNER:VALEDICT.png;
#BACKGROUND:VALEDICT-bg.png;
#CDTITLE:;
#SAMPLESTART:104.438;
#SAMPLELENGTH:15.000;
#SELECTABLE:YES;
#OFFSET:0.179;
#BPMS:0.000=156.000
,112.000=78.000
,128.000=156.000
;
#STOPS:;
#BGCHANGES:;
#FGCHANGES:;

//--------------- dance-single - ----------------
#NOTES:
     dance-single:
     :
     Beginner:
     3:
     0,0,0,0,0:
0000
0000
0000
0000
,
0000
0000
0000
0000
,
0000
0000
0000
0000
,
0000
0000
0000
0000
,
1000
0000
0000
0000
,
0001
0000
0000
0000
,
0100
0000
0000
0000
,
0010
0000
0000
0000
,
1000
0000
0001
0000
,
0100
0000
0010
0000
,
1000
0000
0100
0000
,
0020
0000
0030
0000
,
0001
0000
0000
0100
,
0100
0000
0000
0010
,
0010
0000
0000
0000
,
1000
0000
0000
0000
,
1001
0000
0001
0000
,
1000
0000
0010
0000
,
0100
0000
0001
0000
,
0010
0000
0100
0000
,
1000
1001
0000
0001
,
0000
0001
0000
1000
,
0000
0010
0000
0100
,
0000
0001
0000
0010
,
0010
0010
0000
0100
,
0000
0001
0000
1000
,
1000
0000
0001
0000
,
0020
0000
0030
0000
,
1000
0000
0001
0000
,
0100
0100
0000
0000
,
0001
0000
1000
1000
,
1000
0000
0010
0000
,
1000
0000
1001
0000
,
0100
0000
0110
0000
,
0010
0000
1001
0000
,
1000
0000
1001
0000
,
0010
0000
1001
0000
,
0100
0000
1001
0000
,
0001
0000
1000
0000
,
0001
0000
0000
0000
,
1000
0000
0001
0000
,
0100
0000
0010
0000
,
1000
0000
0001
0000
,
0010
0000
0000
0000
,
0100
0000
0010
0000
,
0100
0000
0010
0000
,
1000
0000
0001
0000
,
0020
0000
0030
0000
,
1000
0000
0000
0000
0000
0001
0000
0000
,
0000
1000
0000
0000
0000
0001
0000
0000
,
0000
0010
0000
0000
0000
0100
0000
0000
,
0000
1000
0000
0000
0000
0001
0000
0000
,
0000
0010
0000
0000
0000
0100
0000
0000
,
0000
1000
0000
0000
0000
0001
0000
0000
,
0000
1000
0000
0000
0001
0000
0000
1000
,
0000
0000
0001
0000
,
0100
0000
0000
0000
,
0010
0000
0000
0000
,
0100
0000
0000
0000
,
0001
0000
0000
0000
,
1000
0000
0000
0000
,
0100
0000
0000
0000
,
0010
0000
0001
0000
,
2000
0000
3000
0000
,
1001
0000
0100
0000
,
0010
0000
0100
0000
,
0001
0000
1000
0000
,
0100
0000
1000
0000
,
0010
0010
0000
0100
,
0000
0001
0000
1000
,
1000
0000
0001
0000
,
0020
0000
0030
0000
,
0000
1001
0000
0000
,
0100
0000
0000
0000
,
0010
0000
0000
0000
,
1000
0000
0000
0000
,
0010
0000
0000
0000
,
0100
0000
0000
0000
,
0002
0000
0000
0000
,
0003
0000
0000
0000
;

//--------------- dance-single - ----------------
#NOTES:
     dance-single:
     :
     Easy:
     8:
     0,0,0,0,0:
0000
0000
0000
0000
,
0000
0000
0000
0000
,
0000
0000
0000
0000
,
0000
0000
0000
0000
,
2000
0000
0000
0000
,
3002
0000
0000
0000
,
0203
0000
0000
0000
,
0320
0000
0000
0000
,
1030
0001
1000
0010
,
0100
0001
0010
0100
,
1000
0001
1000
0010
,
0200
0000
0301
1000
,
0001
0100
0001
0000
0100
0000
0010
0000
,
1000
0001
1000
0000
0010
0000
0200
0000
,
0301
0010
0000
0001
0010
0000
0001
0000
,
1000
0010
0100
0001
,
1001
0000
1000
0000
0001
0000
0100
0010
,
0100
0000
0001
0000
0010
0000
0100
1000
,
0100
0000
0010
0000
0001
0000
1000
0010
,
1000
0000
0001
0000
0100
0010
0100
0010
,
1000
0000
1001
0000
0001
0000
0100
0010
,
0100
0000
0001
0000
0010
0000
0100
1000
,
0100
0000
0010
0000
0001
0000
0100
0010
,
0100
0000
0001
0000
0010
0000
0100
1000
,
0001
1000
0100
0010
,
0001
0100
0010
0001
,
0010
0100
0010
1000
,
0002
0000
0000
2003
0000
0000
3001
0000
,
1M01
0000
0000
0000
0000
0001
0000
0000
2000
0000
0000
0000
3000
0010
0000
0000
,
1000
0100
0010
0002
0000
0000
0003
0000
,
1000
0000
0000
0001
0000
0000
0100
0000
0010
0000
1000
0000
0010
0000
0000
0000
,
1000
0000
0000
0001
0000
0000
0000
0000
0100
0000
0010
0000
1000
0000
0001
0000
,
10M0
0000
0001
0000
0100
0002
0000
0000
,
0103
0000
0010
0000
0010
2000
0000
0000
,
3001
0000
0100
0000
0110
0000
0010
2000
,
0000
0000
3000
0001
0100
0000
0010
0000
,
2000
3000
1001
0001
,
0100
0010
1010
1000
,
0001
0000
0010
0000
1100
0000
1000
0001
,
0100
0000
0010
1000
,
0001
0100
0001
0100
,
1000
0000
0001
0000
0100
0010
0100
0000
,
0001
0010
0100
1000
,
0100
0010
0000
0002
0000
1003
0020
0000
,
0130
0000
0001
0000
0010
0000
0100
1000
,
0100
0000
0010
0001
0010
0000
0100
0000
,
1000
0000
0100
0000
0010
0000
0001
1000
,
0002
0000
0103
0000
,
0010
0000
1000
0000
0000
0010
0000
0000
1000
0000
0001
0000
0000
0000
1000
0000
,
0100
0000
1000
0000
0000
0010
0000
0000
0100
0000
0001
0000
0000
0000
1000
0000
,
0100
0000
0010
0000
0000
0001
0000
0000
0100
0000
0010
0000
1000
0000
0000
0000
,
0001
0100
0000
0010
1000
0000
0001
0000
,
1000
0000
0010
0000
0000
0100
0000
0000
0001
0000
0100
0000
0000
0000
0001
0000
,
0010
0000
0100
0000
0000
1000
0000
0000
0001
0000
1000
0000
0000
0000
0001
0000
,
0010
0001
1000
0001
0100
0010
0100
0001
,
2000
3001
0020
0130
,
1000
0000
0000
0000
,
0001
0000
0100
0000
,
0010
0000
1000
0001
,
1000
0000
0010
0100
,
0001
0010
0001
0100
,
0010
1000
0100
1000
,
1001
0000
0000
0000
1001
0000
0000
0000
1000
0000
0000
0010
0000
0000
0100
0000
,
0002
0000
0000
1003
0002
0000
0003
0000
,
1000
0001
1000
0000
0010
0000
0100
0000
,
0001
0010
0001
0000
0100
0000
0010
0000
,
1000
0100
1000
0000
0001
0000
0010
0000
,
0100
1000
0100
0000
0010
0000
0001
0000
,
1000
0000
1001
0000
0001
0000
0100
0010
,
0100
0000
0001
0000
0010
0000
0100
1000
,
0001
0000
0100
0000
0010
0000
1000
0001
,
2000
0000
0000
0000
3010
0100
0001
0100
,
0010
2000
0000
0000
,
3002
0000
0000
0000
,
2003
0000
0000
0000
,
3020
0000
0000
0000
,
2030
0000
0000
0000
,
3020
0000
0000
0030
,
0002
0000
0000
0000
,
0003
0000
0000
0000
;

//--------------- dance-single - ----------------
#NOTES:
     dance-single:
     :
     Medium:
     11:
     0,0,0,0,0:
0000
0000
0000
0000
,
0000
0000
0000
0000
,
0000
0000
0000
0000
,
0000
0000
0000
0000
,
1002
0000
0000
0000
,
0203
0000
0000
0000
0000
0000
0300
0010
,
0020
0000
0000
0000
,
2030
0000
0000
0000
0000
0000
3000
0001
,
0001
0100
0010
1000
,
0100
0010
0001
0100
,
0002
1000
0100
1000
,
2003
0000
0001
0000
3001
0010
0100
1000
,
0001
0000
0100
0000
0001
0000
0000
1000
0000
0000
0010
0000
0200
0000
0000
0000
,
0301
0010
0001
1000
0010
1000
0002
0000
,
1003
0100
0001
0100
0010
0100
1000
0000
,
0001
0010
0001
1000
0010
1000
0001
0000
,
1001
0000
0000
0000
1000
0000
0000
0010
0000
0000
0100
0000
0001
0000
0000
0000
,
1000
0000
0001
0000
1000
0000
0000
0010
0000
0000
0100
0000
0001
0000
0010
0000
,
0001
1000
0001
0100
0010
0100
0001
1000
,
0001
0000
0010
0100
1000
0100
0010
0001
,
1000
0000
0000
0000
1010
0000
0000
0010
0000
0000
1000
0000
0001
0000
0010
0000
,
0100
0000
1000
0000
0001
0000
0000
0100
0000
0000
0010
0000
0100
0000
0001
0000
,
1000
0000
0100
0000
0010
0000
0000
0001
0000
0000
0010
0000
0100
0000
1000
0000
,
0002
0000
0000
0000
0103
0000
0000
0010
0000
0000
1000
0000
0100
0000
0010
0000
,
0001
0000
0000
0000
1000
0000
0000
0010
0000
0000
0100
0000
0001
0000
0010
0000
,
0001
0000
0100
0000
0001
0000
0000
1000
0000
0000
0100
0000
0010
0000
0001
0000
,
1000
0100
1000
0001
0100
0010
1000
0001
,
0020
0000
0000
0032
0000
0000
1003
0000
,
2M02
0000
0000
3003
0000
0001
0000
1000
0002
0000
0000
0003
0000
0010
0000
0100
,
1000
0000
0001
0000
0010
0000
0100
2000
0000
0000
3000
0000
0000
0000
0000
0001
,
2000
0000
0000
0000
0000
0000
0000
0000
0000
3010
0000
0000
0000
0000
0000
0000
0000
0000
0100
0000
0000
0000
0000
0000
0001
0000
0000
0000
0000
0000
0010
0000
0000
0000
0000
0000
0100
0000
0000
0000
1000
0000
0000
0000
0001
0000
0000
0000
,
0200
0000
0000
0000
0000
0000
0301
0000
0000
0000
0000
1000
0000
0000
0001
0000
2000
0000
0000
0000
0000
0000
0000
0000
3010
0000
0000
0000
1000
0000
0000
0000
,
1M10
0000
0010
0000
0110
0200
0000
0301
,
0200
0000
0300
0000
0110
0020
0000
1030
,
0001
0000
0100
0000
0110
0000
0010
2000
,
0001
0000
3000
0010
0110
0000
0100
0000
,
0001
0000
1000
0010
1010
0000
2000
0000
,
3001
0000
0010
0001
0021
0000
0031
1000
,
0001
0000
0000
0100
0000
0000
0010
0000
1010
0000
0000
0000
1000
0000
0001
0000
,
1000
0010
0100
0001
0000
0000
0001
0000
,
1000
0000
0000
0100
0000
0010
0000
0001
0000
0000
0010
0000
0100
0000
1000
0000
,
0001
0000
0000
0100
0000
0010
0000
0000
1000
0000
0010
0000
0100
0000
0001
0000
,
1000
0000
0000
0100
0000
1000
0000
0100
0000
0000
0010
0000
0001
0000
0010
0000
,
0001
0000
0000
0100
0000
0001
0000
0100
0000
0000
0010
0000
1000
0000
0010
0000
,
1000
0000
0000
0100
0000
0010
0000
0001
0000
0000
0100
0000
0010
0000
1000
0000
,
0001
0000
0000
0010
0000
0100
0000
0000
1000
0000
0010
0000
0100
0000
0001
0000
,
1000
0000
0000
0001
0000
0010
0000
0100
0000
0000
1000
0000
0001
0000
1000
0000
,
0010
0000
0000
0100
0000
0001
0000
0010
0000
0000
0100
0000
1000
0000
0001
0000
,
1000
0000
0010
0000
0000
0100
0000
0000
0001
0000
0001
0000
0000
1000
0010
0000
,
0100
0000
0000
0000
0000
0000
0000
0000
0000
0000
0000
0000
0000
0000
0000
0000
0000
0000
0000
0000
0000
0000
0000
0000
0001
0000
0000
0000
0000
0000
0000
0000
0000
0000
0000
0000
0000
0000
0000
0000
0000
0000
0000
0000
0000
0000
0000
0000
0000
0000
0000
0000
0000
0000
0000
0000
0000
0000
0000
0000
0100
0000
0000
0000
0000
0000
0000
0000
0000
0000
0000
0000
0000
0000
0000
0000
0000
0000
0000
0000
0000
0000
0000
0000
0000
0000
0000
0000
0000
0000
0000
0000
0000
0000
0000
0010
0010
0000
0000
0000
0000
0000
0000
0000
0000
0000
0000
0000
0000
0000
0000
0000
0000
0000
0000
0000
0000
0000
0000
0000
0010
0000
0000
0000
0000
0000
0000
0000
0000
0000
0000
0000
0000
0000
0000
0000
0000
0000
0000
0000
0000
0000
0000
0000
0000
0000
0000
0000
0000
0000
0000
0000
0000
0000
0000
0000
0000
0000
0000
0000
0000
0000
0000
0000
0000
0000
0000
0000
1000
0000
0000
0000
0000
0000
0000
0000
0000
0000
0000
0000
0000
0000
0000
0000
0000
0000
0000
0000
0000
0000
0000
0000
,
0001
0000
0100
0000
0000
0010
0000
0000
1000
0000
1000
0000
0001
0000
0000
0000
,
1000
0000
1000
0000
0000
0010
0000
0000
0100
0000
0000
0000
0101
0000
0000
0000
,
0001
0000
0001
0000
0000
1000
0000
0000
0010
0000
0010
0000
0000
0100
0000
0000
,
0001
0000
0010
0000
0000
0100
0000
0000
1000
0000
0001
0000
0000
0000
0100
0000
,
0010
1000
0010
0100
0001
0010
0001
1000
,
0010
0110
0101
0012
,
0103
0010
0000
1000
,
0001
0100
0001
1000
0010
1000
0001
0000
,
0100
0000
0000
0010
0000
0000
0100
0000
0001
0000
0000
0000
1000
0000
0010
0000
,
1000
0100
0010
0001
0010
0100
1000
0000
,
0001
0000
0010
0000
0100
0000
0000
1000
0000
0000
0001
0000
0100
0000
0010
0000
,
1000
0000
0100
0000
0010
0000
0000
0100
0000
0000
1000
0000
0001
0000
0100
0000
,
0110
0000
0000
0000
1010
0000
0000
0000
1001
0000
0000
0001
0100
0000
0010
0000
,
2000
0000
3001
0010
0100
0000
1000
0000
,
0001
0000
0010
0000
0001
0000
0000
1000
0000
0000
0010
0000
0100
0000
0001
0000
,
0010
0000
0100
0000
1000
0000
0000
0001
0000
0000
0100
0000
0010
0000
0100
0000
,
0001
0000
0010
0000
0100
0000
0000
1000
0000
0000
0001
0000
0010
0000
0001
0000
,
0100
0000
0010
0000
0100
0000
0000
0001
0000
0000
0010
0000
0100
0000
1000
0000
,
0001
0000
1000
0010
0000
0100
0001
0010
,
0001
0100
0010
1000
0000
0001
0010
0100
,
1000
0001
0100
0010
0100
0001
0010
0100
,
1000
0000
0001
0000
0100
0000
0000
0010
0000
0000
1000
0000
0001
0000
0000
0000
,
0010
2002
0000
3003
,
0002
0000
0000
0000
2003
0000
0000
3001
,
0002
0000
0000
0000
,
0203
0000
0000
0000
0000
0000
0300
0010
,
0020
0000
0000
0000
,
2030
0000
0000
0000
0000
0000
3000
0010
,
0020
0000
0000
0000
,
0000
0000
0030
0000
;

//--------------- dance-single - XO SJ ----------------
#NOTES:
     dance-single:
     XO SJ:
     Hard:
     15:
     0,0,0,0,0:
0000
0000
0000
0000
,
0000
0000
0000
0000
,
0000
0000
0000
0000
,
0000
0000
0000
0000
,
2001
0000
0000
0000
,
3002
0000
0000
0000
0000
0000
0000
0000
0000
0000
0000
0000
0003
0000
0100
0010
,
0200
0000
0000
0000
,
0320
0000
0000
0000
0000
0000
0000
0000
0000
0000
0000
0000
0030
0000
1000
0001
,
1000
0010
0000
0010
0000
0100
0000
0001
0000
0000
1000
0100
0000
1000
0001
0000
,
1000
0100
0000
0100
0000
0010
0000
0001
0000
0000
1000
0010
0000
1000
0001
0000
,
0001
0100
0000
0100
0000
0010
0000
1000
0000
0000
0001
0100
0000
0010
1000
0001
,
2000
0000
0000
0000
3001
0010
0002
0000
,
1003
0000
0000
0100
0000
0000
1000
0000
0000
0100
0000
0000
1000
0000
0000
0000
0000
0000
0001
0000
0000
0010
0000
0000
0000
0000
0000
0010
0000
0000
0000
0000
0000
0000
0000
0000
0001
0000
0000
0000
0100
0000
0000
0000
0010
0000
0000
0000
,
1000
0000
0100
0000
0001
0000
1000
0000
0010
0000
0001
0000
1000
0100
0000
0000
,
1000
0000
0010
0100
0000
0000
0001
0000
1000
0000
0100
0000
0010
0001
0010
0000
,
0001
0000
0000
0100
0000
0000
1000
0000
0000
0001
0000
0000
0010
0000
0000
1000
0000
0000
0001
0000
0100
0000
0010
0000
,
0100
0000
0001
0000
0100
0000
0001
0010
0000
0010
0000
0100
1000
0000
1000
0000
,
0001
0000
1000
0000
0001
0000
0100
0010
0000
0010
0000
1000
0001
0000
0001
0000
,
1000
0000
0100
0000
0001
0000
0100
0000
0010
0000
0100
0000
1000
0001
1000
0000
,
0010
0000
0100
0000
0001
1000
0001
0000
0100
0010
0100
0000
0001
0010
0001
0000
,
1000
0000
0001
0000
1001
0000
1000
0100
0000
0010
0001
0000
0100
0000
0010
0000
,
0100
0000
0001
0000
0010
0000
0100
1000
0000
0100
1000
0000
0001
0000
0100
0000
,
1000
0000
0100
0000
0001
0000
0100
0010
0000
0100
0001
0000
1000
0000
0010
0000
,
0001
0000
0010
0000
1000
0000
0001
0010
0000
0100
1000
0000
0001
0000
1000
0000
,
0001
0000
0000
0000
0100
0000
0000
0000
0010
0000
0000
0000
0100
0000
0000
0000
0000
0000
0001
0000
0000
0010
0000
0000
0000
0000
0000
0100
0000
0000
1000
0000
0000
0000
0000
0000
0001
0000
0000
0000
0000
0000
0100
0000
0000
0000
0000
0000
,
1000
0000
0100
0000
0001
0000
1000
0010
0000
0100
0010
0000
0100
0000
0001
0000
,
1000
0000
0010
0000
0100
0000
0010
0100
0000
0010
1000
0000
0001
0000
0100
0000
,
0002
0000
0000
2003
0000
0000
3001
0000
,
20M2
0000
0000
3003
0000
0001
0000
1000
0020
0000
0000
0030
0000
0100
0000
0001
,
2000
0000
0000
0000
3020
0000
0000
0000
0130
0000
0000
0000
0001
0000
0200
0000
0000
0000
0000
0000
0000
0000
0000
0000
0300
0000
0000
0000
0000
0000
0001
1000
,
0002
0000
0000
0000
0000
0000
0000
0000
0000
0103
0000
0000
0000
0000
0000
0000
0000
0000
0010
0000
0000
0000
0000
0000
2000
0000
0000
0000
0000
0000
3002
0000
0000
0000
0000
0000
0103
0000
0000
0000
0001
0000
0000
0000
0010
0000
0000
0000
,
0200
0000
0000
0000
0000
0000
1300
0000
0001
0000
0000
0100
0000
0000
0010
0000
1010
0000
0000
0000
0110
0000
0000
0000
0100
0000
0001
0000
0100
0000
0001
0000
,
10M0
0001
0100
0010
1001
2000
0000
3001
,
1000
0010
0100
0000
0101
0002
0000
1003
,
0002
0000
0103
0000
0110
0010
1000
0100
,
0010
0000
0000
0001
0000
0000
1000
0000
0000
0100
0000
0000
1001
0000
0000
0000
0000
0000
0001
0000
0010
0000
0100
0000
,
1000
0000
0000
0010
0000
0000
0100
0000
0000
0001
0000
0000
0021
0000
0000
0000
0000
0000
0031
0000
0100
0000
0010
0000
,
1000
0000
0000
0000
0100
0000
0000
0000
0010
0000
0000
0000
0100
0000
0000
0000
0000
0000
1000
0000
0000
0000
0000
0000
1100
0000
0000
0000
0000
0000
0000
0000
0000
0000
0000
0000
0010
0000
0000
0001
0000
0000
0010
0000
0000
0000
0000
0000
,
0001
0000
0000
0010
0000
0000
0100
0000
2100
0000
0000
0000
3001
0000
0100
0000
,
0010
0000
1000
0000
0001
0000
0000
1000
0000
0000
0010
0000
0100
0000
0000
0000
,
0001
0100
0000
1000
0000
0100
0000
0010
0000
0100
0001
0000
1000
0000
0001
0000
,
1000
0010
0000
0001
0000
0010
0000
1000
0001
0000
0010
0000
0100
0000
1000
0000
,
0001
0100
0000
0010
0000
0001
0000
0010
0000
0100
0001
0000
1000
0000
0001
0000
,
1000
0100
0000
0010
0000
1000
0000
0010
0000
0001
1000
0000
0001
0000
1000
0000
,
0001
0100
0000
0010
0000
0001
0000
0010
0000
0100
0001
0000
1000
0000
0001
0000
,
1000
0010
0000
0100
0000
1000
0000
0100
0000
0001
1000
0000
0010
0000
0100
0000
,
0001
0010
0000
1000
0000
0010
0000
0100
0000
0010
0001
0000
1000
0000
0001
0000
,
1000
0010
0000
0010
0000
0100
0000
0100
0000
0001
0100
0000
0010
0000
1000
0000
,
0001
0100
0001
0000
0000
0100
0000
0000
1010
0000
0010
0000
0000
1000
0100
0000
,
0010
0000
0011
0000
0000
0001
0000
0000
0010
0000
0110
0000
0000
0100
1000
0100
,
1000
0000
0000
0000
0000
0000
0001
0000
0000
0000
0000
0000
0000
0000
0000
1000
0000
0000
0100
0000
0000
0000
0000
0000
0010
0000
0000
0000
0000
0000
0001
0000
0000
0000
0000
0000
1000
0000
0000
0000
0010
0000
0000
0000
0100
0000
0000
0000
,
0010
0000
0000
0000
0000
0000
0010
0000
0000
0000
0000
0000
0000
0000
0000
0100
0000
0000
0001
0000
0000
0000
0000
0000
1000
0000
0000
0000
0001
0000
0000
0000
0010
0000
0000
0000
0001
0000
0000
0000
0000
0000
0100
0000
0000
0000
0000
0000
,
0010
0000
0110
0000
0000
0100
0000
0000
0001
0000
1001
0000
0000
1000
0100
0000
,
0010
0000
0011
0000
0000
0001
0000
0000
1000
0000
1010
0000
0000
1000
0100
0010
,
0001
0000
1000
0100
1000
0100
1000
0000
0001
0010
0001
0010
0001
0000
1000
0000
,
0001
0010
0100
1000
0100
0010
0001
1000
0010
0200
0000
0000
,
0301
0000
0000
1000
0000
0000
0001
0000
0000
1000
0000
0000
0001
0000
0000
0000
0000
0000
0000
0000
0000
0100
0000
0000
0000
0000
0000
0000
0000
0000
0010
0000
0000
0000
0000
0000
1000
0000
0000
0000
0100
0000
0000
0000
1000
0000
0000
0000
,
0010
0100
0001
0010
0100
1000
0002
0000
,
1003
0000
0000
0001
0000
0000
1000
0000
0010
0000
0100
0000
0010
0000
1000
0000
,
0001
0000
0000
0010
0000
0000
0001
0000
0000
0100
0000
0000
0010
0000
0000
0100
0000
0000
0001
0000
0010
0000
0100
0000
,
1000
0000
0001
0000
1000
0000
0001
1000
0000
0001
0000
1000
0001
0000
1000
0000
,
0001
0000
0010
0000
0001
0000
0010
0001
0000
0010
0000
0001
2000
0000
3010
0000
,
1010
0000
0000
0000
0110
0000
0000
0000
0101
0000
0000
0001
0000
0000
1000
0000
,
0002
0000
1003
0010
0100
0001
0100
0010
,
1000
0000
0100
0000
0010
0000
0001
0100
0000
0010
1000
0000
0001
0000
0001
0000
,
1000
0000
0100
0000
0010
0000
0001
0100
0000
0010
1000
0000
0001
0000
0001
0000
,
1000
0000
0010
0000
0100
0000
0001
0010
0000
0100
1000
0000
0001
0000
0001
0000
,
1000
0000
0010
0000
0100
0000
0001
0010
0000
0100
1000
0000
0001
0000
0100
0000
,
0001
0000
0000
0000
1000
0000
0000
0000
0100
0000
0000
0000
0010
0000
0000
0000
0000
0000
0001
0000
0000
0100
0000
0000
0000
0000
0000
0001
0000
0000
0100
0000
0000
0000
0000
0000
0010
0000
0000
0000
0000
0000
0010
0000
0000
0000
0000
0000
,
1000
0001
1000
0000
0001
0000
0100
0010
0000
0100
0010
0000
1000
0000
0001
0000
,
1000
0100
1000
0000
0001
0000
1000
0100
0000
0010
0001
0000
1000
0000
0010
0000
,
1000
0000
0000
0000
0000
0000
0001
0000
0000
0000
0000
0000
1000
0000
0000
0000
0000
0000
0010
0000
0000
0100
0000
0000
0000
0000
0000
0001
0000
0000
0100
0000
0000
0000
0000
0000
0010
0000
0000
0000
1000
0000
0000
0000
0010
0000
0000
0000
,
0100
0202
0000
0303
,
2000
0000
0000
0000
0000
0000
0000
0000
3020
0000
0000
0000
0030
0000
0100
0001
,
0200
0000
0000
0300
,
0020
0000
0000
0000
0030
0000
0000
0000
2000
0000
0000
0000
3001
0000
0010
0100
,
2000
0000
0000
3000
,
0002
0000
0000
0000
0000
0000
0000
0000
2003
0000
0000
0000
3000
0000
0001
0010
,
0002
0000
0000
0000
,
0000
0000
0000
0000
,
0003
0000
0000
0000
;

//--------------- dance-single - XO FS BU FL- ----------------
#NOTES:
     dance-single:
     XO FS BU FL-:
     Challenge:
     17:
     0,0,0,0,0:
0000
0000
0000
0000
,
0000
0000
0000
0000
,
0000
0000
0000
0000
,
0000
0000
0000
0000
,
2000
0000
0000
0000
,
3002
0000
0000
0000
0000
0000
0000
0000
0000
0000
0000
0000
0003
0000
1000
0001
,
0020
0000
0000
0000
,
0032
0000
0000
0000
0000
0000
0000
0000
0000
0000
0000
0000
0000
0000
1003
0001
,
2000
0010
0000
3010
0100
0000
0001
1000
0001
0000
1000
0010
0000
0100
0001
0100
,
0002
1000
0000
1003
0010
0000
1000
0001
1000
0000
0001
0000
0100
0010
0100
0010
,
2000
0001
0000
3001
0100
0000
0010
0000
1000
0000
0001
0000
0010
0000
0100
0000
,
2000
0000
0000
0000
0000
0000
0000
0000
0000
0000
0000
0000
0000
0000
0000
0000
0000
0000
0000
0000
0000
0000
0000
0000
3001
0000
0000
0000
0000
0000
1000
0000
0000
0001
0000
0000
1000
0000
0010
0000
0100
0000
0001
0000
1000
0000
0100
0000
,
1000
0000
0000
0001
0000
0000
0100
0000
0000
0010
0000
0000
0001
0000
0000
0000
0000
0000
0010
0000
0000
0100
0000
0000
0000
0000
0000
0001
0000
0000
0100
0000
0000
0000
0000
0000
0001
0000
0000
0000
0100
0000
00M0
0000
0100
0000
0000
0000
,
1000
0000
0000
0100
0000
0000
0010
0000
0000
0001
0000
0000
1000
0000
0000
0000
0000
0000
0001
0000
0000
0010
0000
0000
0100
0000
0000
1000
0000
0000
0001
0000
0000
0000
0000
0000
0010
0000
0000
0001
0000
0000
1000
0000
0001
0000
1000
0000
,
0010
0000
1000
0100
0000
0000
0010
0001
1000
0000
0001
1000
0010
0100
1000
0100
,
0001
0000
0000
0100
0000
0000
0010
0000
0000
1000
0000
0000
0001
0000
0000
0000
0000
0000
1000
0000
0000
0010
0000
0000
0100
0000
0000
0001
0000
0000
1000
0000
0000
0000
0000
0000
0001
0000
0000
0000
1000
0000
0000
0000
0010
0000
0000
0000
,
1010
0000
1000
0000
0001
0000
1000
0100
0000
0001
0000
0100
1000
0000
0001
0000
,
1000
0010
0100
0000
0001
0000
1000
0100
0010
0000
0001
1000
0010
1000
0001
0010
,
0001
0000
0000
0100
0000
0000
1000
0000
0000
0100
0000
0000
0001
0000
0000
0100
0000
0000
0001
0010
0100
1000
0001
1000
,
0010
0000
1000
0100
1000
0000
0001
0100
00M0
0100
1000
0001
0100
0001
0010
0100
,
1000
0000
0001
0000
0101
0000
0100
0010
M000
0010
0001
0000
1000
0010
1000
0010
,
0100
0001
0100
0010
1000
0000
0001
0100
00M0
0100
1000
0000
0001
0100
0001
0100
,
0001
0010
0100
1000
0001
0000
1000
0010
0M00
0010
0001
1000
0001
0010
0100
1000
,
0001
0100
0001
0100
0010
0000
1000
0100
000M
0100
0010
0000
0001
1000
0001
1000
,
0001
0000
0000
0000
0100
0000
M000
0000
0100
0000
0000
0000
0010
0000
0000
0001
0000
0000
1000
0000
0000
0010
0000
0000
0000
0000
0000
0001
0000
0000
0010
0000
0000
0100
0000
0000
0001
0000
0000
0100
0000
0000
0010
0000
0000
1000
0000
0000
,
0100
0010
0001
1000
0001
0000
1000
0010
0000
0001
0010
0000
0100
0010
1000
0000
,
0001
0000
0001
0000
1000
0100
1000
0100
0000
0010
0001
0000
1000
0010
0100
0001
,
0020
0000
0000
0000
0000
0000
0000
0000
0031
0000
0000
0000
2000
0000
0000
0000
0000
0000
0000
0000
0000
0000
0000
0000
3001
0000
0000
0000
0000
0000
1000
0001
,
20M0
0000
0000
0000
3000
0001
0000
1000
0020
0000
0000
0000
0030
1000
0000
0100
,
0020
0000
0000
0000
0000
0000
0000
0000
0000
0000
0000
0000
0032
0000
0000
0000
0000
0000
0000
0000
0000
0000
0000
0000
2003
0000
0000
0000
0000
0000
0000
0000
0000
3000
0001
0000
1000
0000
0000
0000
0000
0000
0200
0000
0000
0000
0000
0000
0000
0000
0000
0000
0000
0000
0000
0000
0000
0000
0000
0000
0000
0000
0000
0000
0000
0000
0000
0000
0000
0000
0000
0000
0300
0000
0000
0000
0000
0000
0000
0000
0000
0000
0000
0000
0000
0000
0000
0000
0000
0000
1000
0000
0000
0001
0000
0000
,
0200
0000
0000
0000
0000
0000
0000
0000
0000
0000
0000
0000
0000
0000
0000
0000
0000
0000
0320
0000
0000
0000
0000
0000
0000
0000
0000
0000
0000
0000
0030
0000
0000
0000
1000
0000
0001
0000
0000
0000
0000
0000
0000
0000
0000
0000
0000
0000
2000
0000
0000
0000
0000
0000
0000
0000
0000
0000
0000
0000
3002
0000
0000
0000
0000
0000
0000
0000
0000
0000
0000
0000
0013
0000
0000
0000
0000
0000
0000
0000
0000
0100
0000
0000
0000
0000
0000
0000
0000
0000
1000
0000
0000
0001
0000
0000
,
2000
0000
0000
0000
0000
0000
3001
0000
0000
0000
0000
0100
0000
0000
0010
0000
1010
0000
0000
0000
1000
0000
0000
0000
0001
1000
0001
1000
0001
1000
0001
1000
,
00M1
0100
0010
1000
1010
0020
0000
0130
,
0001
0000
0000
0000
0000
0000
0010
0000
0000
0000
0000
0000
0100
0000
0000
0000
0000
0000
0000
0000
0000
0000
0000
0000
1100
0000
0000
0000
0000
1000
0002
0000
0000
0000
0000
0000
0000
0000
0000
0000
0000
0000
1003
0000
0000
0000
0000
0000
,
1000
0100
0001
0100
2100
0000
3001
0200
,
0310
0000
0000
0000
0000
0000
1000
0000
0000
0000
0000
0000
0001
0000
0000
0000
0000
1000
0001
0000
0000
0000
0000
0000
0201
0000
0000
0000
0000
0000
0000
0000
0000
0000
0000
0000
0301
0000
0000
0000
0100
0000
00M0
0000
0100
0000
0000
0000
,
1000
0000
0000
0001
0000
0000
0010
0000
0000
0100
0000
0000
1100
0000
0000
0000
0000
0000
1000
0000
0100
00M0
0100
0000
,
0001
0000
0000
0000
1000
0000
0000
0000
0010
0000
0000
0000
0100
0000
0000
0000
0000
0000
0001
0000
0000
0000
0000
0000
0021
0000
0000
0000
0000
0000
0000
0000
0000
0000
0000
0000
0130
0000
0000
1000
0000
0000
0100
0000
0000
0000
0000
0000
,
1000
0000
0001
0100
0001
0000
1000
0000
0020
0000
0000
0000
0230
0000
0001
0000
,
0301
0000
0010
0000
0100
0000
1000
0001
0000
0100
0010
1000
0002
0000
0003
0000
,
1000
0100
0000
0001
0000
0100
0000
0010
0000
0001
1000
0000
0001
0000
0001
0000
,
1000
0010
0000
0001
0000
0010
0000
0100
0001
0100
0010
1000
0001
0010
0100
1000
,
0001
0100
0000
1000
0000
0100
0000
0010
0000
1000
0001
0000
1000
0000
1000
0000
,
0001
0100
0000
0010
0000
0001
0000
0010
0000
0100
0001
0000
2000
0000
3001
0000
,
1000
0010
0000
0100
0000
1000
0000
0100
0000
0001
1000
0000
0010
0000
0010
0000
,
1000
0100
0000
0001
0000
0100
0010
0001
1000
0001
1000
0000
0001
0000
0001
0000
,
1000
0100
0000
0001
0000
0100
0000
0010
0000
0001
1000
0000
0001
0000
0001
0000
,
2000
0000
3001
0100
0000
0010
0000
0001
0000
0010
0100
0000
0001
1000
0001
1000
,
0010
0100
0001
0000
0000
0010
0000
0000
0010
0000
0110
0000
0000
0100
1000
0000
,
0100
0000
1100
0000
0000
0010
0000
0000
0100
0000
0101
0000
0000
0001
0010
0100
,
1000
0000
0000
0000
0000
0000
1010
0000
0000
0000
0000
0000
0000
0000
0000
0010
0000
0000
0100
0000
0000
0000
0000
0000
0001
0000
0000
0000
0000
0000
0100
0000
0000
0000
0000
0000
0010
0000
0000
0000
0100
0000
000M
0000
0100
0000
0000
0000
,
1000
0000
0000
0000
0000
0000
1000
0000
0000
0000
0000
0000
0000
0000
0000
0001
0000
0000
0100
0000
0000
0000
0000
0000
0001
0000
0000
0000
0010
0000
0M00
0000
0010
0000
0000
0000
1000
0000
0000
0000
0000
0000
0001
0000
0000
0000
0000
0000
,
1000
0000
1010
0000
0000
0100
0000
0000
0100
0000
0101
0000
0000
0001
0010
0000
,
0001
0000
1001
0000
0000
1000
0000
0000
0010
0000
0110
0000
0000
0100
0001
0010
,
0001
0000
1000
0100
0010
0100
0001
0000
0100
0010
0100
1000
0001
0000
1000
0001
,
1000
0100
0010
0001
0100
0010
1000
0001
0100
0020
0000
0000
,
1030
0000
0000
0100
0000
0000
1000
0000
0000
0100
0000
0000
0010
0000
0000
0000
0000
0000
0000
0000
0000
0001
0000
0000
0000
0000
0000
0100
0000
0000
0010
0000
0000
0000
0000
0000
1000
0000
0000
0000
0100
0000
0000
0000
0010
0000
0000
0000
,
0001
0000
0000
0010
0000
0000
0100
0000
0000
1000
0000
0000
0001
0000
0000
0100
0000
0000
0001
0000
0000
0010
0000
0000
0100
0000
0000
1000
0000
0000
0001
0000
0000
1000
0000
0000
0001
0000
1000
0000
0100
0000
1000
0000
0001
0000
0100
0000
,
0001
0000
1000
0001
0000
0100
0001
0000
0100
0000
0001
0010
0100
1000
0001
0000
,
1000
0000
0000
0100
0000
0000
0010
0000
0000
0100
0000
0000
1000
0000
0000
0000
0000
0000
0001
0000
0000
0010
0000
0000
0100
0000
0000
0010
0000
0000
0001
0000
0000
0000
0000
0000
1000
0000
0000
0000
0010
0000
0000
0000
0100
0000
0000
0000
,
0001
0010
0001
0100
0001
1000
0001
0010
0100
1000
0001
0100
0010
1000
0010
0100
,
0001
0000
0000
0010
0000
0000
0001
0000
0000
1000
0000
0000
0010
0000
0000
0100
0000
0000
0001
0000
0000
0010
0000
0000
0100
0000
0000
1000
0000
0000
0100
0000
0000
0010
0000
0000
0001
0000
1000
0000
0010
0000
0100
0000
0001
0000
1000
0000
,
0001
0000
0000
0000
1001
0000
0000
0000
0101
0000
0000
0110
0000
0000
1010
0000
,
1000
0000
0000
0010
0000
0000
1000
0000
0001
0000
0100
0000
0010
0000
0000
1000
0000
0000
0010
0000
0000
0100
0000
0000
0001
0000
0010
0000
0100
0000
1000
0000
0001
0000
0010
0000
0001
0000
1000
0000
0010
0000
0100
0000
0001
0000
1000
0000
,
0001
0000
0100
0000
0010
0000
1000
0010
0M00
0010
0001
0000
1000
0100
0010
0001
,
1000
0010
0100
0001
1000
0000
0001
0010
0M00
0010
1000
0000
0001
0010
0001
0100
,
0001
0010
0100
1000
0001
0000
1000
0010
0M00
0010
0001
0000
1000
0100
1000
0010
,
1000
0001
0010
0100
1000
0000
0001
0100
00M0
0100
1000
0001
1000
0100
0010
0001
,
1000
0000
0000
0000
0010
0000
0000
0000
1000
0000
0000
0000
0001
0000
0000
0000
0000
0000
1000
0000
0000
0010
0000
0000
0M00
0000
0000
0010
0000
0000
0001
0000
0000
0000
0000
0000
1000
0000
0000
0100
0000
0000
0010
0000
0000
0001
0000
0000
,
1000
0010
0100
0001
1000
0000
0001
0100
M000
0100
0010
0000
0001
0010
0100
1000
,
0001
0100
0001
0010
0100
0010
0001
1000
0010
1000
0100
0010
0100
1000
0001
0100
,
0001
0000
0000
0010
0000
0000
0001
0000
0100
0000
0010
0000
1000
0000
0000
0100
0000
0000
0010
0000
0000
0001
0000
0000
1000
0000
0000
0010
0000
0000
0100
0000
0000
0001
0000
0000
0010
0000
0000
0100
0000
0000
1000
0000
0000
0010
0000
0000
,
0100
0001
0000
0000
2002
0000
0000
0000
0000
0000
0000
0000
3003
0000
0000
0000
,
2000
0000
0000
0000
0000
0000
0000
0000
3020
0000
0000
0000
0030
0000
0100
0001
,
0200
0000
0000
0300
,
0020
0000
0000
0000
0030
0000
0000
0000
2000
0000
0000
0000
3001
0000
0010
0100
,
2000
0000
0000
3000
,
0002
0000
0000
0000
0000
0000
0000
0000
2003
0000
0000
0000
3000
0000
0001
0010
,
0002
0000
0000
0000
,
0000
0000
0000
0000
,
0003
0000
0000
0000
;

//--------------- dance-double - ----------------
#NOTES:
     dance-double:
     :
     Challenge:
     16:
     0,0,0,0,0:
00000000
00000000
00000000
00000000
,
00000000
00000000
00000000
00000000
,
00000000
00000000
00000000
00000000
,
00000000
00000000
00000000
00000000
,
00021000
00000000
00000000
00000000
,
00032000
00000000
00000000
00000000
00000000
00000000
00000000
00000000
00000000
00000000
00000000
00000000
00003000
00000000
01000000
00100000
,
02000000
00000000
00000000
00000000
,
03200000
00000000
00000000
00000000
00000000
00000000
00000000
00000000
00000000
00000000
00000000
00000000
00300000
00000000
10000000
00010000
,
10000000
01000000
00000000
00100000
00000000
00010000
00000000
00000000
00100000
00010000
00100000
00001000
00000000
00010000
00001000
00000000
,
00010000
00000010
00000000
00001000
00000000
00000010
00000000
00000000
00001000
00000100
00000010
00000001
00000000
00001000
00000100
00000000
,
00001000
00000001
00000000
00000010
00000000
00000100
00000000
00001000
00000000
00000000
00000100
00001000
00000000
00000100
00010000
00000000
,
00002000
00000000
00000000
00000000
00000000
00000000
00000000
00000000
00013000
00001000
00010000
00001000
00200000
00000000
00000000
00000000
,
00310000
00000000
00000000
10000000
00000000
00000000
00010000
00000000
00000000
10000000
00000000
00000000
00010000
00000000
00000000
00000000
00000000
00000000
01000000
00000000
00000000
00100000
00000000
00000000
00000000
00000000
00000000
01000000
00000000
00000000
00100000
00000000
00000000
00000000
00000000
00000000
10000000
00000000
00000000
00000000
01000000
00000000
00000000
00000000
00100000
00000000
00000000
00000000
,
00010000
00100000
00001000
00100000
00010000
00000000
00100000
00001000
00010000
00001000
00100000
00000000
00001000
00000000
00001000
00000000
,
00010000
00000000
00000010
00001000
00000000
00000000
00000001
00000000
00000010
00000000
00000100
00001000
00000100
00001000
00000100
00000000
,
00000010
00000000
00000000
00000001
00000000
00000000
00000010
00000000
00000000
00000001
00000000
00000000
00001000
00000000
00000000
00000000
00000000
00000000
00000010
00000000
00000000
00001000
00000000
00000000
00000010
00000000
00000000
00010000
00000000
00000000
00000010
00000000
00000000
00000000
00000000
00000000
00001000
00000000
00000000
00000000
00000100
00000000
00000000
00000000
00010000
00000000
00000000
00000000
,
00001000
00000000
01000000
00000000
00100000
00000000
00010000
00100000
00000000
01000000
00000000
00010000
10000000
00000000
00010000
00000000
,
10000000
00000000
01000000
00000000
00100000
00000000
10000000
00100000
00000000
00010000
00000000
01000000
00010000
00000000
00100000
00000000
,
00001000
00100000
00010000
00100000
00001000
00010000
00001000
00010000
,
00000100
00000000
00001000
00000000
00000001
00000010
00000100
00001000
00000001
00000100
00000010
00001000
00000001
00000010
00000100
00001000
,
00000001
00000000
00000100
00000000
00000101
00000000
00000001
00000010
00000000
00000100
00001000
00000000
00010000
00000000
00100000
00000000
,
01000000
00000000
00100000
00000000
00010000
00000000
00100000
00001000
00000000
00010000
00000100
00000000
00001000
00000000
00000001
00000000
,
00001000
00000000
00000010
00000000
00000100
00000000
00001000
00000100
00000000
00000010
00001000
00000000
00000001
00000000
00010000
00000000
,
00000010
00000000
00000100
00000000
00001000
00000000
00000100
00000010
00000000
00001000
00000100
00000000
00001000
00000000
00000010
00000000
,
00001000
00000000
00000000
00000000
00000001
00000000
00000000
00000000
00001000
00000000
00000000
00000000
00000010
00000000
00000000
00000000
00000000
00000000
00010000
00000000
00000000
00001000
00000000
00000000
00000000
00000000
00000000
00010000
00000000
00000000
00001000
00000000
00000000
00000000
00000000
00000000
00010000
00000000
00000000
00000000
00000000
00000000
00100000
00000000
00000000
00000000
00000000
00000000
,
01000000
00000000
00010000
00000000
10000000
00000000
00010000
00100000
00000000
01000000
10000000
00000000
00010000
00000000
01000000
00000000
,
00001000
00000000
01000000
00000000
00100000
00000000
00010000
00100000
00000000
01000000
00010000
00000000
01000000
00000000
00100000
00000000
,
20000000
00000000
00000000
30020000
00000000
00000000
00130000
00000000
,
0M201000
00000000
00000000
00000000
00300000
00001000
00000000
00100000
00001000
00000000
00000000
00000000
00000000
00020000
00000000
00030010
,
00001000
00000000
00000000
00000000
00000001
00000000
00000000
00000000
00000100
00000000
00000000
00000000
00000001
00000000
00000200
00000000
00000000
00000000
00000000
00000000
00000000
00000000
00000000
00000000
00000300
00000000
00000000
00000000
00000000
00000000
00000010
00001000
,
00000010
00000000
00000000
00000000
00000000
00000000
00000000
00000000
00000000
00000200
00000000
00000000
00000000
00000000
00000000
00000000
00000000
00000000
00000301
00000000
00000000
00000000
00000000
00000000
00000010
00000000
00000000
00000000
00000000
00000000
00000100
00000000
00000000
00000000
00000000
00000000
00001000
00000000
00000000
00000000
00010000
00000000
00000000
00000000
00100000
00000000
00000000
00000000
,
01000000
00000000
00000000
00000000
00000000
00000000
10000000
00000000
00000000
00000000
00000000
00010000
00000000
00000000
00100000
00000000
01000000
00000000
00000000
00000000
10000000
00000000
00000000
00000000
00010000
00000000
01000000
00000000
00010000
00000000
01000000
00000000
,
M0001000
00010000
00000001
00000000
00001001
00000001
00000000
00000100
,
00001000
00000100
00000010
00000000
00001100
00001000
00000000
00000100
,
00000100
00010000
00001000
00000000
00101000
00000000
00100000
00010000
,
00001000
00000000
00000000
00010000
00000000
00000000
00100000
00000000
00000000
00010000
00000000
00000000
20010000
00000000
00000000
00000000
00000000
00000000
30001000
00000000
00010000
00000000
00001000
00000000
,
00010000
00000000
00000000
00000100
00000000
00000000
00001000
00000000
00000000
00000100
00000000
00000000
00010100
00000000
00000000
00000000
00000000
00000000
00010000
00000000
00000010
00000000
00000100
00000000
,
00000010
00000000
00000100
00000000
00000001
00000000
00000100
00000000
00000000
00000010
00000000
00000000
00000110
00000000
00000000
00000000
00000000
00000000
00000100
00000000
00000001
00000000
00000010
00000000
,
00000200
00000000
00010300
00000000
00011000
00000000
00001000
01000000
,
00100000
10000000
00010000
01000000
00100000
10000000
00010000
00000000
,
10000000
01000000
00000000
00010000
00000000
01000000
00000000
00100000
00000000
00010000
01000000
00000000
00001000
00000000
00010000
00000000
,
00000100
00001000
00000000
00000010
00000000
00000001
00000000
00000010
00000100
00000000
00000010
00000000
00010000
00000000
00001000
00000000
,
00100000
00010000
00000000
00100000
00000000
10000000
00000000
00100000
00000000
01000000
10000000
00000000
00010000
00000000
00100000
00000000
,
00001000
00010000
00000000
00100000
00000000
00010000
00000000
00001000
00000000
00010000
00000010
00000000
00000100
00000000
00000001
00000000
,
00001000
00000001
00000000
00000100
00000000
00001000
00000000
00000100
00000000
00000010
00001000
00000000
00000100
00000000
00010000
00000000
,
00001000
00100000
00000000
00010000
00000000
00000000
00100000
00001000
00100000
00000000
00010000
00000000
10000000
00000000
00100000
00000000
,
10000000
01000000
00000000
00010000
00000000
01000000
00000000
00100000
00000000
00010000
00001000
00000000
00010000
00000000
00001000
00000000
,
00010000
00000100
00000000
00001000
00000000
00000100
00000000
00000001
00000000
00000100
00000010
00000000
00000001
00000000
00001000
00000000
,
00000001
00001000
00000010
00000000
00000000
00001010
00000000
00000000
00001000
00000000
00001000
00000000
00000000
00000100
00010000
00000000
,
00010000
00000000
00011000
00000000
00000000
00001000
00000000
00000000
01000000
00000000
01000000
00000000
00000000
00010000
00100000
00000000
,
01000000
00000000
00000000
00000000
00000000
00000000
10000000
00000000
00000000
00000000
00000000
00000000
00000000
00000000
00000000
00010000
00000000
00000000
01000000
00000000
00000000
00000000
00000000
00000000
00100000
00000000
00000000
00000000
00000000
00000000
10000000
00000000
00000000
00000000
00000000
00000000
01000000
00000000
00000000
00000000
00100000
00000000
00000000
00000000
00010000
00000000
00000000
00000000
,
00100000
00000000
00000000
00000000
00000000
00000000
00001000
00000000
00000000
00000000
00000000
00000000
00000000
00000000
00000000
00010000
00000000
00000000
00001000
00000000
00000000
00000000
00000000
00000000
00010000
00000000
00000000
00000000
00000100
00000000
00000000
00000000
00001000
00000000
00000000
00000000
00000100
00000000
00000000
00000000
00000000
00000000
00000000
00000000
00000000
00000000
00000000
00000000
,
00001100
00000000
00001000
00000000
00000000
00000100
00000010
00000000
00000001
00000000
00000010
00000000
00000000
00000100
00001000
00000000
,
00010000
00000000
00110000
00000000
00000000
00100000
01000000
00000000
10000000
00000000
10010000
00000000
00000000
M1000000
00001000
01000000
,
00001000
00000000
00010000
00001000
00010000
00000100
00010000
00000000
00000100
00001000
00000100
00010000
00000100
00000000
00001000
00000001
,
00001000
00000010
00000100
00000010
00001000
00000001
00000010
00000100
00001000
00000001
00000000
00000000
,
00001000
00000000
00000000
00000100
00000000
00000000
00001000
00000000
00000000
00000100
00000000
00000000
00001000
00000000
00000000
00000000
00000000
00000000
00000010
00000000
00000000
00000100
00000000
00000000
00000000
00000000
00000000
00000010
00000000
00000000
00000100
00000000
00000000
00000000
00000000
00000000
00000001
00000000
00000000
00000000
00001000
00000000
00000000
00000000
00000001
00000000
00000000
00000000
,
00001000
00001000
00000100
00000010
00000001
00000010
00000100
00001000
,
00010000
00000000
00000000
01000000
00000000
00000000
00100000
00000000
10000000
00000000
00010000
00000000
01000000
00000000
10000000
00000000
,
01000000
00000000
00000000
00010000
00000000
00000000
00100000
00000000
00000000
00001000
00000000
00000000
00010000
00000000
00000000
00001000
00000000
00000000
00100000
00000000
00010000
00000000
00100000
00000000
,
00001000
00000000
00010000
00000000
00000100
00000000
00001000
00000100
00000000
00000010
00000001
00000010
00000100
00000000
00001000
00000000
,
00000100
00000000
00010000
00000000
00001000
00000000
00100000
00010000
00000000
10000000
01000000
00100000
00010000
00000000
01000000
00000000
,
01010000
00000000
00000000
00000000
00110000
00000000
00000000
00000000
00011000
00000000
00000000
00010000
00000100
00000000
00001000
00000000
,
00000020
00000000
00000000
00000000
00000000
00000000
00001030
00000000
00000001
00001000
00000001
00001000
00000020
00000000
00000000
00000000
,
00001030
00000000
00000100
00000000
00000001
00000000
00000100
00000010
00000000
00000100
00001000
00000000
00010000
00000000
00001000
00000000
,
01000000
00000000
00100000
00000000
00010000
00000000
00100000
01000000
00000000
00010000
10000000
00000000
00100000
00000000
00100000
00000000
,
10000000
00000000
01000000
00000000
00010000
00000000
01000000
00100000
00000000
00100000
00010000
00000000
00100000
00000000
00001000
00000000
,
00010000
00000000
00000010
00000000
00001000
00000000
00000100
00000010
00000000
00000001
00000010
00000000
00000100
00000000
00001000
00000000
,
00000100
00000000
00000000
00000000
00010000
00000000
00000000
00000000
00001000
00000000
00000000
00000000
00010000
00000000
00000000
00000000
00000000
00000000
00001000
00000000
00000000
00100000
00000000
00000000
00000000
00000000
00000000
00010000
00000000
00000000
01000000
00000000
00000000
00000000
00000000
00000000
00001000
00000000
00000000
00000000
00000000
00000000
00100000
00000000
00000000
00000000
00000000
00000000
,
00010000
00100000
01000000
00000000
00100000
00000000
00001000
00010000
00000000
00001000
00010000
00000000
00000010
00000000
00000100
00000000
,
00000001
00000010
00000100
00001000
00000001
00000100
00000010
00001000
00000001
00000010
00000100
00001000
00000001
00001000
00000100
00010000
,
00000200
00000000
00000000
00000000
00010300
00000000
00001000
01000000
00000000
00010000
01000000
00000000
00100000
00000000
10000000
00000000
,
00010000
20020000
00000000
30030000
,
20000000
00000000
00000000
00000000
00000000
00000000
00000000
00000000
00000000
00000000
00000000
00000000
30000000
00000000
00010000
00100000
,
00020000
00000000
00000000
00000000
,
00230000
00000000
00000000
00000000
00000000
00000000
00000000
00000000
00302000
00000000
00000000
00000000
00013000
00000000
00001000
00010000
,
00000200
00000000
00000000
00000000
,
00002300
00000000
00000000
00000000
00000000
00000000
00000000
00000000
00003200
00000000
00000000
00000000
00000000
00000000
00001300
00000010
,
00000200
00000000
00000000
00000000
,
00000300
00000000
00000000
00000000
;
