#TITLE:Upgrades;
#SUBTITLE:;
#ARTIST:Auvic;
#TITLETRANSLIT:;
#SUBTITLETRANSLIT:;
#ARTISTTRANSLIT:;
#GENRE:;
#CREDIT:;
#MUSIC:Upgrades.ogg;
#BANNER:banner.png;
#BACKGROUND:bg.png;
#CDTITLE:;
#SAMPLESTART:99.421;
#SAMPLELENGTH:16.000;
#SELECTABLE:YES;
#OFFSET:0.589;
#BPMS:0.000=120.000;
#STOPS:;
#BGCHANGES:;
#FGCHANGES:;

//--------------- dance-single - Pandy ----------------
#NOTES:
     dance-single:
     Pandy:
     Hard:
     14:
     0,0,0,0,0:
0000
0000
0000
0000
,
0000
0000
0000
0000
,
0000
0000
0000
0000
,
0000
0000
0000
0000
,
0000
0000
0000
0000
0000
0000
0000
0010
,
1001
0000
0000
0000
0000
0000
0000
0001
,
1100
0000
0000
0000
0101
0000
0000
0100
,
1001
0000
0000
0000
0000
0000
0000
1000
,
0011
0000
0000
0000
1010
0000
0000
0100
,
1001
0000
1000
0000
0000
0001
0000
0001
0100
0000
0100
0001
0000
0001
1000
0000
,
0100
0000
0100
0000
0000
0010
0000
0001
0010
0000
0100
1000
0000
0001
0010
0000
,
0001
0000
0001
0000
0000
0001
0000
0001
1000
0000
1000
0010
0000
0010
0100
0000
,
0001
0000
0001
0000
0000
1000
0000
0100
1000
0000
0100
0010
0000
0100
1000
0000
,
0001
0000
0100
0000
0010
0000
0000
1000
0000
0001
0010
0000
0100
0000
0000
0000
,
0010
0000
0001
0000
0100
0000
0000
0010
0000
1000
0001
0000
0010
0000
0000
0000
,
0100
0000
0010
0000
0001
0000
0000
1000
0000
0100
1000
0000
0010
0000
0000
0000
,
0100
1000
0100
0001
1000
0001
0010
0100
,
1100
0000
0000
0000
1000
0001
0000
0001
0100
0000
0000
0000
0100
0010
0000
0010
,
1000
0000
1000
0000
0000
1000
0000
1000
0001
0000
0001
1000
0000
1000
0001
0000
,
1001
0000
0000
0000
0000
0010
0000
0100
1000
0000
0000
0000
0000
0100
0000
1000
,
0001
0000
0001
0000
0000
0001
0000
0001
1000
0000
1000
0001
0000
0001
1000
0000
,
0010
0000
0000
0000
0100
0001
0000
0001
1000
0000
0000
0000
0100
0010
0000
0010
,
0100
0000
0100
0000
0000
0100
0000
0100
0010
0000
0010
0100
0000
0100
0010
0000
,
0001
0000
0001
0010
1001
0000
0002
0000
,
2003
3000
0000
0000
0000
0000
0000
0001
,
2200
3300
0000
0000
2020
3030
0000
0001
,
2002
3003
0000
0000
0000
0000
0000
1000
,
2200
3300
0000
0000
0202
0303
0000
0100
,
2001
0000
3001
0000
0000
0001
0000
0001
1000
0000
1000
0010
0000
0010
0200
0000
,
0302
0000
0013
0000
0000
0100
0000
0100
0020
0000
0031
0010
0000
0100
2000
0000
,
3002
0000
1003
0000
0000
0001
0000
0001
0100
0000
0100
0010
0000
0010
2000
0000
,
3002
0000
0013
0000
0000
0100
0000
0100
2000
0000
3001
0100
0000
0100
0002
0000
,
2003
0000
3001
0000
0000
0001
0000
0001
0010
0000
0100
1000
0000
1000
0200
0000
,
0320
0000
0031
0000
0000
0100
0000
0010
2000
0000
3001
0010
0000
0100
2000
0000
,
3002
0000
0103
0000
0000
0010
0000
1000
0010
0000
0100
0001
0000
0001
0020
0000
,
0230
0000
1300
0000
0000
0100
0000
1000
0002
0000
0103
0010
0000
1000
0002
0000
,
0003
0000
0000
0000
,
M000
MM00
MMM0
MMMM
,
1001
0000
0000
0000
0001
0100
0001
1000
0100
0000
0010
0001
0200
0000
0001
0000
,
0310
0000
0100
0010
1000
0000
1000
0001
0020
0000
0000
0000
0100
0000
0100
0000
,
0031
0000
0000
0000
1000
0010
1000
0010
0100
0000
0010
1000
0002
0000
0010
0000
,
1003
0100
1000
0001
0100
0010
1000
0001
0020
0000
0130
0000
0100
2000
0000
3001
,
1001
0000
0000
0000
0001
0010
0001
1000
0010
0000
0100
0001
0020
0000
0001
0000
,
0130
0000
0010
0100
1000
0000
1000
0001
0200
0000
0000
0000
0010
0000
0010
0000
,
0301
0000
0000
0000
1000
0100
1000
0100
0010
0000
0100
1000
0002
0000
0100
0000
,
1003
0010
1000
0001
0010
0100
1000
0001
0200
0000
0310
0000
0010
2000
0000
3001
,
1001
0000
1001
0000
0000
0101
0000
0001
0100
0000
0010
1000
0000
0001
0100
0000
,
0010
0000
1001
0000
1000
0001
0000
0001
0010
0000
0010
0100
0000
0100
1000
0000
,
1010
0000
0101
0000
0000
1001
0000
0001
0010
0000
0100
1000
0000
1000
0100
0000
,
1000
0000
1001
0000
0001
0100
0000
0010
1000
0000
0001
0010
0000
0001
1000
0000
,
1100
0000
0011
0000
0000
1001
0000
0001
0100
0000
0001
1000
0000
0001
0010
0000
,
0100
0000
0110
0000
0100
1000
0000
1000
0100
0000
0100
0010
0000
0010
0001
0000
,
1010
0000
1100
0000
0100
0010
0000
0010
0001
0000
0001
1000
0000
1000
0001
0000
,
0100
0000
0110
0000
0010
1000
0000
0001
0010
0000
0100
0010
0000
0100
1000
0000
,
0001
0000
0100
0001
0000
0010
0000
0100
0010
0000
0001
0000
1000
0000
0001
0000
,
0100
0000
0010
1000
0000
0001
0000
0010
0100
0000
0010
0000
0001
0000
1000
0000
,
0001
0000
0100
0010
0000
1000
0000
0010
1000
0000
0001
0000
0010
0000
0100
0000
,
1000
0000
0100
1000
0000
0010
0000
0100
0010
0000
1000
0000
0001
0000
0010
0000
,
0001
0000
0010
1000
0000
0010
0000
0001
0010
0000
0100
0000
1000
0000
0001
0000
,
0001
0000
1000
0100
0000
0001
0000
0100
1000
0000
0010
0000
0001
0000
0010
0000
,
1000
0000
0100
0001
0000
0100
0000
1000
0100
0000
0010
0000
0001
0000
1000
0000
,
0001
0000
0001
0100
0000
1000
0000
0100
0001
0000
0010
0000
1000
0000
0010
0000
,
0002
0000
0000
0000
0000
0000
0013
0100
1000
0100
1000
0100
1000
0100
1000
0100
,
1000
0000
0001
0000
0100
0000
0010
0000
1000
0001
1000
0001
1000
0001
1000
0001
,
1000
0000
0100
0000
1000
0000
0001
0000
0010
0100
0010
0100
0010
0100
0010
0100
,
0010
0000
0001
0000
0100
0000
0010
0000
1000
0001
1000
0001
1000
0001
1000
0001
,
1000
0000
0100
0000
0010
0000
0001
0000
0100
0001
0010
0001
0100
0001
0010
0001
,
1000
0000
0001
0000
0100
0000
0010
0000
1000
0010
0100
0010
1000
0010
0100
0010
,
1000
0000
0001
0000
0010
0000
0100
0000
1000
0100
0010
0100
1000
0100
0010
0100
,
1000
0000
0001
0000
0100
0000
0010
0000
0100
0001
0010
0100
0010
0001
0010
0100
,
1000
0000
0000
0000
;

//--------------- dance-single - Pandy -Tech Style- ----------------
#NOTES:
     dance-single:
     Pandy -Tech Style-:
     Challenge:
     16:
     0,0,0,0,0,0,0,0,0,0,0,0,0,0,0,0,0,0,0,0,0,0:
0000
0000
0000
0000
,
0000
0000
0000
0000
,
0000
0000
0000
0000
,
0000
0000
0000
0000
,
0000
0000
0000
0000
,
0001
1000
0100
0001
0000
0100
0000
1000
0000
0100
0000
0001
0100
0000
1000
0000
,
1001
1000
0010
0001
0000
0010
0000
1000
1010
0000
1000
0010
0000
0100
0101
0000
,
0011
0010
1000
0010
0000
0001
0000
0010
0000
1000
0000
0010
0100
0000
1000
0000
,
1001
1000
0100
0001
0000
0100
0000
1000
1100
0000
0100
0010
0001
0000
0011
0000
,
0001
0000
0001
0000
0001
0010
0000
001M
0010
0000
1000
0001
0000
1000
0001
0000
,
1000
0000
1000
0000
1000
0100
0000
M100
0001
0000
0001
1000
0000
0010
0100
0000
,
0001
0000
0001
0000
0001
0100
0000
010M
0100
0000
1000
0001
0000
0001
1000
0000
,
1001
0000
1001
0000
1000
0010
0000
M010
0001
0000
0001
0100
0000
0100
0010
0000
,
1010
1000
0200
0000
0010
0000
1300
0020
0000
0031
0200
0000
0301
0100
0001
0000
,
0101
0001
0020
0000
0100
0000
0031
0200
0000
1300
0020
0000
1030
0010
0000
1000
,
1100
0000
0011
0000
1000
0002
0000
0013
0000
1000
0020
0000
0031
1000
0000
0001
,
0101
0000
1010
0000
0001
2000
0000
3010
0000
0001
0020
0000
1030
0001
0000
1000
,
1100
0000
0000
0000
1000
0010
0000
M010
0011
0000
0000
0000
0001
0100
0000
010M
,
1100
0000
1100
0000
0000
1100
0000
1000
0001
0000
0001
1000
0000
1000
0001
0000
,
0101
0000
0000
0000
0001
0010
0000
001M
1010
0000
0000
0000
1000
0100
0000
M100
,
0101
0000
0101
0000
0000
0101
0000
0001
1000
0000
1000
0001
0000
0001
1000
0000
,
1001
0000
0000
0000
1000
0010
M010
0001
1001
0000
0000
0000
0001
0100
010M
1000
,
1001
0000
1001
0000
0000
0101
0000
1000
0010
0000
0100
0001
0000
1000
0010
0000
,
1001
0000
0000
0000
0001
0010
001M
1000
1001
0000
0000
0000
MM2M
0000
0000
0030
,
1MM1
0000
1000
0001
0000
0010
0000
0100
0010
0001
0100
0010
1000
0000
1020
0030
,
0021
0000
0130
1000
0000
0001
0000
1000
1002
0000
0103
0000
0100
0001
0011
0000
,
1200
0000
0310
0001
0000
1000
0010
0100
0001
0010
1000
0010
0001
0100
0101
0000
,
1200
0000
0310
0001
0000
0100
0000
0010
1020
0000
0130
0001
0010
0100
1100
0000
,
2001
0000
3001
0000
0000
0001
0000
0001
0010
0000
001M
1000
0000
1000
0010
0000
,
0102
0000
0013
0001
0000
1000
0000
1000
0100
0000
M100
0001
0000
0001
0101
0000
,
2001
0000
3010
0000
0000
1000
0000
1000
0100
0000
M100
0001
0000
0001
0101
0000
,
1020
0000
0130
0001
0000
1000
0000
0001
0010
0000
001M
1000
0000
1000
0010
0000
,
1002
0000
0013
1000
0000
0010
0001
0010
0100
1000
0100
0010
0100
1000
0001
0100
,
2001
0000
3100
0001
0000
0100
1000
0100
0010
0001
0010
0100
0010
0001
1000
0010
,
1001
0000
0001
0100
0000
1010
0000
1000
0100
0010
0001
0010
0100
0010
0001
1000
,
1001
0000
0001
0100
0000
1010
0000
1000
0010
0100
0001
0010
0100
0010
0001
1000
,
0000
0000
0000
0000
,
M000
MM00
MMM0
MMMM
,
1001
0000
0000
0000
0000
0000
0000
0000
0000
0000
0000
0000
0001
0000
0000
0100
0000
0000
0001
0000
0000
0010
0000
0000
0100
0000
0000
0000
0000
0000
0100
0000
0000
1000
0000
0000
0040
0000
4000
0000
0000
0000
0000
0000
3030
0000
0000
0000
,
0101
0000
0001
0010
1000
0010
0001
0100
0020
0000
0000
0000
1000
0000
0130
0000
,
1001
0000
0000
0000
0000
0000
0000
0000
0000
1000
0000
0000
0100
0000
0000
0001
0000
0000
0000
0000
0000
0001
0000
0000
0100
0000
0000
1000
0000
0000
0010
0000
0000
0100
0000
0000
0004
0000
4000
0000
0000
0000
0000
0000
0000
0000
3003
0000
,
0110
0000
0010
1000
0001
0010
1000
0010
0011
0000
1010
0000
0001
0101
0000
1000
,
1100
0000
0000
0000
0000
0000
0000
0000
0000
0000
0000
0000
0100
0000
0000
1000
0000
0000
0010
0000
0000
0100
0000
0000
0002
0000
0000
0000
0000
0000
0013
0000
0000
0100
0000
0000
4000
0000
0004
0000
0000
0000
0000
0000
3003
0000
0000
0000
,
1010
0000
1000
0100
0001
0100
1000
0001
0200
0000
0000
0000
0010
0000
0301
0000
,
1010
0000
0000
0000
0000
0000
0000
0000
0000
1000
0000
0000
0001
0000
0000
0010
0000
0000
1000
0000
0000
0010
0000
0000
0001
0000
0000
1000
0000
0000
0010
0000
0000
0100
0000
0000
0004
0000
0040
0000
0000
0000
0000
0000
0000
0000
0033
0000
,
1100
0000
1000
0010
0001
0010
1000
0001
1001
0000
1001
0000
0001
0011
0000
1000
,
1010
0000
1001
0000
0001
0010
0000
001M
1000
0000
1000
0010
0000
M010
0001
0000
,
1001
0000
0001
1000
0100
1000
0001
0100
0001
0000
1000
0100
0000
M100
0001
0000
,
0011
0000
1001
0000
1000
0010
0000
M010
0001
0000
0001
0010
0000
001M
1000
0000
,
1001
0000
1000
0001
0100
0001
1000
0100
1000
0000
0001
0100
0000
010M
1000
0000
,
1001
0000
1010
0000
1000
0010
0000
M010
0001
0000
0001
0010
0000
001M
1000
0000
,
1001
0000
0001
0100
1000
0100
0001
1000
0100
0000
0100
0010
0000
0010
0001
0000
,
1100
0000
0011
0000
0001
0001
0000
1000
1000
0000
0001
0001
0000
1000
1000
0000
,
0101
0001
0010
0000
0010
0100
0000
0100
1000
0000
1000
0100
0000
0100
0010
0000
,
1001
0000
1000
0100
0000
0M10
0000
0010
0100
1000
0001
0100
0010
1000
0001
0010
,
0100
0000
0010
0001
0000
100M
0000
0001
1000
0100
1000
0001
0100
0010
1000
0100
,
0010
0000
0100
1000
0000
M001
0000
0001
1000
0010
1000
0001
0010
0100
1000
0100
,
0010
0000
0100
1000
0000
M010
0100
0001
1000
0001
0010
1000
0010
0001
0010
0100
,
1000
0000
0100
1000
0000
M001
0010
0100
0010
0001
1000
0010
0100
0001
0010
0100
,
1000
0000
0001
0010
0000
00M1
1000
0010
0100
0001
0010
0100
1000
0100
0010
0100
,
1000
0000
0001
0100
0000
0M10
1000
0001
0010
0001
1000
0100
0010
0100
1000
0001
,
0100
0000
0010
1000
0000
M001
0010
0100
0010
0001
0100
0010
1000
0001
0010
0100
,
2000
0000
0000
3000
0000
0000
0000
0000
0000
0000
0000
0000
2000
0000
0000
3000
0000
0000
0000
0000
0000
0000
0000
0000
2000
0000
0000
3000
0000
0000
0000
0000
0000
0000
0000
0000
0001
0000
0000
0000
0100
0000
0000
0000
0001
0000
0000
0000
0100
0000
0000
0000
0000
0000
1000
0000
0000
0000
0000
0000
0100
0000
0000
0000
0000
0000
0001
0000
0000
0000
0000
0000
0100
0000
0000
0000
0000
0000
1000
0000
0000
0000
0000
0000
0100
0000
0000
0000
0000
0000
0001
0000
0000
0000
0000
0000
,
1000
0000
1000
0001
0000
1001
0000
0001
1000
0100
0001
0100
1000
0100
0001
0100
,
1000
0000
0001
1000
0000
1001
0000
0001
0010
1000
0010
0001
0010
1000
0010
0001
,
1000
0000
0001
1000
0000
1001
0000
0001
0100
1000
0100
0001
0100
1000
0100
0001
,
1000
0000
0100
2000
0000
0010
0000
0001
3001
0010
1000
0010
0001
0100
0010
1000
,
0001
0000
0010
0001
0000
0200
0000
0010
0310
0100
0001
0100
1000
0100
0001
1000
,
0001
0000
0010
0002
0000
0100
0000
1000
1003
0100
0001
0100
1000
0010
0100
0001
,
1000
0000
0100
1000
0000
0020
0000
0100
0130
0010
1000
0010
0001
0010
1000
0001
,
1001
0000
0000
0000
;
