#TITLE:トウキョウ・シャンディ・ランデヴ;
#SUBTITLE:feat. 花譜, ツミキ;
#ARTIST:MAISONdes;
#TITLETRANSLIT:Tokyo Shandy Rendezvous;
#SUBTITLETRANSLIT:;
#ARTISTTRANSLIT:;
#GENRE:;
#CREDIT:;
#BANNER:;
#BACKGROUND:;
#LYRICSPATH:;
#CDTITLE:;
#MUSIC:Tokyo Shandy Rendezvous.ogg;
#OFFSET:0.659000;
#SAMPLESTART:57.151001;
#SAMPLELENGTH:17.518000;
#SELECTABLE:YES;
#BPMS:0.000000=137.000000
;
#STOPS:
;
#BGCHANGES:;
#KEYSOUNDS:;
#ATTACKS:;

//---------------dance-single - ----------------
#NOTES:
     dance-single:
     :
     Hard:
     14:
     0.674199,0.621433,0.222089,0.288716,0.788416,425.000000,405.000000,20.000000,26.000000,4.000000,0.000000,0.674199,0.621433,0.222089,0.288716,0.788416,425.000000,405.000000,20.000000,26.000000,4.000000,0.000000:
0000
0000
0000
0000
,
0000
0000
0000
0000
,
0000
0000
0000
0000
,
0000
0000
0000
0000
0000
0000
0000
0000
0000
0000
1000
0000
0001
0100
0000
0010
,
0000
0100
0001
0000
1000
0000
0100
0000
0010
0000
0010
0000
0001
1000
0000
1000
,
0001
0000
0100
0010
1000
0000
0001
0000
0200
0000
0000
0310
0000
0100
0001
0100
,
0000
0001
1000
0000
0100
0000
0010
0000
0001
0000
1000
0000
1000
0000
0010
0000
,
1000
0100
0000
0010
0001
0000
1000
0000
0200
0000
0000
0310
0000
0100
1000
0100
,
0000
1000
0001
0000
0100
0000
0010
0000
1000
0000
0001
0100
0001
0000
1000
0100
,
1000
0000
0001
0000
0100
0000
0001
0100
0001
0000
1000
0000
0100
0010
0000
0002
,
0000
0000
1003
0000
0010
0000
0100
0000
0010
0000
1000
0000
0001
0010
0000
0200
,
0000
0000
1300
0000
0001
0000
0100
0000
0010
0000
1000
0001
0000
0010
0000
0001
,
1000
0000
0010
0000
0100
0000
0001
1000
0001
0000
0010
0000
0100
1000
0000
0020
,
0000
0000
0130
0000
0001
1000
0000
0200
0000
0000
0310
0000
0001
1000
0000
0020
,
0000
0000
0130
0001
0100
0001
0000
2000
0000
0000
0000
0000
3001
0010
0001
0010
,
0000
0100
1000
0000
0001
0000
0100
0020
0000
0000
1030
0000
0100
0000
0010
0001
,
0000
0010
0001
0000
1001
0000
1000
0010
1000
0000
0001
0100
0000
0010
0000
1010
,
0000
0000
0001
0000
0010
0000
0100
0000
1000
0000
0001
0100
0000
0010
0000
0100
,
0001
0000
1000
0000
0010
0000
0100
0000
0001
0000
1000
0100
0000
0010
0000
0100
,
1000
0000
0001
0000
0100
0000
0010
0000
1000
0000
0100
0010
0000
0001
0000
0010
,
0100
0000
1000
0000
0002
0000
0000
0000
0203
0000
0310
0000
1000
0001
0000
0010
,
0000
0000
0100
0000
1000
0100
0000
0001
0000
0000
0100
0000
0010
0001
0000
1000
,
0000
0000
0001
0100
0000
0001
0000
1000
0000
0100
0000
0000
0010
0001
0000
0010
,
0001
0000
1000
0010
0000
0100
0000
0010
1000
0000
0001
0010
0000
0100
0000
0010
,
0001
0000
1000
0000
1000
0000
0010
0100
0010
0000
1000
0000
0001
0010
0000
1100
,
0000
1100
0000
0000
0001
0000
0100
0000
0020
0000
0030
1010
0000
0000
0000
0001
,
0000
0010
0001
1000
0100
0000
1000
0000
0010
0000
0100
0000
0100
0000
0001
1000
,
0100
0000
0010
0000
0100
0000
0010
0000
0001
0000
0001
1000
0000
1000
0000
0010
,
0000
0100
0001
0100
0001
0000
1000
0000
0001
0000
1000
0000
0010
0000
0000
0101
,
0000
0101
0000
0000
1000
0000
0100
0000
0020
0000
0030
0011
0000
0000
0000
1000
,
0000
0010
1000
0001
0100
0000
0001
0000
0010
0000
0100
0000
0100
0000
1000
0001
,
0100
0000
0010
0000
0100
0000
0010
0000
1000
0000
1000
0001
0000
0001
0000
0010
,
0100
0000
0010
0000
0001
0000
1000
0010
0000
0100
0001
0100
0001
0000
1000
0000
,
0001
0000
0010
0000
0000
0M00
0000
0000
0010
0000
1000
0000
0000
0000
0000
0000
1001
0000
0000
0000
0000
0000
0000
0000
0001
0000
0000
0000
0100
0000
0000
0000
,
1000
0000
0100
0000
0010
0000
1000
0002
0000
0000
0013
0000
0100
0000
1000
0000
,
0020
0000
0000
0230
0000
0000
0301
0000
0020
0000
0000
0230
0000
0000
1300
0000
,
0001
0000
0100
0010
0100
0000
0001
0000
1000
0000
0100
0000
1100
0000
0001
1000
,
0001
0000
0010
0000
0000
0M00
0000
0000
0010
0000
1000
0000
0000
0000
0000
0000
1001
0000
0000
0000
0000
0000
0000
0000
0001
0000
0000
0000
0100
0000
0000
0000
,
1000
0000
0100
0010
1000
0000
0001
0020
0000
0000
0130
0000
0100
0000
0100
0000
,
1000
0000
0000
1100
0000
0000
0001
0000
0100
0000
0000
0101
0000
0000
1000
0000
,
0100
0000
0010
0001
0000
0100
0000
0001
1000
0000
0010
0000
0100
0000
0001
0000
,
1000
0000
0010
0000
0000
0M00
0000
0000
0010
0000
0001
0000
0000
0000
0000
0000
1001
0000
0000
0000
0000
0000
0000
0000
1000
0000
0000
0000
0100
0000
0000
0000
,
0001
0000
0100
0000
0010
0000
0001
2000
0000
0000
3010
0000
0100
0000
0001
0000
,
0020
0000
0000
0230
0000
0000
1300
0000
0020
0000
0000
0230
0000
0000
0301
0000
,
1000
0000
0100
0010
0100
0000
1000
0000
0001
0000
0100
0000
0101
0000
1000
0001
,
1000
0000
0010
0000
0000
0M00
0000
0000
0010
0000
0001
0000
0000
0000
0000
0000
1001
0000
0000
0000
0000
0000
0000
0000
1000
0000
0000
0000
0100
0000
0000
0000
,
0001
0000
0100
0010
0001
0000
1000
0020
0000
0000
0130
0000
0100
0000
0100
0000
,
0001
0000
0000
0101
0000
0000
1000
0000
0100
0000
0000
1100
0000
0000
0001
0000
,
0100
0000
0010
1000
0000
0100
0000
1000
0001
0000
0010
0000
0200
0000
0300
0000
,
1100
0000
0001
0100
0000
0001
0100
0000
0010
1000
0000
0001
0010
0000
0100
1000
,
0100
0000
0010
0000
0001
0000
1000
0000
0010
0000
0100
0001
1000
0000
1001
0000
;

//---------------dance-single - DS+ XO BU-----------------
#NOTES:
     dance-single:
     :
     Challenge:
     15:
     0.715444,0.734420,0.199880,0.566327,0.927221,451.000000,433.000000,18.000000,51.000000,0.000000,0.000000,0.715444,0.734420,0.199880,0.566327,0.927221,451.000000,433.000000,18.000000,51.000000,0.000000,0.000000:
0000
0000
0000
0000
,
0000
0000
0000
0000
,
0000
0000
0000
0000
,
0000
0000
0000
0000
0000
0000
0000
0000
0000
0000
1000
0000
0001
0010
0000
0011
,
0000
1000
0010
0100
0001
0000
1000
0000
1100
0000
0101
0000
1000
0010
0000
0100
,
0001
0000
1000
0010
0100
0000
0002
0000
1000
0000
0000
0013
0000
0100
1000
0100
,
0000
0000
0000
1000
0000
0000
0001
0000
0100
0000
0001
0000
0100
0000
0000
0000
0000
0000
0010
0000
0000
0000
0000
0000
1000
0000
0000
0000
0000
0000
0001
0000
0000
0000
0000
0000
1000
0000
0000
0100
0000
0000
0010
0000
0000
0001
0000
0000
,
1000
0010
0000
1000
0100
0000
2000
0000
0001
0000
0000
3010
0000
0100
0001
0100
,
0000
0000
0000
0001
0000
0000
1000
0000
0100
0000
1000
0000
0100
0000
0000
0000
0000
0000
0010
0000
0000
0000
0000
0000
0001
0000
0000
1000
0000
0000
0001
0000
0000
1000
0000
0000
0010
0000
0000
0100
0000
0000
0001
0000
0000
1000
0000
0000
,
0100
0000
0010
0000
0001
0000
1000
0010
1000
0000
0001
0000
0010
0100
0000
2000
,
0000
0000
3001
0100
0001
0100
0010
1000
0001
0000
0020
0100
0000
0031
0000
2000
,
0000
0000
3001
0000
0100
0000
0001
0000
1000
0000
0020
0100
0000
1030
0000
0001
,
0010
0000
0100
0000
1000
0000
0001
0100
0001
0000
1000
0000
0002
1000
0000
0013
,
0000
0000
0100
0000
2000
0001
0000
3010
0000
0000
1000
0000
0002
0100
0000
0013
,
0000
0000
0100
1000
0002
0100
0000
2003
0000
3000
0000
0000
0001
0100
0001
0010
,
0000
0100
1000
0000
0010
0000
0100
1000
0000
0100
0001
0000
1000
0000
0100
0010
,
0000
0000
0000
0000
0011
0000
0000
0000
0011
0000
0000
0000
1000
0000
0001
0100
0001
0000
1000
0000
0100
0000
0010
0000
0000
0000
0011
0000
0000
0000
1010
0000
,
0000
0000
0001
0000
0101
0000
1000
0000
0100
0000
0010
0002
0000
1000
0000
0103
,
0000
0000
0010
0000
1000
0000
0001
0000
0010
0000
0100
2000
0000
0001
0000
3010
,
0000
0000
0100
0000
0001
0000
1000
0000
0100
0000
1000
0020
0000
0100
0000
1030
,
0001
0000
0010
0000
0200
0000
0000
0000
2300
0000
3001
0000
0200
0010
0000
0301
,
0000
0000
1000
0000
0200
0010
0000
1300
0000
0000
0001
0000
0200
0010
0000
1300
,
0000
0000
0100
0002
0003
2000
3000
0200
0300
0020
0030
0000
0001
1000
0000
0010
,
0000
0000
1000
0002
0000
0010
0000
1003
0000
0000
0001
2000
0000
0010
0000
3001
,
0100
0000
0000
0000
0101
0000
0000
0000
0101
0000
0000
0000
1000
0000
0100
0000
0010
0000
0001
0000
1000
0000
0001
0100
0001
0000
1000
0000
0000
0000
1100
0000
,
0000
1100
0000
0000
0001
0000
0100
0000
0010
0000
0000
1010
0000
0000
0001
0010
,
0000
0100
1000
0010
1000
0000
0001
0000
0100
0000
0010
0000
0010
1000
0001
2000
,
0100
0000
3002
0000
0100
0000
1003
0000
0010
0000
0010
0100
0000
0100
0000
0001
,
0000
1000
0100
0010
0001
0000
1000
0000
0010
0000
0100
0000
0100
0000
0000
0101
,
0000
0101
0000
0000
1000
0000
0100
0000
0010
0000
0000
0011
0000
0000
1000
0010
,
0000
0100
0001
0010
0001
0000
1000
0000
0100
0000
0010
0000
0010
0001
1000
0002
,
0100
0000
2003
0000
0100
0000
3001
0000
0010
0000
0010
0100
0000
0100
0000
1000
,
0001
0100
0001
0100
0010
1000
0001
0010
0100
1000
0010
1000
0001
0000
0010
0000
,
0200
0001
0000
0000
0320
1000
0000
0000
0032
0000
0000
0000
0103
0000
1000
0000
,
0100
0000
0010
0000
1000
0000
0001
0020
0000
0000
0130
0000
0100
0000
2000
0000
,
0100
0000
0000
3001
0000
0000
0200
0000
0010
0000
0000
0301
0000
0000
0100
0000
,
1000
0000
0100
0010
1000
0000
0001
0000
0010
0000
0100
0000
0100
0000
1000
0001
,
0200
1000
0000
0000
0320
0001
0000
0000
2030
0000
0000
0000
3100
0000
0001
0000
,
0100
0000
0010
0001
1000
0000
0010
0100
0000
0000
0001
0000
1000
0100
0020
0000
,
0001
0000
0000
0130
0000
0000
2000
0000
0001
0000
0000
3010
0000
0000
0100
0000
,
0001
0000
0010
0100
0000
1000
0000
0100
0010
0000
0001
0000
1000
0010
1000
0010
,
0200
1000
0000
0000
0320
0001
0000
0000
2030
0000
0000
0000
3100
0000
0001
0000
,
0100
0000
0010
0000
0001
0000
1000
0020
0000
0000
0130
0000
0100
0000
0002
0000
,
0100
0000
0000
1003
0000
0000
0200
0000
0010
0000
0000
1300
0000
0000
0100
0000
,
0001
0000
0100
0010
0001
0000
1000
0000
0010
0000
0100
0000
0100
0000
0001
1000
,
0200
0001
0000
0000
0320
1000
0000
0000
0032
0000
0000
0000
0103
0000
1000
0000
,
0100
0000
0010
1000
0001
0000
0010
0100
0000
0000
1000
0000
0001
0100
0020
0000
,
1000
0000
0000
0130
0000
0000
0002
0000
1000
0000
0000
0013
0000
0000
0100
0000
,
1000
0000
0010
0100
0000
0001
0000
0100
0010
0000
1000
0000
0001
0000
0000
0000
,
1001
0000
1000
0100
0000
1000
0010
0000
0100
0001
0010
0100
1000
0000
0001
0100
,
0001
0000
0010
0000
0100
0000
1000
0001
1000
0010
0100
0001
1000
0000
1001
0000
;

//---------------dance-single - ----------------
#NOTES:
     dance-single:
     :
     Medium:
     11:
     0.498114,0.508445,0.210985,0.111044,0.322029,314.000000,295.000000,19.000000,10.000000,0.000000,0.000000,0.498114,0.508445,0.210985,0.111044,0.322029,314.000000,295.000000,19.000000,10.000000,0.000000,0.000000:
// measure 0
0000
0000
0000
0000
,  // measure 1
0000
0000
0000
0000
,  // measure 2
0000
0000
0000
0000
,  // measure 3
0000
0000
0000
0000
0000
0000
0000
0000
0000
0000
1000
0000
0001
0000
0000
1001
,  // measure 4
0000
1000
0100
0010
0001
1000
0010
0000
,  // measure 5
0110
0000
0000
0000
0001
0000
0100
0000
0002
0000
0000
0013
0000
0000
0000
0100
,  // measure 6
0000
1000
0100
0010
0001
0000
1000
0010
,  // measure 7
1000
0000
0000
0001
1000
0000
0100
0000
2000
0000
0000
3010
0000
0000
0000
0100
,  // measure 8
0000
0001
0100
0010
1000
0001
1000
0001
,  // measure 9
0020
0000
0000
0000
0230
0000
0000
0000
1300
0000
0001
0000
1000
0000
0000
0010
,  // measure 10
0000
0000
1000
0000
0001
0000
0000
0000
0001
0000
0000
0010
0000
0000
0001
0000
,  // measure 11
1000
0000
0000
0000
0010
0000
0000
0000
0100
0000
0000
0001
0000
0000
0100
0000
,  // measure 12
0010
0000
0000
0000
1000
0000
0100
0000
1000
0000
0000
0000
0001
0000
0000
0100
,  // measure 13
0000
0000
0001
0000
1000
0000
0000
0010
0000
0000
1000
0000
0001
0000
0000
0010
,  // measure 14
0000
0000
0001
0000
1000
0000
0000
0100
0000
0000
0010
0000
0001
0000
0000
1000
,  // measure 15
0000
0001
0100
0001
0100
0010
1000
0010
,  // measure 16
1000
0000
0001
0000
1000
0000
0001
0000
1000
0000
0000
0010
0000
0100
0000
0010
,  // measure 17
0000
1000
0001
0000
0010
0100
1000
0000
,  // measure 18
0001
0000
0100
0000
0010
0000
0000
0000
1000
0000
0000
0100
0000
0010
0000
0001
,  // measure 19
0000
0000
1000
0000
0010
0000
1000
0000
0001
0000
0000
0100
0000
0010
0000
1000
,  // measure 20
0000
0000
0001
0000
0020
0000
0000
0000
0230
0000
0000
0000
1300
0000
0000
0010
,  // measure 21
0000
0000
1000
0000
0001
0000
0000
0100
0000
0000
0001
0000
1000
0000
0000
0100
,  // measure 22
0000
1000
0002
0000
0023
0000
0130
1000
,  // measure 23
0001
0000
0000
1000
0000
0100
0000
1000
0000
0000
0000
0001
0000
0100
0000
0001
,  // measure 24
0000
0000
1000
0000
0010
0000
0100
0000
0001
0000
1000
0000
0002
0000
0000
0010
,  // measure 25
0000
0013
0000
0000
0100
0000
1000
0000
0001
0000
0000
0100
0000
0000
0001
0000
,  // measure 26
1000
0100
0010
0001
0010
0000
0100
1000
,  // measure 27
0001
0000
0100
0000
0001
0000
0100
0000
0010
0000
0000
1000
0000
0000
0010
0000
,  // measure 28
0100
0000
0001
0000
1000
0000
0000
0000
0100
0000
0000
0000
2000
0000
0000
0010
,  // measure 29
0000
3010
0000
0000
0100
0000
0001
0000
1000
0000
0000
0100
0000
0000
1000
0000
,  // measure 30
0001
0100
0010
1000
0010
0000
0100
0001
,  // measure 31
1000
0000
0100
0000
1000
0000
0100
0000
0010
0000
0000
0001
0000
0000
1000
0000
,  // measure 32
0001
0000
1000
0001
0000
1000
0001
0000
,  // measure 33
0101
0000
1100
0000
0101
0000
1000
0100
,  // measure 34
0010
0000
0001
0000
0010
0000
0000
0100
0000
0000
1000
0000
0010
0000
1000
0000
,  // measure 35
0001
0000
0000
0100
0000
0000
0001
0000
1000
0000
0000
0100
0000
0000
1000
0000
,  // measure 36
0010
0100
0010
1000
0001
0010
0001
0000
,  // measure 37
0011
0000
1010
0000
0011
0000
1000
0010
,  // measure 38
0100
0000
0010
0000
1000
0000
0000
0001
0000
0000
1000
0000
0100
0000
0010
0000
,  // measure 39
0001
0000
0000
0100
0000
0000
0001
0000
1000
0000
0000
0010
0000
0000
1000
0000
,  // measure 40
0001
0000
0000
0010
0000
0100
0000
0000
1000
0000
0001
0000
1000
0000
0000
0000
,  // measure 41
1100
0000
0101
0000
1100
0000
0001
0100
,  // measure 42
0010
0000
1000
0000
0010
0000
0000
0100
0000
0000
0001
0000
0010
0000
0001
0000
,  // measure 43
1000
0000
0000
0100
0000
0000
1000
0000
0001
0000
0000
0100
0000
0000
0001
0000
,  // measure 44
0010
0100
0010
0001
1000
0010
1000
0000
,  // measure 45
1010
0000
0011
0000
1010
0000
0001
0010
,  // measure 46
0100
0000
0010
0000
0001
0000
0000
1000
0000
0000
0001
0000
0100
0000
0010
0000
,  // measure 47
1000
0000
0000
0100
0000
0000
1000
0000
0001
0000
0000
0010
0000
0000
0001
0000
,  // measure 48
1000
0000
0000
0010
0000
0100
0000
0000
0001
0000
1000
0000
0001
0000
0000
0000
,  // measure 49
0101
0000
0000
1100
0000
0000
1010
0000
0000
0011
0000
0000
1001
0000
0000
0000
,  // measure 50
1000
0100
0010
0001
1000
0010
0100
0001
;
