#TITLE:Time to beat the odds;
#SUBTITLE:;
#ARTIST:影虎。;
#TITLETRANSLIT:;
#SUBTITLETRANSLIT:;
#ARTISTTRANSLIT:Kagetora.;
#GENRE:;
#CREDIT:;
#BANNER:Time to beat the odds.png;
#BACKGROUND:Time to beat the odds-bg.png;
#LYRICSPATH:;
#CDTITLE:;
#MUSIC:Time to beat the odds.ogg;
#OFFSET:0.749000;
#SAMPLESTART:81.750999;
#SAMPLELENGTH:15.000000;
#SELECTABLE:YES;
#BPMS:0.000000=160.000000
;
#STOPS:
;
#BGCHANGES:0.250=Time to beat the odds.avi=1.000=0=0=1===CrossFade_Faster==,
99999=-nosongbg-=1.000=0=0=0 // don't automatically add -songbackground-
;
#KEYSOUNDS:;
#ATTACKS:;

//---------------dance-single - ----------------
#NOTES:
     dance-single:
     :
     Hard:
     17:
     0.842960,0.967684,0.189236,0.249447,1.234334,686.000000,664.000000,22.000000,29.000000,13.000000,0.000000,0.842960,0.967684,0.189236,0.249447,1.234334,686.000000,664.000000,22.000000,29.000000,13.000000,0.000000:
0000
0000
0000
0000
,
0000
0000
0000
0000
,
0000
0000
0000
0000
,
0000
0000
0000
0000
,
2002
0000
0000
3003
,
1000
0000
0001
0010
0000
0001
0100
0010
1000
0000
0010
0000
0001
0000
0010
0000
,
1000
0100
0010
0000
0100
0001
0000
0100
M000
0100
0010
0100
0000
0001
0100
0010
,
0000
1000
0001
0010
0100
1000
0000
0010
0000
0100
1000
0000
0100
0000
0001
0000
,
0010
0001
0010
0001
0000
1000
0010
1000
0010
0000
0100
0001
0000
1000
0100
0010
,
0001
0000
1000
0010
0000
1000
0100
0010
0001
0000
0010
0000
1000
0000
0010
0000
,
0001
0100
0010
0000
0100
1000
0000
0100
000M
0100
0010
0100
0000
1000
0100
0010
,
0000
0001
1000
0010
0100
0001
0000
0010
0000
0100
0001
0000
0100
0000
1000
0000
,
0010
1000
0010
1000
0000
0001
0010
0001
0010
0000
0100
1000
0000
0001
0100
0010
,
2000
0000
0010
0010
0010
0000
0001
0001
,
0001
0000
0000
0000
0100
0000
3100
0000
1100
0000
0000
0011
0000
0000
1001
0000
,
0002
0000
0100
0100
0100
0000
1000
1003
,
1001
0000
0000
0011
0000
0000
1100
0000
0000
1001
0000
0000
1000
0010
1000
0010
,
0100
0000
0000
0000
0001
0000
0000
0000
0010
0000
0000
0000
0001
0000
0100
0000
0001
0000
0000
0000
0010
0000
0000
0000
0100
0000
1000
0000
0001
0000
0100
0010
,
1000
0000
0000
0000
0100
0000
0000
0000
1000
0000
0000
0000
0010
0000
1000
0000
0010
0000
0000
0000
1000
0000
0000
0000
0100
0000
0010
0000
0001
0000
1000
0100
,
0010
0001
0010
0001
1000
0010
1000
0010
0100
0001
0100
0001
1000
0100
1000
0100
,
0020
0000
0001
0001
0001
0001
0031
0000
,
1000
0000
0010
0000
1000
0000
0000
0000
0001
0000
0010
0100
1000
0010
0100
0001
,
1000
0100
1000
0100
0000
0001
0000
0100
0010
0001
0100
0010
1000
0100
0010
0000
,
0001
0000
0100
0000
1000
0000
0100
0000
0001
0100
0000
0010
1000
0001
0010
0100
,
1000
0000
0100
0000
0010
0100
1000
0010
0100
0001
0000
0001
0000
0000
1000
0000
,
0001
0000
0010
0000
0001
0000
0000
0000
1000
0100
0010
0100
0000
0001
0000
0100
,
0010
0000
0001
0000
1000
0010
0100
0001
1000
0100
1000
0100
0000
0010
0000
0010
,
0001
0000
1000
0010
0000
0010
0000
0010
0000
0010
0000
1000
0001
0000
0010
0000
,
0200
0000
0000
0000
1000
0000
0000
0000
1300
0000
0000
0000
1000
0100
0010
0001
,
1000
0000
0000
0000
0001
0010
0001
0010
0100
0000
0001
0100
0000
1000
0100
0000
,
M100
0001
0100
0000
0010
1000
0010
1000
0001
0000
0010
1000
0000
0010
0001
0000
,
4000
0000
0000
0000
0000
0000
0000
0000
0000
0000
0000
0000
0000
0000
0000
0000
0000
0000
0000
0000
3000
0000
0000
0000
1010
0000
0000
0000
0000
0000
0001
0000
0000
0100
0000
0000
0000
0000
0000
1000
0000
0000
0100
0000
0000
0000
0000
0000
,
0001
0100
0010
0000
1000
0100
1000
0100
0000
0010
0001
0010
0002
0000
0000
0000
,
1003
0000
0010
0000
1000
0100
1000
0100
0010
0000
0001
2000
0000
0000
0000
0000
,
3001
0000
0010
0000
0001
0100
0001
0100
0010
0000
1000
0002
0000
0000
0000
0000
,
1003
0000
0010
0000
0001
0000
0010
0000
0100
0001
0100
0001
1000
0100
0010
0001
,
2000
0000
0000
0000
3010
0100
0010
0100
0001
1000
0000
0000
1001
0000
0000
0000
,
2000
0000
3010
0020
0000
0130
0001
0020
,
0000
0000
0000
0000
0100
0000
0130
1000
0001
0000
0100
0000
0010
0000
1000
0000
,
0001
0000
0010
0100
1000
0100
0010
0100
1000
0001
0100
0010
0100
0001
0100
0010
,
1000
0100
0010
0001
0100
0010
1000
0001
0020
0000
0000
0000
0030
0000
0000
0000
,
0100
1000
0100
0000
0001
0000
0100
0000
0010
0000
0001
0000
0100
0001
0100
0000
,
1000
0100
0010
1000
0100
0010
0001
1000
,
0020
0000
0000
0000
0000
0000
0000
0000
0000
1030
0100
0010
0002
0000
0000
0000
0000
0000
0003
0000
0000
0001
0100
0010
,
2000
0000
0000
3000
,
1000
0000
0001
0010
0000
0100
0000
0001
0000
0100
1000
0000
0001
0000
0001
0000
,
1000
0100
1000
0100
0010
0000
1000
0010
0000
0001
0010
0000
0001
0100
0010
1000
,
0001
0000
1000
0010
0000
0100
0000
1000
0000
0100
0001
0000
1000
0000
1000
0000
,
0001
0100
0001
0100
0010
0000
0001
0010
0000
1000
0010
0000
0010
0000
0000
0000
,
1000
0100
1000
0100
0000
0010
0000
0010
0001
0100
0001
0100
0000
0010
0000
0010
,
1000
0010
0100
0001
0000
0010
0000
0010
0001
0010
0100
1000
0000
0010
0000
0010
,
1000
0010
1000
0000
1000
0100
1000
0000
0001
0010
0001
0000
0001
0100
0001
0000
,
1000
0010
1000
0010
0100
0001
0100
0001
0010
0100
0010
0100
1000
0001
1000
0001
,
0020
0000
0000
0030
,
2002
3003
MMMM
0110
,
1000
0000
0001
0010
0100
1000
0001
0000
0100
0000
1000
0100
0000
0010
1000
0010
,
0M00
0010
0001
0010
0000
0100
0000
0100
0000
1000
0100
1000
0001
0100
0010
1000
,
0001
0000
1000
0100
0010
0001
1000
0000
0010
0000
0001
0010
0000
1000
0100
0020
,
0001
1000
0000
1000
0001
0000
0001
1000
0000
1000
0001
0030
0100
1000
0001
0100
,
0010
0000
1000
0010
0100
0001
1000
0000
0100
0000
0001
0100
0000
0010
0001
0010
,
0M00
0010
1000
0010
0000
0100
0000
0100
0000
0001
0100
0001
1000
0100
0010
0001
,
0100
0000
0001
1000
0000
0000
0000
0000
0100
0000
1000
0001
0000
0000
0000
0000
,
0220
0000
0330
1001
,
1000
0100
0010
0001
0000
0100
0001
0200
0000
0010
0000
0010
0000
1000
0000
1300
,
0000
0100
0010
1000
0000
0100
1000
0200
0000
0010
0000
0010
0000
0001
0000
0301
,
0000
0100
0010
0001
0000
1000
0010
0200
0000
1000
0000
1000
0000
0001
0000
0301
,
0000
0100
0010
1000
0000
0001
0010
0100
1000
0000
1000
0000
0001
0000
0001
0000
,
1000
0010
1000
0010
0000
0100
0001
0100
0001
0000
1000
0100
0000
0001
0100
0010
,
0001
0010
0001
0010
0000
0100
1000
0100
1000
0000
0001
0100
0000
1000
0100
0010
,
1000
0000
0001
0000
0010
0000
0001
0000
1000
0010
1000
0010
0100
0001
0100
0001
,
0020
0000
0030
MMMM
,
2002
0000
0000
0000
3003
0000
0000
0000
1010
0000
0000
0101
0000
0000
1100
0000
,
0001
0000
0010
0001
0000
1000
0001
0000
0100
0001
0000
1000
0100
0010
0001
0400
,
0040
0000
0000
0330
,
0000
0000
1010
0000
0000
0011
0000
0000
1100
0000
0000
0101
0000
0000
1000
0000
,
0001
0000
0000
0000
;

//---------------dance-single - ----------------
#NOTES:
     dance-single:
     :
     Medium:
     12:
     0.541903,0.645122,0.154829,0.206439,0.202138,441.000000,423.000000,18.000000,24.000000,6.000000,0.000000,0.541903,0.645122,0.154829,0.206439,0.202138,441.000000,423.000000,18.000000,24.000000,6.000000,0.000000:
// measure 0
0000
0000
0000
0000
,  // measure 1
0000
0000
0000
0000
,  // measure 2
0000
0000
0000
0000
,  // measure 3
0000
0000
0000
0000
,  // measure 4
2002
0000
0000
3003
,  // measure 5
1000
0000
0001
0010
0000
0000
0100
0000
0001
0000
0100
0000
1000
0000
0100
0000
,  // measure 6
00M0
0100
0001
0100
0000
0010
1000
0001
,  // measure 7
0000
0010
0001
0010
0000
0100
1000
0010
,  // measure 8
1000
0001
0000
0010
0000
0001
1000
0000
0010
0000
1000
0100
0000
0000
0010
0000
,  // measure 9
0001
0000
1000
0010
0000
0000
0100
0000
1000
0000
0100
0000
0001
0000
0100
0000
,  // measure 10
00M0
0100
1000
0100
0000
0010
0001
1000
,  // measure 11
0000
0010
1000
0010
0000
0100
0001
0010
,  // measure 12
0001
1000
0000
0010
0000
1000
0001
0000
0010
0000
0001
0100
0000
0000
0010
0000
,  // measure 13
2000
0010
0010
0001
,  // measure 14
0001
0000
0000
0000
3100
0000
0000
0000
1100
0000
0000
0011
0000
0000
1001
0000
,  // measure 15
0002
0100
0100
1003
,  // measure 16
1001
0000
0000
1010
0000
0000
0101
0000
0000
1100
0000
0000
0010
0000
0010
0000
,  // measure 17
0001
1000
0001
1000
0010
1000
0010
1000
,  // measure 18
0010
0100
0010
0100
0001
0100
0001
0100
,  // measure 19
0001
1000
0001
0010
0001
1000
0001
0100
,  // measure 20
0020
0000
0000
0030
,  // measure 21
1000
0010
1000
0000
0001
0010
0100
1000
,  // measure 22
0001
0100
1000
0100
0010
1000
0001
0000
,  // measure 23
1000
0100
1000
0000
0001
0010
0001
0000
,  // measure 24
1000
0000
0010
0000
0100
0000
0001
0000
0010
0100
0000
0100
0000
0000
1000
0000
,  // measure 25
0001
0010
0001
0000
1000
0010
0100
0001
,  // measure 26
1000
0100
0001
0100
0010
0001
1000
0000
,  // measure 27
0001
0000
1000
0010
0000
0010
0000
0010
0000
0010
0000
0010
1000
0000
0001
0000
,  // measure 28
0020
0000
0000
0030
,  // measure 29
1100
0000
0000
0000
0001
0000
0100
0000
0001
0000
0000
0010
0000
0000
0010
0000
,  // measure 30
0100
0000
0001
0000
0100
0000
1000
0000
0010
0000
0000
0010
0000
0000
0010
0000
,  // measure 31
0202
0000
0000
0000
0303
0000
0000
0000
1000
0000
0000
1000
0000
0000
1000
0000
,  // measure 32
0100
0001
0100
1000
0100
0010
0001
0000
,  // measure 33
1000
0010
1000
0100
0010
0001
1000
0000
,  // measure 34
0001
0010
0001
0100
0010
1000
0001
0000
,  // measure 35
1000
0010
1000
0010
0100
0001
0100
0001
,  // measure 36
0020
0000
0000
0000
0000
0000
0030
0000
0001
1000
0000
0000
1001
0000
0000
0000
,  // measure 37
2000
0000
0000
0000
0000
3010
0100
0002
,  // measure 38
0000
0000
0000
0000
1003
0100
0010
0001
,  // measure 39
0100
0010
0100
0001
0100
0010
1000
0100
,  // measure 40
0010
0100
1000
0100
0010
0000
0000
0000
,  // measure 41
0001
0100
1000
0100
0010
0000
1000
0100
,  // measure 42
0001
0100
0010
0000
0001
0100
0010
1000
,  // measure 43
0200
0000
0000
0000
0000
0000
0000
0300
0020
0000
0000
0000
0000
0000
0000
0000
,  // measure 44
0032
0000
0000
0003
,  // measure 45
1000
0010
1000
0001
1000
0100
0010
0001
,  // measure 46
1000
0010
1000
0010
1000
0000
0000
0001
0000
0001
0000
0000
1000
0001
1000
0000
,  // measure 47
0001
0010
0001
1000
0001
0100
0010
1000
,  // measure 48
0001
0010
0001
0010
0001
0000
0000
1000
0000
0000
1000
0000
1001
0000
0000
0000
,  // measure 49
1000
0000
0001
0010
0000
0000
0000
0000
0001
0000
1000
0010
0000
0000
0000
0000
,  // measure 50
0100
0000
0001
1000
0000
0000
0000
0000
0100
0000
1000
0001
0000
0000
0000
0000
,  // measure 51
1000
0100
1000
0010
0100
0001
0010
0001
,  // measure 52
1000
0100
0010
0001
0100
0010
1000
0001
,  // measure 53
0020
0000
0000
0000
,  // measure 54
0230
0000
0000
0300
MMMM
0000
1001
0000
,  // measure 55
1000
0000
0100
0000
0001
0000
0100
0000
0010
0000
0001
1000
0000
0000
0010
0000
,  // measure 56
0000
1000
0010
1000
0001
0010
0100
1000
,  // measure 57
0001
0000
0100
0000
1000
0000
0100
0000
0010
0000
1000
0001
0000
0000
0010
0000
,  // measure 58
0001
0000
0000
1000
0000
0000
0001
0000
0000
1000
0000
0000
0001
0000
0100
0000
,  // measure 59
0010
0000
0001
0000
0010
0000
1000
0000
0001
0000
0010
0100
0000
0000
1000
0000
,  // measure 60
0000
0001
0100
0001
1000
0100
0010
0001
,  // measure 61
1000
0000
0001
0010
0000
0000
0000
0000
0001
0000
1000
0010
0000
0000
0000
0000
,  // measure 62
0220
0000
0000
0330
,  // measure 63
0001
0100
0001
0020
0001
0000
0031
0000
,  // measure 64
1000
0100
1000
0020
1000
0000
1030
0000
,  // measure 65
0001
0010
0100
2000
0001
0000
3001
0000
,  // measure 66
0100
0010
1000
0000
0001
0001
1000
1000
,  // measure 67
0010
1000
0010
0100
0010
0001
0010
0100
,  // measure 68
0001
0010
0100
0010
1000
0010
0100
0010
,  // measure 69
0001
1000
0001
1000
0010
0100
0010
0100
,  // measure 70
0002
0000
0000
0003
,  // measure 71
1010
0000
0101
0000
,  // measure 72
1000
0000
0000
1000
0000
0000
0001
0000
0000
0001
0000
0000
0110
0000
0000
0000
,  // measure 73
2002
0000
0000
3003
,  // measure 74
0000
0000
1000
0000
0000
0001
0000
0000
1000
0000
0000
0001
0000
0000
0100
0000
,  // measure 75
0010
0000
0000
0000
;
