#TITLE:Time Is Up;
#SUBTITLE:;
#ARTIST:Poppy feat. Diplo;
#TITLETRANSLIT:;
#SUBTITLETRANSLIT:;
#ARTISTTRANSLIT:;
#GENRE:ELECTROPOP;
#CREDIT:;
#BANNER:Time Is Up.png;
#BACKGROUND:Time Is Up-bg.png;
#LYRICSPATH:;
#CDTITLE:cdtitle.png;
#MUSIC:Time Is Up.ogg;
#OFFSET:-0.440000;
#SAMPLESTART:80.738007;
#SAMPLELENGTH:15.000000;
#SELECTABLE:YES;
#BPMS:0.000000=106.000000
,111.000000=53.000000
,125.000000=106.000000
;
#STOPS:110.000000=0.566000,
125.000000=1.698000
;
#BGCHANGES:0.000=Time Is Up.avi=1.000=0=0=0=StretchNoLoop==CrossFade_Fastest==,
99999=-nosongbg-=1.000=0=0=0 // don't automatically add -songbackground-
;
#KEYSOUNDS:;
#ATTACKS:;

//---------------dance-single - Daff_4K----------------
#NOTES:
     dance-single:
     Daff_4K:
     Beginner:
     1:
     0.079388,0.099987,0.000000,0.000000,0.000000,66.000000,66.000000,0.000000,0.000000,0.000000,0.000000,0.079388,0.099987,0.000000,0.000000,0.000000,66.000000,66.000000,0.000000,0.000000,0.000000,0.000000:
0000
0000
0000
0000
,
0000
0000
0000
0000
,
0000
0000
0000
0000
,
0000
0000
0000
0000
,
0001
0000
0010
0000
,
0001
0000
0000
0000
,
1000
0000
0100
0000
,
1000
0000
0000
0000
,
0010
0000
0000
0000
,
0100
0000
0000
0000
,
0001
0000
1000
0000
,
0001
0000
0000
0000
,
1000
0000
0010
0000
,
1000
0000
0000
0000
,
0001
0000
0100
0000
,
0001
0000
0000
0000
,
0010
0000
0000
0000
,
0100
0000
0000
0000
,
1000
0000
0001
0000
,
1000
0000
0000
0000
,
0010
0000
0000
0000
,
0100
0000
0000
0000
,
0001
0000
1000
0000
,
0001
0000
0000
0000
,
0010
0000
0000
0000
,
0100
0000
0000
0000
,
1000
0000
0001
0000
,
1000
0000
0000
0000
,
0001
0000
0001
0000
,
1000
0000
1000
0000
,
0010
0000
0100
0000
,
0001
0000
1000
0000
,
0100
0000
1000
0000
,
0100
0000
1000
0000
,
0000
0000
0010
0000
,
0100
0000
0001
0000
,
0010
0000
0001
0000
,
0010
0000
0001
0000
,
0000
0000
0100
0000
,
0010
0000
1000
0000
,
0000
0000
0100
0000
,
1000
0000
0001
0000
,
0000
0000
0100
0000
,
0001
0000
1000
0000
,
0000
0000
0010
0000
,
1000
0000
0001
0000
,
0000
0000
0010
0000
,
0001
0000
1000
0000
;

//---------------dance-single - Daff_4K----------------
#NOTES:
     dance-single:
     Daff_4K:
     Easy:
     4:
     0.158776,0.179976,0.016840,0.134719,0.000000,132.000000,130.000000,2.000000,16.000000,0.000000,0.000000,0.158776,0.179976,0.016840,0.134719,0.000000,132.000000,130.000000,2.000000,16.000000,0.000000,0.000000:
0000
0000
0000
0000
,
0000
0000
0000
0000
,
0000
0000
0000
0000
,
0000
0000
0000
0000
,
0001
0000
0100
0001
,
1000
0000
0010
1000
,
0001
0000
0010
0100
,
1000
0000
0001
0100
,
1000
0000
1000
0100
,
0001
0000
1000
0000
,
0100
0100
0010
0010
,
0001
0000
1000
0001
,
1000
0000
0100
1000
,
0001
0000
0010
0001
,
1000
0000
0010
0100
,
0001
0000
1000
0100
,
0001
0000
0001
0100
,
1000
0000
0001
0000
,
0100
0100
0010
0010
,
1000
0000
0001
1000
,
0200
0000
0310
0000
,
0002
0000
1003
0000
,
0001
0001
1000
1000
,
0010
0000
0100
0010
,
0200
0000
0310
0000
,
2000
0000
3001
0000
,
1000
1000
0001
0001
,
1001
0000
0000
1000
,
0100
1000
0000
0001
,
0100
0001
0000
1000
,
0001
1000
0000
0010
,
0100
0001
1001
0000
,
1000
0100
0020
0000
,
0130
1000
0001
0000
,
0100
0010
1000
0100
,
0010
0001
1000
0000
,
0001
0100
0020
0000
,
0130
0001
1000
1000
,
0001
0001
0010
0100
,
1000
0001
0200
0300
,
0020
0030
2000
3000
,
0001
1000
0002
0003
,
0020
0030
0100
1000
,
0001
1000
0200
0300
,
0020
0030
0002
0003
,
1000
0001
2000
3000
,
0020
0030
0100
0001
,
1000
0001
1000
0000
;

//---------------dance-single - Daff_4K----------------
#NOTES:
     dance-single:
     Daff_4K:
     Medium:
     7:
     0.275452,0.279962,0.033680,0.185238,0.000000,229.000000,225.000000,4.000000,22.000000,0.000000,0.000000,0.275452,0.279962,0.033680,0.185238,0.000000,229.000000,225.000000,4.000000,22.000000,0.000000,0.000000:
0000
0000
0000
0000
,
0000
0000
0000
0000
,
0000
0000
0000
0000
,
0000
0000
0000
0000
,
0001
0000
0100
0000
1000
0100
0001
0000
,
0010
0100
0010
0000
0001
1000
0001
1000
,
0010
0000
0100
0000
0001
1000
0001
0000
,
0010
0000
0100
0000
1000
0001
1000
0000
,
0002
0000
0103
0000
0001
1000
0001
0000
,
2000
0000
3010
0000
1000
0001
1000
0000
,
0100
0100
0100
0000
0010
0010
0010
0000
,
0001
1000
0001
1001
,
1000
0000
0100
0000
0001
0100
1000
0000
,
0010
0100
0010
0000
1000
0001
1000
0001
,
0010
0000
0100
0000
1000
0001
1000
0000
,
0010
0000
0100
0000
0001
1000
0001
0000
,
2000
0000
3100
0000
1000
0001
1000
0000
,
0002
0000
0013
0000
0001
1000
0001
0000
,
1000
1000
1000
0000
0001
0001
0001
0000
,
0100
0000
0010
0000
1000
0001
1000
0000
,
0001
0000
0100
0010
0000
0010
1000
0000
,
0001
0000
0010
0100
0000
0100
1000
0000
,
0010
0010
0010
0000
0100
0100
0100
0000
,
0010
0000
1000
0000
0001
1000
0001
0000
,
1000
0000
0100
0010
0000
0010
0001
0000
,
1000
0000
0010
0100
0000
0100
0001
0000
,
0010
0010
0010
0000
0100
0100
0100
0000
,
2002
0000
3003
2000
,
3100
0000
0010
0100
1000
0000
0020
0000
,
0130
0000
0001
1000
0001
1000
0002
0000
,
0013
0000
0100
0010
0001
0000
0100
0010
,
0100
0000
1001
0000
1000
0010
1000
0000
,
0001
0010
0001
0000
0200
0000
0010
0000
,
0310
1000
0001
0000
1000
0100
1000
0000
,
0001
0100
0001
0000
0010
0100
0010
0000
,
0001
0000
1000
0000
0001
0010
0001
0000
,
1000
0010
1000
0000
0200
0000
0010
0000
,
0310
0001
1000
0000
0001
0100
0001
0000
,
1000
0100
1000
0000
0010
0100
0010
0000
,
1000
1001
0002
0103
,
0020
1030
1000
0001
,
0010
0100
0010
0100
2000
0000
3100
0000
,
0020
0031
0001
1000
,
0010
0100
0010
0000
2000
0000
3100
0000
,
0002
0103
2000
3010
,
0002
0013
2000
3100
,
0002
0103
2000
3001
,
0100
0010
0100
0010
0100
0000
0000
0000
;

//---------------dance-single - Daff_4K----------------
#NOTES:
     dance-single:
     Daff_4K:
     Hard:
     11:
     0.390925,0.419943,0.084199,0.227338,0.185238,325.000000,315.000000,10.000000,27.000000,0.000000,0.000000,0.390925,0.419943,0.084199,0.227338,0.185238,325.000000,315.000000,10.000000,27.000000,0.000000,0.000000:
0000
0000
0000
0000
,
0000
0000
0000
0000
,
0000
0000
0000
0000
,
0000
0000
0000
0000
,
2001
0000
0000
0000
3010
0000
0000
0010
0100
0000
0001
0000
1000
0000
0000
0000
,
0001
0010
0100
0010
0001
1000
0010
0100
,
0002
0000
1003
0001
0010
0100
1000
0001
,
0200
0000
0000
0000
0310
0000
0000
0000
1000
0001
0000
1000
0001
0000
0010
0000
,
0100
0000
1000
0000
0002
0000
0000
0000
0103
0000
0001
1000
0000
0001
1000
0000
,
0100
0010
0002
0000
1003
0000
0101
0000
,
0010
1000
0001
1000
0100
0001
0100
1000
,
0020
0100
0031
0110
,
1002
0000
0000
0000
0013
0000
0000
0010
0100
0000
1000
0000
0001
0000
0000
0000
,
1000
0010
0100
0010
1000
0001
0010
0100
,
2000
0000
3001
1000
0010
0100
0001
1000
,
0200
0000
0000
0000
0310
0000
0000
0000
0001
1000
0000
0001
1000
0000
0010
0000
,
0100
0000
0001
0000
2000
0000
0000
0000
3100
0000
1000
0001
0000
1000
0001
0000
,
0100
0010
2000
0000
3001
0000
1100
0000
,
0010
0001
1000
0001
0100
1000
0100
0001
,
0020
0000
0100
0000
0031
1000
0010
0100
,
0001
0000
0000
0001
0010
0000
0200
0000
0000
0000
1300
0000
0001
0000
0100
0000
,
0010
0000
0000
0010
1000
0000
0002
0000
0000
0000
0013
0000
0100
0000
1000
0000
,
0010
0010
0100
0100
0001
1000
0100
0010
,
0002
0000
0100
0000
1003
0001
0010
0100
,
1000
0000
0000
1000
0010
0000
0200
0000
0000
0000
0301
0000
1000
0000
0100
0000
,
0010
0000
0000
0010
0001
0000
2000
0000
0000
0000
3010
0000
0100
0000
0001
0000
,
0010
0010
0100
0100
1000
0001
0100
0010
,
2000
0001
3001
1002
,
0010
0000
0000
0000
0100
0000
0100
0000
0103
0000
0010
1000
0200
0000
0000
0000
,
0001
0000
0010
0010
0310
0001
2001
0000
,
0010
0000
0000
0000
0100
0000
0100
0000
3100
0000
0010
0001
0100
0000
0010
1000
,
0100
0000
0010
0001
1000
0000
0000
0000
1001
0000
0000
0001
0100
0000
0000
0100
,
0010
1000
0100
0001
0200
0000
1000
0000
,
0310
0000
0001
0000
1000
0000
0010
1000
0010
0000
0000
0010
0100
0000
0000
0100
,
0001
0000
0010
0000
1000
0000
0010
0000
0001
0000
0000
0001
1000
0000
0010
0000
,
0100
0010
0100
0000
0001
0000
1000
0001
1000
0000
0000
1000
0100
0000
0000
0100
,
0010
0001
0100
1000
0200
0000
0001
0000
,
0310
0000
1000
0000
0001
0000
0010
0001
0010
0000
0100
0000
1000
0000
0010
1000
,
0010
0000
0100
0000
0001
0000
1000
0001
1000
0000
0100
0000
0010
0000
0001
0000
,
0100
0000
0010
0000
0110
0000
0000
0000
1001
0000
0000
1000
0100
0000
0010
0000
,
0002
0000
0000
0000
1000
0000
0000
0000
0103
0000
0000
0100
0010
0000
1000
0000
,
0100
0000
0001
0000
0100
0000
0010
0100
0010
0000
0000
0001
1000
0000
0010
0000
,
0200
0000
0000
0000
1000
0000
0000
0000
0301
0000
0000
0001
1000
0000
0100
0000
,
0010
0100
0010
0000
0001
0000
1000
0000
0001
0000
0000
0001
0100
0000
0010
0000
,
2000
0000
0000
0000
0001
0000
0000
0000
3100
0000
0000
0100
0010
0000
0001
0000
,
0100
0000
1000
0000
0100
0000
0010
0100
0010
0000
0000
1000
0001
0000
0010
0000
,
0200
0000
0000
0000
0001
0000
0000
0000
1300
0000
0000
1000
0001
0000
0100
0000
,
0010
0100
0010
0000
1000
0000
0001
1000
0001
0000
0000
0000
0000
0000
0000
0000
;

//---------------dance-single - Daff_4K----------------
#NOTES:
     dance-single:
     Daff_4K:
     Challenge:
     13:
     0.508804,0.539927,0.235758,0.522035,0.328377,423.000000,395.000000,28.000000,62.000000,0.000000,0.000000,0.508804,0.539927,0.235758,0.522035,0.328377,423.000000,395.000000,28.000000,62.000000,0.000000,0.000000:
// measure 0
0000
0000
0000
0000
,  // measure 1
0000
0000
0000
0000
,  // measure 2
0000
0000
0000
0000
,  // measure 3
0000
0000
0000
0000
,  // measure 4
1002
0000
0000
0000
0013
0000
0100
1000
0002
0000
0100
0000
0203
0000
0000
0000
,  // measure 5
0310
0000
1000
0001
1000
0000
0100
0000
0020
0000
0001
0000
0032
0000
0100
0000
,  // measure 6
0203
0000
0310
1000
1100
0010
0011
0001
,  // measure 7
2000
0000
0000
0000
3010
0000
0100
0000
0001
0010
0000
0010
1000
0000
0001
0000
,  // measure 8
0100
0010
0100
0000
2000
0000
0000
0000
3001
0000
1000
0100
0000
0100
0001
0000
,  // measure 9
1000
0000
0010
0100
0020
0000
0000
0000
0031
0000
1000
0000
0010
0000
0100
0000
,  // measure 10
0002
0000
0010
0000
2003
0000
0010
0000
3002
0000
0100
0000
0013
0000
0100
1000
,  // measure 11
0020
0000
0001
0000
1030
0001
0110
0000
,  // measure 12
2001
0000
0000
0000
3010
0000
0100
0001
2000
0000
0100
0000
3200
0000
0000
0000
,  // measure 13
0310
0000
0001
1000
0001
0000
0100
0000
0020
0000
1000
0000
2030
0000
0100
0000
,  // measure 14
3200
0000
0310
0001
0101
0010
1010
1000
,  // measure 15
0002
0000
0000
0000
0013
0000
0100
0000
1000
0000
0010
0001
0000
0001
1000
0000
,  // measure 16
0100
0010
0100
0000
0002
0000
0000
0000
1003
0000
0001
0100
0000
0100
1000
0000
,  // measure 17
0001
0000
0010
0100
0020
0000
0000
0000
1030
0000
0001
0000
0010
0000
0100
0000
,  // measure 18
2000
0000
0010
0000
3002
0000
0010
0000
2003
0000
0100
0000
3010
0000
0100
0001
,  // measure 19
0020
0000
0000
0000
1000
0000
0000
0000
0031
0000
1000
0000
0010
0100
0010
0000
,  // measure 20
0002
0000
0000
0013
0100
0000
0020
0000
0000
1030
0001
0000
1000
0000
0100
0000
,  // measure 21
0020
0000
0000
0031
1000
0000
0010
0100
0010
0000
0100
0000
0001
0000
0010
0000
,  // measure 22
0110
0000
1000
0000
1010
0000
0100
0000
0101
0000
1000
0000
1001
0000
0001
0010
,  // measure 23
0200
0000
0000
0000
1300
0000
0010
0100
0010
0000
0100
0000
0001
0000
0010
0000
,  // measure 24
2000
0000
0000
3010
0100
0000
0020
0000
0000
0031
1000
0000
0001
0000
0100
0000
,  // measure 25
0020
0000
0000
1030
0001
0000
0010
0100
0010
0000
0100
0000
1000
0000
0001
0000
,  // measure 26
0101
0010
1010
0100
0110
0001
1000
0020
,  // measure 27
0100
0000
0000
0000
0100
0000
0000
0000
0130
0000
0000
0000
2001
0000
3100
0010
,  // measure 28
0200
0000
1300
0000
2001
0000
3010
0100
0010
1000
0001
0000
0021
0000
0130
1000
,  // measure 29
0002
0000
0103
0000
1020
0000
0130
0001
2000
0000
3001
0000
1002
0000
0103
0010
,  // measure 30
0200
0000
0301
0000
1002
0000
0013
0100
0010
0001
1000
0000
1020
0000
0130
0001
,  // measure 31
0020
0000
0130
0000
1001
0000
0000
0000
1000
0000
0001
0100
0001
0000
1000
0010
,  // measure 32
1000
0002
0010
2003
0100
3002
0100
1003
,  // measure 33
0010
0100
0010
0000
1001
0000
1000
0100
1000
0000
0001
0100
0001
0000
1000
0010
,  // measure 34
1000
0000
0001
0010
0001
0000
0100
0010
1000
0000
0100
0010
0001
0000
0100
0010
,  // measure 35
1000
0001
1000
0000
1100
0000
0100
0010
0001
0000
1000
0100
1000
0000
0001
0010
,  // measure 36
0001
2000
0010
3002
0100
2003
0100
3001
,  // measure 37
0010
0100
0010
0000
1001
0000
0001
1000
0020
0000
0100
0000
1030
0000
0001
1000
,  // measure 38
0200
0000
0010
0000
1300
0000
0001
1000
0010
0000
0100
0001
1000
0000
0100
0010
,  // measure 39
0100
1000
0001
0000
1001
0000
1000
0000
0001
0000
0100
0010
0100
0000
0002
0000
,  // measure 40
1000
0000
0023
0000
0100
0000
0031
0000
1000
0000
0010
0100
0010
0000
1000
0000
,  // measure 41
0100
0010
0001
0000
1001
0000
1000
0010
0100
0000
0001
1000
0001
0000
0020
0000
,  // measure 42
1000
0000
0230
0000
0001
0000
1300
0000
0010
0000
0100
0001
1000
0000
0100
0010
,  // measure 43
0100
1000
0001
1000
0010
0000
0100
0001
1000
0000
0100
0010
0100
0000
2000
0000
,  // measure 44
0001
0000
3020
0000
0100
0000
1030
0000
0001
0000
0010
0100
0010
0000
0001
0000
,  // measure 45
0100
0010
1000
0000
1001
0000
0001
0010
0100
0000
1000
0001
1000
0000
0020
0000
,  // measure 46
0001
0000
0230
0000
1000
0000
0301
0000
0010
0000
0100
1000
0001
0000
0100
0010
,  // measure 47
0100
0001
1000
0000
0100
0000
0010
0001
1000
0000
0000
0000
0000
0000
0000
0000
;
