#TITLE:Thrashbaath;
#SUBTITLE:;
#ARTIST:Rainbowdragoneyes;
#TITLETRANSLIT:;
#SUBTITLETRANSLIT:;
#ARTISTTRANSLIT:;
#GENRE:;
#CREDIT:Braeden;
#MUSIC:Thrashbaath.ogg;
#BANNER:Thrashbaath-ban.png;
#BACKGROUND:Thrashbaath-bg.png;
#CDTITLE:;
#SAMPLESTART:0.000;
#SAMPLELENGTH:0.000;
#SELECTABLE:YES;
#OFFSET:-0.289;
#BPMS:0.000=210.000
,332.000=105.000
,334.000=210.000
;
#STOPS:211.000=0.857;
#BGCHANGES:;
#FGCHANGES:;

//--------------- dance-single - ----------------
#NOTES:
     dance-single:
     :
     Beginner:
     4:
     0,0,0,0,0:
0000
0000
0000
0000
,
0000
0000
0000
0000
,
0000
0000
0000
0000
,
0000
0000
0000
1000
,
0000
0000
0001
0000
,
0000
1000
0000
0010
,
0000
0000
0100
0000
,
0000
0000
0000
0002
,
0000
0003
0000
2000
,
0000
3020
0000
0130
,
0000
0001
0000
1000
,
0000
0001
0000
1000
,
0000
0000
0000
0002
,
0000
0103
0000
0010
,
0000
0000
0000
1000
,
0000
0000
1000
0000
,
0000
0001
0000
0100
,
0000
0000
0010
0000
,
0000
1000
0000
0001
,
0000
0000
0010
0000
,
0000
0100
0000
1000
,
0000
0000
0001
0001
,
0000
0000
1000
0000
,
0000
0001
0000
0100
,
0000
0000
0010
0000
,
0000
1000
0000
0001
,
0000
0000
0010
0000
,
0000
0100
0000
1000
,
0000
0000
0001
0000
,
0000
0000
0000
2000
,
0000
3000
0000
0002
,
0000
0003
0000
0100
,
0000
0010
0000
2000
,
0000
3000
0000
2002
,
0000
3003
0000
0002
,
0000
0003
0000
0100
,
0000
0010
0000
1000
,
0000
0001
0000
1000
,
1000
0000
0000
0001
,
0001
0000
0000
0100
,
0000
0010
0000
1000
,
0000
0000
0000
0100
,
0100
0000
0000
0010
,
0010
0000
0000
0100
,
0100
0000
0000
0000
,
0000
0000
0000
1000
,
1000
0000
0000
0001
,
0001
0000
0000
0100
,
0000
0010
0000
1000
,
0000
0000
0000
0001
,
0000
0010
0000
1000
,
0000
0100
0000
0001
,
0000
1000
0000
0001
,
1000
0000
2000
0000
,
0000
3000
0000
0000
,
0001
0000
0100
0000
,
0010
0000
0000
0000
,
1000
0000
0010
0000
,
0100
0000
0001
0000
,
0010
0000
0100
0000
,
1000
0000
0001
0000
,
2000
0000
3000
0000
,
0002
0000
0003
0000
,
1000
0000
0010
0000
,
0200
0000
0300
0000
,
2002
0000
3003
0000
,
0001
0000
0000
0000
,
1000
0000
0001
0000
,
0100
0000
0000
0000
,
0020
0000
0030
0000
,
1000
1000
0000
0001
,
0000
0100
0000
0010
,
0000
1000
0000
0100
,
0000
0010
0000
0001
,
0000
0100
0000
0010
,
0000
1000
0000
0000
,
0020
0000
0030
0000
,
0200
0000
0300
0000
,
0001
0000
1000
0000
,
0001
0000
0100
0000
,
2002
0000
3003
0000
,
0001
0000
1000
0000
,
0001
0000
0100
0000
,
0010
0000
0200
0000
,
0000
0000
0000
0000
,
0000
0000
0000
0000
,
0300
0000
0001
0000
,
1000
0000
1001
0000
,
0000
0001
0000
0000
,
0010
0000
0100
0000
,
0000
1000
0000
0000
,
0001
0000
2002
0000
,
3003
0000
1000
0000
,
0010
0000
0100
0000
,
0001
0000
0010
0000
,
0100
0000
1001
0000
,
0000
0000
0001
0000
,
0100
0000
0010
0000
,
1000
0000
0001
0000
,
0000
0000
1000
0000
,
0000
0100
0000
0000
,
1000
0000
0001
0000
,
0000
0010
0000
0000
,
0100
0000
1001
0000
,
0000
1000
0000
0000
,
0010
0000
0100
0000
,
0000
0001
0000
0000
,
1000
0000
1001
0000
,
0000
0001
0000
0000
,
0010
0000
0001
0000
,
0000
0100
0000
0000
,
0010
0000
0110
0000
,
0000
0100
0000
0000
,
0001
0000
1000
0000
,
0000
0000
0001
0000
,
0000
0000
1001
0000
,
0000
0000
0000
0000
,
0000
0000
1000
0000
,
0000
0000
0000
0000
,
0000
0000
0001
0000
,
0000
0000
0000
0000
,
0000
0000
0010
0000
;

//--------------- dance-single - ----------------
#NOTES:
     dance-single:
     :
     Easy:
     8:
     0,0,0,0,0:
0000
0000
0000
0000
,
0000
0000
0000
0000
,
0000
0000
0000
0000
,
0000
0000
0000
1000
,
0001
1000
0000
0010
,
0100
0001
0000
0010
,
0100
1000
0002
0203
,
0000
0000
0000
0320
,
0000
0000
1030
0002
,
0000
2003
0000
3001
,
0200
0310
1000
0002
,
0103
0010
1000
0100
,
0020
0000
0031
2000
,
0000
3002
0000
0103
,
0010
1000
0000
0001
,
1000
0000
0001
0000
,
1000
0000
0001
1000
,
0010
0000
0100
0000
,
0001
0100
0010
1000
,
0100
0000
0010
0000
,
0001
0000
1000
0001
,
0100
0000
0010
1000
,
0100
0010
0001
0010
,
0100
1000
0001
0100
,
0010
1000
0001
0010
,
0100
1000
0001
0100
,
0001
0010
0001
1000
,
0100
0010
0001
1000
,
0010
1000
0001
0100
,
0000
0000
0010
2000
,
0000
3002
0000
0000
0103
0000
0010
0000
,
2000
0000
3001
0020
,
0130
1000
0001
0200
,
0320
0000
1030
2001
,
0000
3002
0000
0000
0103
0000
0010
0000
,
2000
0000
3001
0010
,
0100
1000
0100
0010
,
0001
0100
0010
1010
,
1000
0000
0001
1000
,
0001
0000
0100
0010
,
0100
0001
0010
0100
,
1000
0000
0001
0100
,
0001
0000
1000
0010
,
0100
0001
0100
0010
,
2000
0000
0000
3001
,
0100
0001
0100
0110
,
0010
0000
1000
0001
,
1000
0000
0010
1000
,
0001
0010
0100
1000
,
0001
0000
0100
0010
,
1000
0100
0010
0001
,
0010
0100
1000
0001
,
0100
0010
1000
0001
,
2000
0000
3002
0000
,
0000
0000
0103
0010
,
2000
0000
3002
0000
,
0103
0010
1000
0100
,
1100
1000
0001
0100
,
0001
1000
0100
0010
,
0001
0100
0010
1000
,
0001
0010
0100
1000
,
2001
0000
0000
3001
0000
0000
0100
0000
,
0010
2000
0000
3001
,
0010
0100
1000
0001
,
0100
0020
0000
1030
,
1001
0000
0000
0002
0000
0000
0103
0000
,
0010
2000
0000
3100
,
0010
0001
0010
0100
,
1000
0001
1000
0000
,
0002
0000
0000
0000
,
1003
0100
1000
0100
,
1000
0010
1000
0010
,
0100
0001
0100
0010
,
0200
0000
0310
1000
,
0100
1000
0001
0010
,
0100
1000
0010
0100
,
0002
0010
0000
2003
,
3020
0130
0002
1003
,
0010
0100
0001
0010
,
0200
1300
0001
0100
,
0102
0000
1003
0010
,
0200
0000
0302
0000
,
1003
0010
1000
0010
,
2M00
0000
3M01
0010
,
0001
0010
0001
0100
,
0010
1000
0100
0010
,
0001
0010
0100
1000
,
0001
1000
1010
0010
,
0100
0001
0010
0100
,
1000
0010
0100
0001
,
0010
0100
1000
0001
,
0100
0001
0201
0000
,
0000
0310
2000
0000
,
3002
0000
1003
0100
,
0010
0001
2000
3010
,
0100
0001
0102
0000
,
1003
0010
0200
0000
,
0302
0000
1003
0100
,
0010
0001
1000
0000
,
0000
0000
0000
0000
1001
0000
0000
0001
,
0000
0000
1000
0000
0000
0010
0000
0000
,
0100
0000
0000
0000
0001
0000
0000
0010
,
0000
0000
0100
0000
0000
1000
0000
0000
,
0001
0000
1000
0000
1010
0000
0000
0010
,
0000
0000
0100
0000
0000
0001
0000
0000
,
0100
0000
0000
0000
0010
0000
0000
1000
,
0000
0100
0000
0010
,
0001
0000
0100
0000
1010
0000
0000
1000
,
0000
0000
0001
0000
0000
0100
0000
0000
,
0010
0000
0000
0000
1000
0000
0000
0100
,
0000
0000
0010
0000
0000
0001
0000
0000
,
1000
0000
0010
0000
1010
0000
0000
1000
,
0000
0000
0001
0000
0000
0100
0000
0000
,
0010
0000
0000
0000
1000
0000
0000
0100
,
0000
0010
0000
0001
,
0010
0000
0001
0000
1001
0000
0000
1000
,
0000
0000
0010
0000
0000
0100
0000
0000
,
0001
0000
0000
0000
0100
0000
0000
0010
,
0000
0000
1000
0000
0000
0100
0000
0000
,
0010
0000
0001
0000
0100
0000
0000
0010
,
0000
0000
1000
0000
0000
0001
0000
0000
,
0010
0000
0000
0000
0100
0000
0000
1000
,
0000
0001
0000
1000
,
0001
1000
0000
0000
;

//--------------- dance-single - ----------------
#NOTES:
     dance-single:
     :
     Medium:
     13:
     0,0,0,0,0:
0000
0000
0000
0000
,
0000
0000
0000
0000
,
0000
0000
0000
0000
,
0000
0000
0000
1000
,
0000
0001
0000
0000
0100
0000
0000
0010
,
0000
0000
1000
0000
0000
0100
0010
0000
,
0000
0001
0000
0000
0200
0000
0320
0000
,
0000
0000
0000
2030
,
0000
0001
3001
0000
0100
0000
0020
0000
,
1000
0230
0000
0302
,
2003
0010
3010
0000
0100
0001
0200
0000
,
0310
0000
1000
0001
1000
0001
0200
0000
,
0320
1000
1000
0000
0130
0001
2000
0001
,
0000
0000
3100
0000
0010
0001
0010
0000
,
0100
0000
1000
0000
0001
0000
1000
0100
,
0000
1000
0100
0000
0010
0001
0000
0010
,
0001
0000
1000
0001
1000
0000
0001
0100
,
0000
0001
0010
0000
0001
0100
0000
0010
,
1000
0000
0001
1000
0001
0010
0100
1000
,
0000
0100
1000
0000
0001
0010
0000
0001
,
0010
0000
0100
1000
0001
0100
0010
1000
,
0000
0010
0100
0000
0001
0010
0100
0000
,
1000
0001
1000
0000
0001
0100
0001
0000
,
0100
0010
0100
0000
0001
1000
0001
0000
,
0100
0001
1000
0100
1000
0001
0000
0100
,
0010
1000
0001
1000
,
0001
1000
0001
0000
1000
0010
0100
0001
,
0100
0000
0001
0010
0001
0000
1000
0010
,
0100
0002
1003
0010
,
0100
0000
0001
0000
1000
0010
2000
0000
,
0000
3002
0000
0000
0103
0010
2000
0000
,
3002
0000
0000
1003
0001
0100
0020
0000
,
1030
0100
1000
0001
0100
0010
2000
0000
,
3002
0000
0000
0000
1003
0001
2000
0000
,
0000
3020
0000
0000
0130
0001
2000
0000
,
3020
0000
0000
0130
0001
0010
0100
1000
,
0100
0010
0001
1000
0001
0100
0002
0000
,
1003
0100
0010
0000
0001
0000
1000
0000
,
0001
0000
0100
0000
0010
1000
0010
0000
,
0100
0000
0001
0000
0010
0100
0010
0000
,
0001
1000
0100
1000
,
0001
0000
0010
0000
0100
1000
0100
0000
,
0010
0000
0001
0000
1000
0010
1000
0000
,
0001
0100
0010
1000
,
0002
0000
0000
0000
0000
0000
1003
0010
,
1000
0010
1000
0000
0001
0100
0001
0000
,
0010
0000
0100
1000
0100
1000
0100
0000
,
0010
0000
0001
0010
0100
1000
0001
0000
,
1000
0000
0100
0000
0010
0000
0001
1000
,
0001
0100
0010
1000
0010
0000
0100
0000
,
0001
0000
0010
0000
0001
0010
0001
0000
,
0100
0000
0010
0000
1000
0100
1000
0000
,
0001
0000
0010
0000
0100
1000
00M1
0000
,
1000
0001
1000
0000
0010
0000
0100
0001
,
0200
0000
0320
0000
1030
0000
0001
0100
,
0002
0000
0103
0000
0020
0000
1030
0001
,
2000
0000
3001
0010
0100
1000
0001
0100
,
0002
0000
1003
0100
0010
0000
0001
0000
,
0200
0000
0310
1000
0010
0000
0100
0000
,
0001
0010
0100
1000
,
0001
0010
0100
1000
0001
0100
0010
1000
,
0002
0000
0000
2003
0000
0000
3001
0100
,
0020
0000
2030
0000
0000
3001
0100
0010
,
2000
0000
3100
0010
0001
0010
0100
1000
,
0002
0000
2000
0000
0003
0000
3010
1000
,
0002
0000
0000
2003
0000
0000
3001
0010
,
0200
0000
2300
0000
0000
3001
0010
0100
,
1000
0010
0100
0001
1000
0100
0010
0001
,
2000
0000
3001
0010
0100
0000
1000
0000
,
0002
0000
0000
1003
,
1001
0001
0100
0010
,
1000
0000
0100
0000
0010
0000
0001
1000
,
0001
0000
1000
0000
0010
1000
0010
1000
,
0001
0000
0100
0000
0010
0000
1000
0001
,
2000
3010
0200
0301
,
0010
0100
0010
0000
0001
1000
0001
0000
,
1002
1000
0010
1003
,
0020
0000
2030
0000
3001
0100
0001
0000
,
0200
0000
0320
0000
2030
0000
3001
0010
,
0200
0000
2300
0000
3001
0100
0010
1000
,
0002
0000
2003
0000
0000
0000
3001
0100
,
0002
1003
0020
0130
,
0001
0010
0100
1000
,
0M02
0000
0000
0000
10M3
0100
0000
1000
,
0100
0000
0010
0001
0000
0010
0001
0000
,
1000
0000
0010
0000
1000
0100
0000
0010
,
0001
0000
0100
0010
0000
1000
0100
0000
,
1000
0001
1000
0000
1001
0000
0000
0001
,
0100
0000
0010
0100
0000
0010
1000
0000
,
0001
0100
0000
0010
1000
0001
0000
0010
,
0001
0000
1000
0100
0000
0010
0001
0000
,
1000
0001
0201
0010
,
0001
0000
0310
0100
0020
0000
1000
0000
,
0130
0001
2000
0000
3100
0010
0002
0000
,
1003
0000
0001
0100
0020
0000
1030
0000
,
0001
0010
0100
1000
0002
0000
0000
0000
,
1003
0000
0001
0100
0020
0000
0130
0000
,
0002
0000
1003
0000
0100
0010
0001
0010
,
0100
1000
0001
1000
0001
0000
0000
0000
,
0000
0000
0000
0000
1000
0100
0000
0010
,
0001
0000
1000
0010
0000
0100
0001
0000
,
1000
0010
0000
1000
0100
1000
0000
0001
,
0010
0000
0100
1000
0000
0001
0100
0000
,
0010
0000
1000
0000
1001
0000
0000
0001
,
0100
0000
0010
1000
0000
0100
0010
0000
,
0001
0100
0000
0001
0010
0100
0000
1000
,
0100
0000
0010
0001
0000
0010
0100
0000
,
1000
0000
0001
0000
0101
0000
0000
0100
,
0010
0000
1000
0100
0000
1000
0001
0000
,
1000
0010
0000
1000
0100
1000
0000
0001
,
0010
0000
0100
1000
0000
0001
1000
0000
,
0010
0000
1000
0000
1010
0000
0000
0010
,
0100
0000
0001
0010
0000
0001
1000
0000
,
0010
1000
0000
0001
0010
0100
0000
1000
,
0100
0000
0010
0001
0000
1000
0010
0000
,
1000
0000
0001
0000
1000
0000
0000
0010
,
0000
0000
0100
0000
0000
0001
0000
0000
,
0100
0000
0000
0010
1000
0010
0000
1000
,
0000
0000
0100
0000
0000
0010
0000
0000
,
0001
0000
1000
0000
0001
0000
0000
0010
,
0000
0000
0100
0000
0000
1000
0000
0000
,
0001
0000
0000
0100
0010
0100
0000
0001
,
0000
1000
0000
0001
,
1000
0001
0000
0000
;

//--------------- dance-single - XO+ FS ----------------
#NOTES:
     dance-single:
     XO+ FS:
     Hard:
     16:
     0,0,0,0,0:
0000
0000
0000
0000
,
0000
0000
0000
0000
,
0000
0000
0000
0000
,
0000
0000
0000
0000
0000
0000
1000
0100
,
0010
0001
0010
0100
1000
0010
1000
0001
,
0100
0000
0001
0000
1000
0000
0010
0000
1000
0000
0010
0000
1000
0001
1000
0000
,
0001
0000
0000
0000
0000
0000
0010
0000
0000
0100
0000
0000
1000
0000
0000
0000
0000
0000
0001
0000
0000
0000
0000
0000
1000
0000
0000
0000
0000
0000
0001
0000
0000
0000
0000
0000
1000
0000
0000
0000
0000
0000
0000
0000
0100
0000
0000
0000
,
0000
0010
0000
0001
0000
1000
0000
0001
0000
2000
0000
0000
,
0000
0010
3020
0000
0230
0000
0302
0000
,
1000
0203
0000
0320
,
1030
0001
0200
0000
0301
0010
0002
0000
,
2003
0000
3001
0100
1000
0100
0020
0000
,
1030
0001
0020
0000
0031
0100
0001
0100
,
00M0
0100
2000
0000
3001
0001
1000
0100
,
1000
0000
0100
0000
0010
0000
0001
0000
0010
0000
0001
0000
1000
0000
0001
0010
,
0001
1000
0001
0100
1000
0100
0010
0100
,
0001
0000
1000
0000
0010
0000
0100
0000
0100
0000
0001
0000
1000
0000
0001
0010
,
0100
1000
0100
0001
1000
0010
0001
1000
,
1000
0000
0001
0000
0010
0000
0100
0000
0100
0000
1000
0000
0001
0000
1000
0100
,
1000
0001
0010
1000
0001
0100
1000
0001
,
1000
0010
0100
0001
0001
1000
0001
0100
,
0001
0000
0100
0000
0001
0000
0010
0000
0100
0000
1000
0000
0001
0100
0001
0000
,
0100
0000
0010
1000
0010
0000
1000
0000
0001
0010
0001
0000
0100
0000
0010
1000
,
0010
0000
1000
0000
0001
0000
0010
0000
0100
0000
1000
0000
0001
0100
0001
0000
,
1000
0000
0001
0100
0001
0000
1000
0000
0100
0010
0001
0000
0100
0000
0001
0010
,
0100
0000
1000
0000
0001
0000
0100
0000
0001
0000
0100
0000
0001
1000
0001
0000
,
0100
0000
0001
1000
0001
0000
0010
0000
0001
1000
0010
0000
0100
0000
0010
1000
,
0001
0010
0100
1000
0100
1000
0001
0100
,
0001
0000
0100
0000
0010
0000
1000
0000
0001
0010
0100
1000
0001
0000
0000
0000
,
1000
0000
0001
0000
1000
0001
0200
0000
,
0000
1000
0000
0000
0310
0100
0001
0000
,
2000
0000
0000
3001
0010
0100
2000
0000
,
3001
0000
1000
0000
0010
0000
1000
0001
1000
0000
0001
0000
0020
0000
0000
0000
,
0130
1000
0100
1000
0001
1000
0200
0000
,
0000
0001
0000
0000
0310
0001
1000
0000
,
0002
0000
0000
1003
0001
1000
0001
0100
,
1000
0000
0100
0000
0001
1000
0001
0000
1000
0010
0100
0010
2000
0000
0000
0000
,
3001
0100
0001
0100
0010
0000
0000
0000
1000
0000
0001
0000
1002
0000
0000
0000
,
1003
0000
0001
0010
0100
1000
0001
0000
,
0101
0000
0100
0010
1000
0100
0010
0000
,
0011
0000
1001
0000
0001
1000
0100
0000
,
0110
0000
0010
0001
1000
0100
0010
0000
,
0011
0000
0001
0100
0010
1000
0001
0000
,
0011
0000
0010
0100
1000
0001
2000
0000
,
3001
0010
0100
1000
0001
0100
0010
1000
,
0100
1000
0001
1000
0001
0100
0101
0000
,
0001
0000
1000
0100
0010
0001
0100
0000
,
0110
0000
0010
1000
0100
0010
0002
0000
,
1003
0010
2000
0000
3001
0100
0010
1000
,
0001
0010
0100
1000
0001
0100
0001
0010
,
0001
0100
0010
1000
0001
0010
0100
1000
,
0100
1000
0001
0000
1001
0000
1000
0010
,
0100
0001
0010
0100
1000
0001
1M00
0000
,
0002
0000
0000
0000
0000
0000
0100
0000
0000
0000
1003
0000
0010
0100
0010
0000
,
0200
0000
0301
1000
0100
0010
0001
1000
,
0001
0000
1000
0000
0002
0000
0000
0000
0013
0000
0100
0000
1000
0001
1000
0000
,
0002
0000
0000
0000
2003
0000
0000
0000
3001
0100
0001
1000
0100
0010
0001
0000
,
2000
0000
0000
0010
0000
3001
0100
0010
,
2000
0000
3001
0200
0000
0310
1000
0100
,
2000
0000
3100
0010
0001
0100
0010
1000
,
0001
0000
0100
0000
0001
0000
0100
0000
0010
1000
0010
1000
0001
0000
0100
0000
,
0102
0000
0000
1000
0000
0013
0100
0001
,
2000
0000
3001
0200
0000
0310
1000
0100
,
0020
0000
0000
0000
0031
0000
1000
0000
0001
0000
0100
0010
0100
0000
0001
0000
,
0020
0000
0230
0000
0000
0000
1300
0001
,
2001
0000
0000
3020
0000
0000
1030
0001
,
1000
0000
0020
0000
0000
1030
0100
0010
,
0001
0000
1000
0000
0001
0000
1000
0000
0001
0100
0010
0000
1000
0001
0010
0100
,
1000
0000
0010
0000
1000
0010
0100
0001
1000
0000
0100
0000
0010
0000
0001
0000
,
2000
0001
0000
3010
,
1010
1000
0200
0000
1300
0001
0100
0000
,
1000
0100
0002
0000
1003
0010
0001
0010
,
1000
0100
0010
0010
0001
0100
0010
1000
,
0020
0000
1030
0100
0010
0001
1000
0100
,
0001
0100
0020
0000
0031
0100
2000
0000
,
3100
0001
1000
0010
0001
0010
1000
0001
,
2002
0000
3000
1003
,
0200
0000
0001
0000
1300
0010
2000
0000
,
3001
0010
0020
0000
0130
1000
0001
0001
,
1000
0100
0020
0000
0031
0100
0010
1000
,
0001
0100
1000
0000
0001
0010
1000
0100
,
2000
0000
0100
0000
3001
0100
0010
0000
,
1000
0100
0010
0100
1000
0100
0010
0100
,
100M
0000
0000
0000
1M01
1000
0001
1000
,
0010
1000
0001
0010
0001
0100
0010
1000
,
0010
0100
0001
1000
0001
0010
0001
1000
,
0100
1000
0001
1000
0001
0100
0010
1000
,
0010
0000
0100
0000
0001
0000
1000
0000
0001
0000
0100
0000
1000
0000
0100
00M0
,
0100
1000
0001
0010
1000
0010
M010
0100
,
0001
0000
0100
00M0
0100
0000
1000
0000
0001
0000
0100
0000
1000
0000
0100
000M
,
0100
0000
1000
0000
0100
0000
0010
0000
1000
0000
0010
0M00
0010
0000
1000
0000
,
0001
1000
0100
0010
0011
0001
1000
0001
,
0100
0010
1000
0100
0001
0100
0010
0100
,
1000
0010
0100
0001
1000
0010
0001
0010
,
0100
0001
1000
0100
1000
0000
0001
0000
,
1000
0100
0010
0001
0011
0010
0100
0001
,
0100
0010
0001
1000
0200
0000
0310
0001
,
2000
0000
3100
0000
1000
0100
0001
0100
,
1000
0001
0020
0000
0031
0100
0001
0100
,
0010
0000
1000
0000
0010
0000
1000
0000
0001
0000
0100
00M0
0100
0000
1000
0000
,
0010
0000
1000
0000
0001
0000
0100
00M0
0100
0000
1000
0000
0010
0000
1000
0000
,
0001
0000
0100
0000
0010
0000
1000
0000
0001
0000
0010
0M00
0010
0000
1000
0000
,
0001
0000
1000
0000
0001
0000
0010
0M00
0010
0000
1000
0000
0001
0000
1000
0000
,
0001
0000
0100
0000
0010
0000
1000
0000
0001
0000
0100
00M0
0100
0000
0010
0000
,
0001
0000
0010
0000
0001
0000
0100
00M0
0100
0000
0010
0000
0001
0000
0010
0000
,
0100
0000
1000
0000
0010
0000
1000
0000
0001
0000
0010
0M00
0010
0000
1000
0000
,
0001
1000
0100
0010
0M00
0010
1000
0001
,
1000
0000
0100
0000
0010
0000
0100
0000
1000
0000
0100
00M0
0100
0000
0001
0000
,
0100
0000
1000
0000
0100
0000
0001
0000
1000
0000
0100
00M0
0100
0000
0001
0000
,
1000
0000
0010
0000
0000
0000
0010
0000
1000
0000
0100
00M0
0100
0000
0001
0000
,
0010
0100
0010
0001
0000
1000
0001
0100
,
0001
0010
0100
1000
1001
0001
0100
1000
,
0100
0010
1000
0001
0000
0001
0010
0100
,
0001
0100
0010
0001
1000
0100
1000
0001
,
0100
1000
0100
0010
0000
0010
1000
0100
,
0010
0100
1000
0001
1001
1000
0000
0100
,
0010
0000
0001
0010
0000
0001
0100
0000
,
0001
1000
0000
0001
0100
0001
0000
1000
,
0010
0000
1000
0100
0000
0010
0001
0000
,
0100
0000
0001
0000
1000
0010
0000
0100
,
0001
0000
1000
0100
0000
0010
0001
0000
,
1000
0100
0000
0010
0001
0010
0000
0001
,
0100
0000
0001
1000
0000
0001
0010
0100
,
1000
0010
0100
0001
0000
0000
0000
0000
;

//--------------- dance-single - STR 6* XO+ FS+ DS ----------------
#NOTES:
     dance-single:
     STR 6* XO+ FS+ DS:
     Edit:
     18:
     0,0,0,0,0:
0000
0000
0000
0000
,
0000
0000
0000
0000
,
0000
0000
0000
0000
,
0000
0000
0000
0000
0000
0000
0000
0000
0000
0000
0000
0000
0001
1000
0001
1000
,
0001
0000
0100
0000
0001
0010
0100
1000
0001
0000
0100
0000
0001
1000
0100
0010
,
0001
0100
0010
1000
0100
0000
0010
0000
0100
0000
0010
0000
0001
1000
0001
0000
,
1000
0000
0000
0000
0000
0000
0001
0000
0000
0010
0000
0000
0100
0000
0000
0000
0000
0000
2000
0000
0000
0000
0000
0000
0000
0000
0000
0000
0000
0000
0000
0000
0000
0000
0000
0000
3001
0000
0000
0000
0000
0000
0000
0000
0100
0000
0000
0000
,
0000
0010
0000
1000
0000
0001
0000
1000
0000
0002
0000
0000
,
0000
0010
0023
0000
0230
0000
2300
0000
,
0001
3200
0000
0320
,
0031
1000
0200
0000
1300
0010
2000
0000
,
3002
0000
1003
0100
0001
0100
0020
0000
,
0031
1000
0020
0000
1030
0100
1000
0100
,
00M0
0100
0002
0000
1003
1000
0001
0100
,
0001
0000
0100
0000
0010
0000
1000
0000
0010
0000
1000
0000
0001
0000
1000
0010
,
1000
0001
1000
0100
0001
0100
0010
0100
,
1000
0000
0001
0000
0010
0000
0100
0000
0100
0000
1000
0000
0001
0000
1000
0010
,
0100
0001
0100
1000
0001
0010
1000
0001
,
0001
0000
1000
0000
0010
0000
0100
0000
0100
0000
0001
0000
1000
0000
0001
0100
,
0001
1000
0010
0001
1000
0100
0001
1000
,
0001
0000
0010
0000
0100
0000
1000
0000
1000
0000
0001
0000
1000
0100
1000
0001
,
0010
0100
1000
0001
0100
0000
0010
0000
0100
0000
0001
0000
1000
0100
1000
0010
,
0100
0001
1000
0100
0010
0001
0010
0100
1000
0010
0100
0001
1000
0100
0010
0001
,
1000
0010
0100
0001
1000
0100
1000
0001
0010
0100
1000
0001
1000
0100
0010
0001
,
1000
0010
0100
0001
1000
0000
0001
0100
0001
0010
0100
1000
0001
0100
0001
0010
,
0100
1000
0001
0100
0001
1000
0100
0010
0001
0100
0001
1000
0001
0010
0100
1000
,
0001
0100
0001
1000
0100
0010
0100
1000
0001
0100
0010
0100
0001
1000
0001
0010
,
0100
1000
0001
0100
0010
0100
0001
1000
0100
0010
0001
1000
0001
0010
0100
1000
,
0001
0100
0010
1000
0001
0000
0100
0000
0001
0010
0100
1000
0001
0000
0000
0000
,
1000
0000
0001
0000
1000
0010
1000
0100
,
0010
0001
0010
0000
0001
0000
1000
0000
0010
0100
0010
0000
1000
0000
0001
0000
,
1000
0010
1000
0000
0001
0000
0010
0000
0100
1000
0100
0000
2000
0000
0001
0000
,
3001
0100
0010
0000
1000
0000
0100
0010
0001
0010
0100
0000
2000
0000
0000
0000
,
3001
0000
1000
0100
0010
0001
0010
0001
1000
0010
0100
0001
1000
0000
0100
0000
,
1000
0001
0100
0000
0001
0000
0100
0000
0010
1000
0100
0000
1000
0000
0010
0000
,
1000
0100
0010
0000
0001
0000
0100
0000
0001
0010
0100
0000
1000
0000
0001
0000
,
1000
0010
1000
0000
0001
0010
0100
0000
1000
0001
1000
0001
1000
0100
0010
0001
,
1000
0010
0100
0001
2000
0000
0000
0000
3001
0000
0100
0000
0101
0000
0001
0000
,
1000
0000
0001
0010
0100
0000
1000
0100
0010
0001
1000
0010
1000
0000
0001
0010
,
0100
0000
1000
0001
1000
0000
0001
0010
0100
1000
0001
0100
0001
0000
0010
0100
,
1000
0000
0001
0100
0001
0000
1000
0100
0010
0001
0010
0000
0001
0000
1000
0010
,
1000
0000
0001
0010
0100
0000
1000
0001
1000
0010
0100
0000
0001
0000
0010
0100
,
1000
0000
0001
0000
1000
0000
0010
0100
0001
0100
0010
1000
0001
0000
0010
0100
,
1000
0000
0001
0000
1000
0000
0100
0010
0001
1000
0010
0100
0001
0000
1000
0000
,
0001
0000
0100
0010
0100
0000
0001
1000
0001
0010
0100
1000
0001
0100
0010
1000
,
0001
0010
0001
1000
0100
0010
0001
1000
0010
0000
0100
0000
0101
0000
0001
0010
,
0001
0000
0010
0001
0010
0000
0001
1000
0001
0010
0100
1000
0010
0000
1000
0010
,
1000
0000
0010
1000
0010
0000
1000
0100
0010
0001
1000
0010
0100
0000
0001
0000
,
0100
0000
0010
0100
0010
0000
0100
0001
0100
0010
1000
0000
0001
0000
1000
0000
,
0001
0000
1000
0100
0010
0000
0001
0010
0100
1000
0001
0000
0100
0000
0010
0000
,
0100
0000
0001
1000
0001
0000
0100
0000
0001
0010
0100
0000
1000
0000
0001
1000
,
0001
0000
0100
0001
0100
0000
0010
0000
1000
0100
1000
0000
0001
0000
1000
0100
,
1000
0010
0100
0001
0100
0010
1000
0001
0100
0000
0001
0010
0100
0000
0000
0000
,
1000
0000
0001
0000
0100
0010
0100
0000
0001
0000
1000
0000
0100
0010
0100
0000
,
0001
0000
0100
0000
1000
0001
1000
0000
0001
0000
0100
0000
0010
0100
0010
0000
,
0100
0000
1000
0000
0100
0000
0001
0000
1000
0000
0001
0000
0010
0100
1000
0000
,
0001
0000
0100
0000
0001
0000
1000
0000
0001
0010
0100
1000
0001
0000
0100
0000
,
0101
0000
0001
0000
0100
0000
1000
0000
0100
0000
0010
0000
0100
0001
0100
0000
,
0020
0000
1000
0000
1030
0001
1000
0000
0001
0000
0100
0000
0010
0000
1000
0000
,
0001
0000
0100
0000
0010
1000
0010
0000
1000
0000
0100
0000
0001
0000
0100
0000
,
0010
0000
0100
0000
1000
0000
0001
0010
0100
1000
0001
0100
0001
0000
0010
0000
,
0011
0000
0001
0000
1000
0100
0010
0000
0001
0000
0010
0000
0100
1000
0010
0000
,
0100
0000
0001
0000
1000
0010
0100
0000
0001
0000
0010
0000
0100
1000
0001
0000
,
0100
0000
0010
0000
1000
0000
0010
0000
1000
0000
0001
0010
0100
0000
1000
0000
,
0200
0000
0000
0001
0000
0000
1300
0001
,
2001
0000
0000
0000
3010
0100
0010
0000
1000
0000
0001
0000
1000
0010
1000
0000
,
0002
0000
0000
0000
1003
0010
0100
0000
0001
0000
0100
0000
0010
0000
1000
0000
,
0001
0100
0001
0100
0010
1000
0010
0000
1000
0100
0010
0000
0001
1000
0010
0100
,
0001
0000
0010
0000
0001
0010
0100
1000
0001
0000
0100
0000
0010
0000
1000
0000
,
0002
1000
0000
0013
,
0011
0001
0200
0000
0301
1000
0100
0000
,
0001
0100
2000
0000
3001
0010
1000
0010
,
0001
0100
0010
0010
1000
0100
0010
0010
,
0021
0000
0031
0100
0010
1000
0001
0100
,
1000
0100
0020
0000
1030
0100
0002
0000
,
0103
1000
0001
0010
1000
0010
0001
1000
,
2002
0000
0003
3001
,
0200
0000
1000
0000
0301
0010
0002
0000
,
1003
0010
0020
0000
0130
0001
1000
1000
,
0001
0100
0020
0000
1030
0100
0010
0001
,
1000
0100
0001
0000
1000
0010
0001
0100
,
0002
0000
0100
0000
1003
0100
0010
0000
,
0001
0100
0010
0100
0001
0100
0010
0100
,
M001
0000
0000
0000
1M01
0001
1000
0001
,
0010
0001
1000
0010
1000
0100
0010
0001
,
0010
0100
1000
0001
1000
0010
1000
0001
,
0100
0001
1000
0001
1000
0100
0010
0001
,
0010
0000
0100
0000
1000
0000
0001
0000
1000
0000
0100
0000
0001
0000
0100
00M0
,
0100
0001
1000
0010
0001
0010
001M
0100
,
1000
0000
0100
00M0
0100
0000
0001
0000
1000
0000
0100
0000
0001
0000
0100
M000
,
0100
0000
0001
0000
0100
0000
0010
0000
0001
0000
0010
0M00
0010
0000
0001
0000
,
1000
0001
0100
0010
1010
1000
0001
1000
,
0100
0010
0001
0100
1000
0100
0010
0100
,
0001
0010
0100
1000
0001
0010
1000
0010
,
0100
1000
0001
0100
0001
0000
1000
0000
,
0001
0100
0010
1000
1010
0010
0100
1000
,
0100
0010
1000
0001
0200
0000
0310
1000
,
0002
0000
0103
0000
0001
0100
1000
0100
,
0001
1000
0020
0000
1030
0100
1000
0100
,
0010
0000
0001
0000
0010
0000
0001
0000
1000
0000
0100
00M0
0100
0000
0001
0000
,
0010
0000
0001
0000
1000
0000
0100
00M0
0100
0000
0001
0000
0010
0000
0001
0000
,
1000
0000
0100
0000
0010
0000
0001
0000
1000
0000
0010
0M00
0010
0000
0001
0000
,
1000
0000
0001
0000
1000
0000
0010
0M00
0010
0000
0001
0000
1000
0000
0001
0000
,
1000
0000
0100
0000
0010
0000
0001
0000
1000
0000
0100
00M0
0100
0000
0010
0000
,
1000
0000
0010
0000
1000
0000
0100
00M0
0100
0000
0010
0000
1000
0000
0010
0000
,
0100
0000
0001
0000
0010
0000
0001
0000
1000
0000
0010
0M00
0010
0000
0001
0000
,
1000
0001
0100
0010
0M00
0010
0001
1000
,
0001
0000
0100
0000
0010
0000
0100
0000
0001
0000
0100
00M0
0100
0000
1000
0000
,
0100
0000
0001
0000
0100
0000
1000
0000
0001
0000
0100
00M0
0100
0000
1000
0000
,
0001
0000
0010
0000
0000
0000
0010
0000
0001
0000
0100
00M0
0100
0000
1000
0000
,
0010
0100
0010
1000
0000
0001
1000
0100
,
1000
0010
0100
0001
1001
1000
0100
0001
,
0100
0010
0001
1000
0000
1000
0010
0100
,
1000
0100
0010
1000
0001
0100
0001
1000
,
0100
0001
0100
0010
0000
0010
0001
0100
,
0010
0100
0001
1000
1001
0001
0000
0100
,
0010
0000
1000
0010
0000
1000
0100
0000
,
1000
0001
0000
1000
0100
1000
0000
0001
,
0010
0000
0001
0100
0000
0010
1000
0000
,
0100
0000
1000
0000
0001
0010
0000
0100
,
1000
0000
0001
0100
0000
0010
1000
0000
,
0001
0100
0000
0010
1000
0010
0000
1000
,
0100
0000
1000
0001
0000
1000
0010
0100
,
0001
0010
0100
1000
0000
0000
0000
0000
;

//--------------- dance-double - ----------------
#NOTES:
     dance-double:
     :
     Hard:
     16:
     0,0,0,0,0:
00000000
00000000
00000000
00000000
,
00000000
00000000
00000000
00000000
,
00000000
00000000
00000000
00000000
,
00000000
00000000
00000000
00000000
00000000
00000000
00000000
00000000
00000000
00000000
00000000
00000000
00010000
00001000
00010000
00001000
,
00010000
00001000
00100000
00010000
10000000
00100000
10000000
00010000
,
01000000
00100000
10000000
00010000
10000000
01000000
00100000
00001000
,
00100000
00001000
00010000
00000020
00000000
00000000
00002030
00000000
,
00000000
00000000
00003000
00001002
,
00000000
00001003
00000200
00000000
00020300
00000000
00032000
00000000
,
01000000
00023000
00000000
00032000
,
01003000
00100000
01000000
00000000
00100000
10000000
00010000
00000000
,
10000000
00000000
00010000
00100000
00010000
00100000
00002000
00000000
,
00000000
00000000
00000000
00000000
00013000
00000010
00002000
00000000
,
00000000
00000000
00003001
00000000
00001000
00000010
00001000
00000100
,
00000010
00000001
00001000
00000100
00000010
00000001
00000001
00000100
,
00001000
00000100
00000010
00010000
00001000
01000000
00100000
00010000
,
00100000
10000000
00010000
01000000
01000000
00100000
10000000
00010000
,
01000000
00100000
00010000
00100000
01000000
00001000
00010000
00000100
,
00000100
00001000
00000010
00000100
00001000
00000100
00000001
00000010
,
00001000
00010000
01000000
10000000
10000000
00100000
00010000
00001000
,
00000100
00000001
00001000
00000010
00000010
00010000
00001000
01000000
,
00010000
00000000
00100000
00000000
00001000
00000000
01000000
00000000
00010000
00000000
00000000
00000000
10000000
00010000
10000000
00000000
,
00000000
00000000
00010000
01000000
00010000
00000000
00000000
00000000
10000000
01000000
10000000
00000000
00000000
00000000
00010000
01000000
,
00010000
00000000
00000000
00000000
01000000
00000000
00001000
00000000
00010000
00000000
00000100
00000000
00001000
00000001
00001000
00000000
,
00000000
00000000
00000010
00000100
00000010
00000000
00000000
00000000
00001000
00000001
00001000
00000000
00000000
00000000
00000001
00000010
,
00000100
00000000
00010000
00000000
00001000
00000000
01000000
00000000
00100000
00000000
00000000
00000000
10000000
00010000
10000000
00000000
,
00000000
00000000
00010000
01000000
00010000
00000000
00000000
00000000
00100000
00001000
00100000
00000000
00000000
00000000
00001000
00010000
,
00001000
00010000
00000010
00000100
00000010
00001000
00000001
00000010
,
00000100
00001000
00000100
00000010
00000001
00001000
00000010
00000000
,
00000010
00000000
00000010
00000000
00010000
00001000
00021000
00000000
,
00000000
00030010
00000000
00000000
00010000
00001000
00000200
00000000
,
00000320
00000000
00000030
00001000
00000001
00001000
00000200
00000000
,
00010300
00000000
00001000
00000000
01000000
00000000
00100000
01000000
00100000
00000000
01000000
00000000
00010000
00000000
00000000
00000000
,
20000000
00000000
00000000
00000000
30010000
01000000
01020000
00000000
,
00000000
20030000
00000000
00000000
30010000
00100000
00002000
00000000
,
00023000
00000000
00000000
00030100
00001000
00000010
00001000
00000100
,
00001000
00000000
00000010
00000000
00000100
00000001
00000100
00000000
00000001
00000000
00001000
00000000
00000001
00000000
00000000
00000000
,
00001000
00000010
00001000
00000010
00001000
00000000
00000000
00000000
00000001
00000000
00001000
00000000
00000100
00000000
00000000
00000000
,
00010000
00000000
00001000
00000000
10000000
00010000
10000000
00000000
,
00100000
00000000
01000000
00000000
00001000
00010000
00000010
00000000
,
00001000
00000001
00001000
00010000
,
10000000
00000000
00010000
00000000
00100000
01000000
10000000
00000000
,
00010000
00000000
01000000
00000000
00001000
00010000
00000010
00000000
,
00100000
00001000
01000000
00001000
,
02002000
00000000
00000000
00000000
03003000
00000000
01000000
00001000
,
00010000
00000100
00010000
00000001
00000010
00000100
00001100
00000000
,
00001000
00000000
00000100
00010000
00000010
00000100
00000001
00000000
,
00001000
00000000
00000001
00001000
00000100
00000010
00000001
00000000
,
00010000
00000000
00001000
00000000
10000000
00000000
00010000
01000000
,
00010000
00000000
01000000
00010000
01000000
00010000
10000000
01000000
,
00100000
00000000
00010000
00100000
01000000
00000000
10000000
00010000
,
00100000
00010000
10000000
01000000
00100000
00000000
00010000
00000000
,
00100000
01000000
10000000
00010000
00100000
00001000
M0010000
00000000
,
00010020
00000000
00000000
00001030
00000000
00000000
00000001
00000100
,
00001000
00000000
00010000
00200000
10000000
00000000
01300000
00001000
,
02000000
00000000
03010000
00100000
00001000
00010000
00000100
00001000
,
00000002
00000000
00001003
00000100
00000010
00000001
00000010
00000100
,
00001000
00000100
00001000
00000100
00010000
00001000
00010000
00001000
,
01000000
00100000
00010000
00100000
01000000
00010000
01000000
00100000
,
20000000
00000000
30010000
00000000
01000000
00100000
01000000
00001000
,
00010000
00001000
00010000
00000100
00010000
00000010
00001000
00000001
,
00000102
00000000
00000000
00010003
00000000
00000000
00001000
00100000
,
00020000
00000000
01030000
00000000
00000000
00100000
10000000
01000000
,
00100000
00000000
00010000
00000000
01000000
00000000
00100000
00000000
01000000
00000000
00001000
00010000
00001000
00000000
00010000
00000000
,
00002000
00000000
00023000
00000000
00000000
00000000
00030010
00000100
,
00000201
00000000
00000000
00000310
00000000
00000000
00010000
00001000
,
00200000
00000000
00320000
00000000
10030000
01000000
00100000
00010000
,
00001000
00000000
00000100
00000000
00000010
00000000
00000001
00000000
00001000
00000010
00001000
00000000
00000001
00000000
00001000
00000000
,
00000010
00000000
00000000
00000000
00001000
00000001
00001000
00000100
00000010
00000000
00000001
00000000
00000100
00000000
00000010
00000000
,
00002000
00000010
00000000
00003001
,
00001000
00000100
00010000
00000000
00001000
01000000
00100000
00000000
,
00010000
00000000
00100000
00000000
01000000
00000000
00001000
00010000
,
00000010
00000100
00001000
00000000
00010000
00001000
01000000
00100000
,
20000000
00000000
00000000
00000000
30100000
01000000
10000000
01000000
,
00100000
10000000
00010000
00000000
00100000
00001000
00010000
00000000
,
00000010
00000100
00001000
00000100
00000001
00000100
00000010
00001000
,
00000200
00000000
00010000
00000000
00000300
00001000
00010000
00000000
,
00000002
00000000
00000000
00000000
00000103
00000010
00000100
00000000
,
00000002
00000000
00002003
00000000
00003200
00000000
01000300
00010000
,
02000000
00000000
03020000
00000000
10030000
00100000
00010000
00100000
,
01000000
00001000
00020000
00000000
00030100
00001000
00000001
00000100
,
00002000
00003100
00000002
00000013
,
00001000
00010000
01000000
10000000
01000000
00010000
01000000
00100000
,
M0020000
00000000
00030000
00000000
00100000
00010000
00001000
00010000
,
00100000
00010000
01000000
00100000
00010000
00100000
10000000
00010000
,
01000000
00100000
20000000
00000000
30001000
00010000
00000100
00000010
,
00000100
00001000
00000010
00000001
00000010
00001000
00000010
00000100
,
00000001
00001000
00000001
00001000
00000001
00000100
00001000
00010000
,
00100000
10000000
00010000
01000000
10000000
01000000
00100000
01000000
,
00001000
00010000
00000100
00000010
00000100
00000001
00000100
00000001
,
00000100
00001000
00000100
00001000
00010000
00000000
00001000
00000000
,
01000000
00100000
01000000
00010000
20010000
00000000
00100000
00000000
,
31000000
00000000
00001000
00010000
00002000
00000000
00100000
00000000
,
00023000
00000000
00030010
00000000
00000100
00000001
00000100
00000000
,
00000010
00001000
00000010
00000100
00000001
00000000
00001000
00000000
,
00000010
00010000
00001000
01000000
00010000
01000000
00200000
00000000
,
10300000
01000000
00010000
01000000
00100000
00001000
00010000
00000000
,
00000020
00000000
00000130
00000000
00000010
00000100
00001000
00000100
,
00000001
00000100
00000010
00001000
00000100
00000000
00000000
00000000
,
00000000
00000000
00000000
00000000
01000000
00100000
00010000
10000000
,
00100000
00010000
00100000
01000000
00001000
00010000
00001000
00000010
,
00000100
00001000
00000010
00000100
00000001
00000100
00001000
00010000
,
00001000
01000000
00010000
01000000
00000000
00100000
10000000
00000000
,
01000000
10000000
01000000
10000000
00010000
00100000
10000000
00010000
,
01000000
10000000
01000000
00100000
01000000
00001000
00010000
00000010
,
00001000
00000001
00000000
00001000
00000010
00000100
00010000
00000100
,
00000010
00001000
00000001
00000010
00000000
00000001
00001000
00000010
,
00001000
00000010
00000100
00000001
00010000
00001000
00000010
00001000
,
00010000
00001000
01000000
00001000
00000000
01000000
00010000
00100000
,
01000000
10000000
00000000
00100000
01000000
10000000
01000000
00100000
,
10000000
00010000
00100000
00001000
00000000
00010000
00000010
00000100
,
00000001
00000010
00000100
00001000
00010000
00100000
00000000
01000000
,
10000000
00010000
01000000
00010000
00000000
10000000
01000000
00100000
,
00010000
00001000
00000000
00010000
00100000
00010000
01000000
00001000
,
00010000
00000010
00001000
00000001
00000010
00000100
00001000
00000100
,
00000010
00000001
00001000
00000010
00001000
00000100
00001000
00000001
,
00000100
00000010
00001000
00000100
00001000
00000010
00010000
00000010
,
00001000
00000100
00001000
00000100
00010000
00000100
00010000
00001000
,
00100000
00001000
01000000
00100000
01000000
00010000
00100000
00010000
,
10000000
00100000
10000000
00100000
01000000
00010000
01000000
00010000
,
00100000
00010000
00100000
00001000
00100000
00001000
00010000
00001000
,
00010000
00000100
00010000
00000010
00000100
00000001
00000100
00000001
,
00000010
00000100
00001000
00010000
00000000
00100000
01000000
10000000
,
01000000
00100000
00010000
10000000
00000000
00000000
00000000
00000000
;
