#TITLE:Tears On My Pillow;
#ARTIST:Kylie Minogue;
#BANNER:Tears On My Pillow.png;
#BACKGROUND:Tears On My Pillow-bg.png;
#JACKET:Tears On My Pillow-jacket.png;
#MUSIC:Tears On My Pillow.ogg;
#OFFSET:-1.313;
#SAMPLESTART:56.209;
#SAMPLELENGTH:15;
#BPMS:0=69.95;
#BGCHANGES:-4=Tears On My Pillow.mp4=1=0=0=0;

//---------------dance-single - t7r----------------
#NOTES:
     dance-single:
     t7r:
     Beginner:
     1:
     :
0000
0000
0000
0000
,
0000
0000
0000
0000
,
1000
0000
0100
0000
,
0010
0000
0001
0000
,
0100
0000
0100
0000
,
0010
0000
0010
0000
,
1000
0000
1000
0000
,
0001
0000
0001
0000
,
0010
0010
0010
0000
,
0100
0100
0100
0000
,
1000
0001
0001
0100
,
0100
0000
0010
0000
,
1000
0000
1000
0000
,
0100
0000
0100
0000
,
0010
0000
0001
0000
,
0100
0000
1000
0000
,
0100
0000
0100
0000
,
0010
0000
0010
0000
,
1000
0000
1000
0000
,
0001
0000
0001
0000
,
0010
0010
0010
0000
,
0100
0100
0100
0000
,
1000
0000
0001
0000
,
0100
0000
0010
0000
,
1000
0000
1000
0000
,
0001
0000
0001
0000
,
0010
0000
0010
0000
,
0100
0000
0100
0000
,
1000
0000
0001
0000
,
0100
0000
0010
0000
,
1000
1000
1000
0000
,
1001
0000
0001
0100
,
0110
0000
0000
0000
;

//---------------dance-single - t7r----------------
#NOTES:
     dance-single:
     t7r:
     Easy:
     4:
     :
0000
0000
0000
0000
,
0000
0000
0000
0000
,
0001
0000
0100
0000
,
0010
1000
0100
0000
,
0010
0000
0001
0000
,
1000
0000
0010
0000
,
0200
0000
0301
0000
,
0020
0000
0130
0000
,
1000
0010
2000
3000
,
0001
0010
0002
0003
,
2000
3020
0230
0302
,
2003
3100
0010
0010
,
0001
0100
0010
0000
,
1000
0100
0010
0000
,
0001
1000
0010
0000
,
0100
0001
2000
0000
,
3001
0000
0000
0000
0010
0100
0020
0000
0000
0030
0000
0000
,
0001
0000
0000
0000
0100
0010
0200
0000
0000
0300
0000
0000
,
0010
0000
0000
0000
1000
0100
2000
0000
0000
3000
0000
0000
,
0010
0000
0000
0000
0100
0001
0200
0000
0000
0300
0000
0000
,
0001
1000
0100
0000
,
1000
0001
0100
0000
,
0002
0010
2003
0010
,
3002
0100
2003
0100
,
3001
0000
0100
0000
,
0010
0000
1000
0000
,
0200
1000
0320
0001
,
0230
0300
1000
0001
,
2000
0000
0000
3010
0100
0010
2000
0000
0000
3001
0000
0000
,
0002
0000
0000
0013
0100
0010
0002
0000
0000
1003
0000
0000
,
0020
0000
0000
0130
0001
1000
0020
0000
0000
0130
0000
0000
,
0001
0000
0000
0010
0100
1000
0020
0000
0000
0130
0000
0000
,
2002
0000
0000
0000
,
3003
0000
0000
0000
;

//---------------dance-single - t7r----------------
#NOTES:
     dance-single:
     t7r:
     Medium:
     8:
     :
0000
0000
0000
0000
,
0000
0000
0000
0000
,
2000
0000
0000
3001
0100
0010
0200
0000
0000
0301
0000
0000
,
2000
0000
3200
0000
0320
0000
0031
0001
0100
0010
0010
0100
,
0002
0000
1000
0103
0000
0001
2000
0000
0100
3001
0000
1000
,
0002
0000
0010
1003
0000
0001
2000
0000
0010
3001
0000
0000
,
0200
0000
1000
0310
0000
1000
0200
0000
0001
0310
0000
0000
,
0002
0000
0010
1003
0100
0010
0001
0100
1000
0100
0010
0010
,
1000
0100
1000
0002
0000
0103
0001
0010
0100
1000
0010
0100
,
0001
0010
0001
2000
0000
3010
1000
0100
0010
0001
0100
0010
,
0200
0302
0023
2030
,
3010
0001
0001
0100
0000
0010
2000
0000
3002
2003
0000
0000
,
3001
0000
0010
1001
0000
1000
0100
0001
0100
1000
0000
0001
,
1000
0000
0010
1001
0000
1000
0001
0100
1000
0100
0000
0001
,
0020
0000
0001
0230
0000
0001
0320
0000
0031
1000
0010
0100
,
2000
0000
0000
3100
0001
0010
0100
0100
0010
0001
0001
1000
,
2001
0000
0000
3100
0001
0100
0010
0001
1000
1001
0000
0000
,
1002
0000
0000
0103
1000
0100
0010
1000
0001
1001
0000
0000
,
1200
0000
0000
0310
1000
0010
0100
0010
0001
0011
0000
0000
,
0201
0000
0000
0310
0001
0010
0100
0010
1000
1010
0010
1000
,
0002
0100
0100
1003
0000
0000
2000
0100
0100
3001
0000
0000
,
0002
0010
0010
1003
0000
0000
2000
0010
0010
3001
1000
0001
,
2000
0000
0000
3200
0000
0001
0320
0000
0000
0031
0100
0010
,
1000
0010
0100
0001
0010
0100
1000
0010
0010
0100
0001
1001
,
2000
3001
0200
0310
,
2000
3100
0020
0031
,
1000
0010
1000
0002
0000
0010
1003
0100
1000
0001
0100
1000
,
0100
0010
1000
1010
0000
1000
0100
0010
0001
1001
0000
0001
,
2000
0000
0000
3100
0010
0100
0002
0000
0000
1003
0010
0001
,
2000
0000
0000
3010
0100
0010
0002
0000
0000
1003
0100
0010
,
0200
0000
0000
0301
0010
0100
0020
0000
0000
1030
0001
0100
,
2000
0000
0000
3001
0100
1000
0200
0000
0000
0320
0230
0302
,
2000
0000
0000
0000
,
3003
0000
0000
0000
;

//---------------dance-single - t7r----------------
#NOTES:
     dance-single:
     t7r:
     Hard:
     11:
     :
0000
0000
0000
0000
,
0000
0000
0000
0000
,
2000
0000
0100
3001
0010
0100
0020
0000
0001
0130
1000
0010
,
0200
0000
2300
0000
3002
0000
0013
0010
1000
0100
0100
0010
,
0002
0000
0100
1003
0100
0010
0100
0001
0100
1100
0000
0001
,
2000
0000
0100
3001
0100
0010
0100
1000
0100
0101
0000
1000
,
0002
0000
0010
1003
0010
0100
0010
0001
0010
1010
0000
0001
,
2000
0000
0010
3001
0010
1000
0010
0100
1001
0001
0100
0100
,
0020
0000
0031
0010
0100
0010
1000
0100
0001
0101
0000
0100
,
0020
0000
1030
0010
0100
0010
0001
0100
1000
1200
0000
0301
,
2000
0100
0000
3002
0100
0000
2003
0010
0000
3002
0010
0000
,
1003
0100
0001
0100
0010
0001
0200
0000
1300
0002
0000
0013
,
1000
0000
0000
0000
0100
0000
0000
1000
0100
0000
0000
0000
1000
0000
0000
0000
0001
0000
0000
0000
0100
0000
0000
0000
0001
0000
0000
0000
0010
0000
0100
0000
0010
0000
0000
0000
0100
0000
0000
0000
0100
0000
0000
0000
1000
0000
0000
0000
,
0001
0000
0000
0000
0100
0000
0000
0001
0100
0000
0000
0000
0001
0000
0000
0000
1000
0000
0000
0000
0100
0000
0000
0000
1000
0000
0000
0000
0010
0000
0100
0000
0010
0000
0000
0000
0100
0000
0000
0000
0100
0000
0000
0000
0001
0000
0000
0000
,
2000
0100
0010
3002
0100
0010
2003
0010
0100
3002
0010
1000
,
0203
1000
0010
0301
0010
0100
0001
0001
0100
1000
1000
0010
,
0210
1000
0010
0301
1000
0001
0020
1000
0130
0110
0000
1000
,
0002
0100
1000
0013
1000
0010
0200
0001
0310
0110
0000
0001
,
2000
0010
0001
3100
1000
0010
0200
1000
0310
0101
0000
1000
,
0002
0010
1000
0103
0001
0010
0100
0100
0010
1001
0000
1000
,
2100
0001
0001
3010
0100
0001
0100
1000
0100
0010
1000
0001
,
0102
1000
1000
0013
0100
1000
0100
0001
0100
0010
0001
0002
,
1000
0100
0100
2003
0010
0010
3002
0010
0100
2003
3200
0320
,
0031
0100
1000
0100
0010
0110
1000
0100
0100
0001
0100
1100
,
2000
0000
3010
0100
0000
0000
0002
0000
0013
0100
0000
0000
,
2000
0000
3001
0010
0000
0000
0002
0000
1003
0010
0000
0000
,
0200
0000
0000
0301
1000
0100
0020
0000
0000
0130
1000
0001
,
0100
0000
0000
0000
0010
0000
0000
1000
0100
0000
0000
0000
0010
0000
0000
0000
0001
0000
0000
0000
1000
0000
0000
0000
0001
0000
0000
0000
0100
0000
0010
0000
1000
0000
0000
0000
0001
0000
0000
0000
1000
0000
0000
0000
0100
0000
0000
0000
,
0020
0000
0000
0000
0000
0000
0000
0000
1030
0000
0000
0000
0010
0000
0000
0000
0100
0000
0000
0000
0010
0000
0000
0000
0012
0000
0000
0000
0103
0000
0000
0001
1000
0000
0000
0000
0010
0000
0000
0000
0100
0000
0000
0000
0100
0000
0000
0000
,
1200
0000
0000
0000
0000
0000
0000
0000
0310
0000
0000
0000
0100
0000
0000
0000
0001
0000
0000
0000
0010
0000
0000
0000
0100
0000
0000
0000
1000
0000
0000
0001
0100
0000
0000
0000
0010
0000
0000
0000
0010
0000
0000
0000
2000
0000
0000
0000
,
0001
0000
0000
0000
0000
0000
0000
0000
0100
0000
0000
0000
3200
0000
0000
0000
0001
0000
0000
0000
0310
0000
0000
0000
0001
0000
0000
0000
0100
0000
0000
0010
0100
0000
0000
0000
1000
0000
0000
0000
0100
0000
0000
0000
0001
0000
0000
0000
,
1000
0000
0000
0000
0100
0000
0000
0010
0100
0000
0000
0000
0001
0000
0000
0000
0100
0000
0000
0000
1000
0000
0000
0000
0001
0000
0000
0000
0100
0000
0000
0010
0100
0000
0000
0000
1000
0000
0000
0000
0100
0000
0000
0000
0010
0000
0000
0000
,
2002
0000
0000
0000
,
3003
0000
0000
0000
;

//---------------dance-double - t7r----------------
#NOTES:
     dance-double:
     t7r:
     Easy:
     4:
     :
00000000
00000000
00000000
00000000
,
00000000
00000000
00000000
00000000
,
00100000
00000000
01000000
00000000
,
10000000
00000000
01000000
00010000
,
00001000
00000000
00000100
00000000
,
00000010
00000000
00000100
00000000
,
00000001
00000000
00000010
00000000
,
00001000
00000000
00010000
00000000
,
00001000
01000000
00010000
00000000
,
10000000
01000000
00100000
00000000
,
00002000
00000000
00023000
00030020
,
00000130
00000000
00000002
00002003
,
00003001
00000010
00001000
00000000
,
00010000
00100000
10000000
00000000
,
10000000
01000000
00010000
00000000
,
00001000
00000100
00000002
00000000
,
00000013
00000000
00000000
00000000
00000100
00001000
00000200
00000000
00000000
00000300
00000000
00000000
,
00000010
00000000
00000000
00000000
00000001
00001000
00000002
00000000
00000000
00000003
00000000
00000000
,
00000100
00000000
00000000
00000000
00001000
00010000
00002000
00000000
00000000
00003000
00000000
00000000
,
00010000
00000000
00000000
00000000
01000000
10000000
02000000
00000000
00000000
03000000
00000000
00000000
,
10000000
00100000
01000000
00000000
,
00010000
01000000
00001000
00000000
,
00020000
00000000
00030200
00002300
,
00003001
00000000
00000100
00000010
,
00001000
00000000
00000100
00000000
,
00010000
00000000
00001000
00000000
,
02000000
00100000
03020000
00100000
,
10030000
00000000
01000000
00010000
,
00001000
00011000
00020000
00030000
,
00000010
00000110
00000200
00000300
,
00000001
00001001
00002000
00003000
,
00000100
00010000
00001000
00010000
,
02000000
00000000
00000000
00000000
,
03000000
00000000
00000000
00000000
;

//---------------dance-double - t7r----------------
#NOTES:
     dance-double:
     t7r:
     Medium:
     8:
     :
00000000
00000000
00000000
00000000
,
00000000
00000000
00000000
00000000
,
00000200
00000000
00000000
00000000
00010300
00001000
02000000
00000000
00000000
03100000
00000000
00000000
,
20000000
00000000
32000000
00000000
03020000
00000000
00031000
00001000
00000100
00000010
00000010
00001000
,
00000002
00000000
00000010
00001003
00000000
00000001
00000100
00001000
00010000
00001000
00000000
00010000
,
02000000
00000000
00010000
03100000
00010000
10000000
00100000
00010000
00001000
00010000
00000000
00001000
,
00000020
00000000
00000001
00000130
00000000
00000010
00000001
00001000
00000100
00010000
00000000
00001000
,
00020000
00000000
00001000
00130000
10000000
01000000
00100000
01000000
10000000
00100000
00010000
00001000
,
00012000
00000000
01000000
01003000
00000000
00010000
10000000
01000000
00100000
00001000
00000000
00000000
,
00021000
00000000
00000100
00030100
00000000
00000000
00001000
00000100
00000010
00000001
00000000
00001000
,
00000002
00000203
00002300
00023000
,
00130000
10000000
01000000
00100000
00000000
01000000
20000000
00000000
31000000
00200000
00000000
00000000
,
00301000
00000000
00000000
00000110
00000000
00000000
00000001
00000010
00000100
00001000
00000000
00000000
,
00010000
00000000
00000000
01100000
00000000
00000000
10000000
00100000
01000000
00010000
00000000
00000000
,
20000000
00000000
31000000
00020000
00000000
00031000
00000100
00000010
00000100
00000101
00000000
00000001
,
00002000
00000000
00003001
00000010
00001000
00010000
00001000
01000000
01000000
00010000
10000000
10000000
,
02000000
00000000
13000000
00100000
01000000
00010000
10000000
01000000
00010000
00011000
00000000
00001000
,
00000200
00000000
00000301
00000010
00000100
00001000
00000001
00000100
00001000
00011000
00000000
00010000
,
00200000
00000000
10300000
01000000
00100000
00010000
10000000
00100000
00010000
00011000
00000000
00001000
,
00000020
00000000
00000031
00000100
00000010
00001000
00000001
00000010
00001000
00011000
00000000
00010000
,
02000000
00010000
00010000
03100000
00000000
00010000
10000000
00100000
00010000
00001000
00000100
00000001
,
00000020
00001000
00001000
00000130
00000000
00000010
00000001
00000100
00001000
00010000
00100000
10000000
,
00020000
00000000
00000000
00130000
01000000
10000000
00200000
00000000
00000000
00310000
00001000
00010000
,
00001000
00000020
00000000
00000130
00001000
00000010
00000100
00001000
00001000
00010000
01000000
01000000
,
00200000
00301000
00020000
00030100
,
00002000
00000000
00000000
00003010
00000000
00000000
00000200
00000000
00000000
00000301
00000010
00000200
,
00010000
00000000
00000000
00002300
00000000
00000000
00003002
00000000
00000000
00000103
00001000
00010000
,
01000000
20000000
00000000
30100000
00000000
10000000
00010000
01000000
01000000
00001000
00010000
00001000
,
00021000
00000000
00000000
00030100
00001000
00000001
00000200
00000000
00000000
00001300
00001000
00010000
,
00002000
00000000
00000000
00013000
01000000
10000000
00200000
00000000
00000000
01300000
01000000
00001000
,
00020000
00000000
00000000
00031000
00000100
00000010
00000200
00000000
00000000
00000301
00000001
00001000
,
00000002
00000000
00000000
00000013
00001000
00010000
00002000
00000000
00000000
01003000
00000000
00000000
,
02200000
00000000
00000000
00000000
,
03300000
00000000
00000000
00000000
;

//---------------dance-double - t7r----------------
#NOTES:
     dance-double:
     t7r:
     Hard:
     12:
     :
00000000
00000000
00000000
00000000
,
00000000
00000000
00000000
00000000
,
00200000
00000000
01000000
00310000
10000000
00100000
02000000
00000000
10000000
03100000
10000000
01000000
,
00020000
00000000
00032000
00000000
00003020
00000000
00000031
00000001
00000100
00000010
00000010
00001000
,
00000200
00000000
00010300
00001000
00010000
01000000
10000000
00100000
01000000
01100000
00000000
10000000
,
02000000
00000000
03100000
00010000
10000000
00100000
00010000
00001000
00010000
00010100
00000000
00000100
,
00002000
00000000
00003010
00000100
00000001
00000010
00000100
00010000
00001000
00011000
00000000
00001000
,
02000000
00000000
03100000
10000000
00010000
00100000
01000000
10000000
10010000
10000000
00100000
00100000
,
00020000
00000000
00030100
00010100
00000100
00001000
00000001
00000100
00000010
00001000
00000000
00000001
,
00000020
00000000
00001030
00011000
00001000
00010000
00100000
01000000
00010000
10000000
01000000
00100000
,
00002000
01000000
00000000
00023000
00000100
00000000
00032000
00100000
00000000
00023000
00000010
00000000
,
00031000
00010000
01000000
10000000
00010000
00001000
00000200
00000000
00000310
00000002
00000000
00000000
,
00000103
00000000
00000000
00000000
00000000
00000000
00000000
00000100
00000010
00000000
00000000
00000000
00000100
00000000
00000000
00000000
00000001
00000000
00000000
00000000
00000010
00000000
00000000
00000000
00000100
00000000
00000000
00000000
00000000
00000000
00010000
00000000
00001000
00000000
00000000
00000000
00010000
00000000
00000000
00000000
01000000
00000000
00000000
00000000
10000000
00000000
00000000
00000000
,
00100000
00000000
00000000
00000000
00000000
00000000
00000000
01000000
00100000
00000000
00000000
00000000
10000000
00000000
00000000
00000000
01000000
00000000
00000000
00000000
00100000
00000000
00000000
00000000
00001000
00000000
00000000
00000000
00010000
00000000
00001000
00000000
00010000
00000000
00000000
00000000
00001000
00000000
00000000
00000000
00000100
00000000
00000000
00000000
00000001
00000000
00000000
00000000
,
00000020
00000000
00001030
00020000
00000000
00031000
00000010
00000001
00000100
00001000
00010000
00100000
,
02000000
00000000
00000000
00000000
00000000
00000000
13000000
00000000
01000000
00000000
00010000
00000000
00100000
00000000
00001000
00010000
00001000
00000000
00000010
00000000
00000100
00000000
00000110
00000000
,
00000002
00000100
00001003
00001001
00000001
00000010
00001000
00010000
00001000
00011000
00010000
00100000
,
20000000
00100000
30010000
10010000
10000000
01000000
00010000
00001000
00010000
00011000
00001000
00000100
,
00000020
00001000
00000130
00000110
00000001
00000010
00001000
00010000
00001000
00011000
00010000
00100000
,
02000000
10000000
03100000
01100000
10000000
01000000
00010000
00010000
00001000
00011000
00000000
00001000
,
00000020
00000100
00000100
00000031
00000100
00000010
00001000
00000100
00000001
00000101
00000100
00010000
,
00002000
01000000
01000000
00013000
00001000
00010000
01000000
10000000
00100000
00110000
00100000
02000000
,
00010000
00000000
03001000
00002000
00000000
00100000
00203000
00000000
00010000
00310000
01000000
00001000
,
00010000
00001000
00000010
00000100
00001000
00000010
00000100
00000010
00001010
00001000
00000100
00010100
,
00020000
00000000
00030100
00001000
00000000
00000000
00000200
00000000
00010300
00001000
00000000
00000000
,
02000000
00000000
03001000
00010000
00000000
00000000
00002000
00000000
00013000
00000100
00000000
00000000
,
00020000
00000000
00000000
01030000
10000000
00100000
02000000
00000000
00000000
03100000
10000000
00010000
,
00100000
00000000
00000000
00000000
00001000
00000000
00000000
00010000
00001000
00000000
00000000
00000000
00000010
00000000
00000000
00000000
00000100
00000000
00000000
00000000
00001000
00000000
00000000
00000000
00000010
00000000
00000000
00000000
00000100
00000000
00000001
00000000
00001000
00000000
00000000
00000000
00000100
00000000
00000000
00000000
00000010
00000000
00000000
00000000
00000001
00000000
00000000
00000000
,
00000200
00000000
00000000
00000000
00000000
00000000
00000000
00000000
00001300
00000000
00000000
00000000
00010000
00000000
00000000
00000000
00001000
00000000
00000000
00000000
00100000
00000000
00000000
00000000
00210000
00000000
00000000
00000000
10300000
00000000
00000000
00100000
01000000
00000000
00000000
00000000
00100000
00000000
00000000
00000000
00010000
00000000
00000000
00000000
10000000
00000000
00000000
00000000
,
10200000
00000000
00000000
00000000
00000000
00000000
00000000
00000000
00310000
00000000
00000000
00000000
00001000
00000000
00000000
00000000
00000100
00000000
00000000
00000000
00000001
00000000
00000000
00000000
00000010
00000000
00000000
00000000
00000100
00000000
00000000
00010000
00001000
00000000
00000000
00000000
00010000
00000000
00000000
00000000
00001000
00000000
00000000
00000000
02000000
00000000
00000000
00000000
,
10000000
00000000
00000000
00000000
00000000
00000000
00000000
00000000
03100000
00000000
00000000
00000000
00200000
00000000
00000000
00000000
00010000
00000000
00000000
00000000
01000000
00000000
00000000
00000000
10300000
00000000
00000000
00000000
01000000
00000000
00000000
00100000
00001000
00000000
00000000
00000000
00010000
00000000
00000000
00000000
00000100
00000000
00000000
00000000
00001000
00000000
00000000
00000000
,
00000010
00000000
00000000
00000000
00000100
00000000
00000000
00000001
00000010
00000000
00000000
00000000
00000001
00000000
00000000
00000000
00000100
00000000
00000000
00000000
00001000
00000000
00000000
00000000
00010000
00000000
00000000
00000000
01000000
00000000
00000000
00100000
01000000
00000000
00000000
00000000
10000000
00000000
00000000
00000000
00100000
00000000
00000000
00000000
00010000
00000000
00000000
00000000
,
00022000
00000000
00000000
00000000
,
00033000
00000000
00000000
00000000
;

//---------------dance-double - Ozius t7runcatus----------------
#NOTES:
     dance-double:
     Ozius t7runcatus:
     Challenge:
     17:
     :
00000000
00000000
00000000
00000000
,
00000000
00000000
00000000
00000000
,
20000000
00000000
30010000
00001000
00000001
00000100
00000020
00000000
00100030
00000010
00000000
00000000
,
00020000
00000000
00032000
00000000
02003000
00000000
03000100
00000100
00020000
00000000
00031000
00001000
,
01000000
00010000
10000000
11000000
10000000
00010000
01000000
00001000
00010000
00011000
00010000
00000010
,
00000100
00000000
00000000
00000000
00000001
00000000
00000000
00000000
00001000
00000000
00000000
00000000
00001001
00000000
00000000
00000000
00000001
00000000
00000000
00000000
00000010
00000000
00000000
00000000
00000110
00000000
00000000
00000000
00000010
00000000
00000000
00000001
00000100
00000000
00000000
00000000
00001000
00000000
00000000
00000000
00010000
00000000
00000000
00000000
00100000
00000000
00000000
00000000
,
10000000
01000000
10000000
10010000
10000000
00100000
00010000
00001000
00010000
00011000
00001000
00000100
,
00000001
00000000
00000000
00000000
00000010
00000000
00000000
00000000
00000100
00000000
00000000
00000000
00000110
00000000
00000000
00000000
00000010
00000000
00000000
00000000
00000001
00000000
00000000
00000000
00000100
00000000
00000000
00000000
00001000
00000000
00000000
00010000
00001000
00000000
00000000
00000000
00010000
00000000
00000000
00000000
01010000
00000000
00000000
00000000
11000000
00000000
00000000
00000000
,
10000000
00010000
00001000
00000001
00001000
00010000
10000000
00000010
00010000
00000100
10000000
00010000
,
10000000
00010000
00001000
00000001
00001000
00010000
10000000
00000100
00010000
00000010
10000000
00010000
,
02000000
03000200
00200300
00300020
,
00020030
01000000
01000000
00000100
00000100
00030100
00200000
00000000
00300020
00200000
00000000
00300030
,
00011000
00000000
00000000
00000000
00001000
00000000
00000000
00000100
00000001
00000000
00000000
00000000
00000010
00000000
00000000
00000000
00000100
00000000
00000000
00000000
00001000
00000000
00000000
00000000
00000001
00000000
00000000
00000000
00000100
00000000
00000000
00001000
00010000
00000000
00000000
00000000
01000000
00000000
00000000
00000000
10000000
00000000
00000000
00000000
10000000
00000000
00000000
00000000
,
00100000
00000000
00000000
00000000
01000000
00000000
00000000
00010000
10000000
00000000
00000000
00000000
00100000
00000000
00000000
00000000
00010000
00000000
00000000
00000000
00001000
00000000
00000000
00000000
00000010
00000000
00000000
00000000
00000100
00000000
00000100
00000000
00000100
00000000
00000000
00000000
00000010
00000000
00000000
00000000
00000001
00000000
00000000
00000000
00000001
00000000
00000000
00000000
,
00000200
00000000
00001300
00010000
01000000
00000000
20000000
00000000
30100000
00000000
10100000
00000000
20000000
00000000
31000000
00010000
00001000
00000000
00001100
00000000
00000101
00000000
00001001
00000000
,
00000001
00000000
00000000
00000000
00000000
00000000
00000000
00000000
00000000
00000000
00000000
00000000
00000000
00000000
00000000
00000000
00000010
00000000
00000000
00000000
00000000
00000000
00000000
00000000
00000000
00000000
00000000
00000000
00000100
00000000
00000000
00000000
00010000
00000000
00000000
00000000
00000000
00000000
00000000
00000000
00000000
00000000
00000000
00000000
00000000
00000000
00000000
00000000
00011000
00000000
00000000
00000000
00000000
00000000
00000000
00000000
00000000
00000000
00000000
00000000
00000000
00000000
00000000
00000000
00001000
00000000
00000000
00000000
00000000
00000000
00000000
00000000
00000000
00000000
00000000
00000000
00000000
00000000
00000000
00000000
01000000
00000000
00000000
00000000
00000000
00000000
00010000
00000000
00000000
00000000
00000000
10000000
00000000
00000000
00000000
00000000
00200000
00000000
00000000
00000000
00000000
00000000
00000000
00000000
00000000
00000000
00000000
00000000
00000000
00000000
00000000
00000000
01000000
00000000
00000000
00000000
00000000
00000000
00000000
00000000
00000000
00000000
00000000
00000000
00000000
00000000
00000000
00000000
01300000
00000000
00000000
00000000
00000000
00000000
00000000
00000000
00000000
00000000
00000000
00000000
00000000
00000000
00000000
00000000
10010000
00000000
00000000
00000000
00000000
00000000
00000000
00000000
00000000
00000000
00000000
00000000
00000000
00000000
00000000
00000000
01001000
00000000
00000000
00000000
00000000
00000000
00000000
00000000
00000000
00000000
00000000
00000000
00000000
00000000
00000000
00000000
00011000
00000000
00000000
00000000
00000000
00000000
00000000
00000000
00000000
00000000
00000000
00000000
00000000
00000000
00000000
00000000
,
00000001
01000000
00000001
00001001
00000001
00100000
00000001
00000100
00001000
00011000
00001000
00001000
,
10000000
00000100
10000000
10010000
10000000
00000010
10000000
01000000
00010000
00011000
00010000
00010000
,
00000001
00100000
00000001
00001001
00000001
01000000
00000001
00000010
00001000
00011000
00001000
00001000
,
10000000
00000010
10000000
10010000
10000000
00000100
10000000
00100000
00010000
00011000
00010000
00010000
,
00000001
00000000
00000000
00000000
00000100
00000000
00000000
00000000
00000001
00000000
00000000
00000000
01000000
00000000
00000000
00000000
00000001
00000000
00000000
00000000
10000000
00000000
00000000
00000000
00100000
00000000
00000000
00000000
00010000
00000000
00000000
00001000
00010000
00000000
00000000
00000000
00001000
00000000
00000000
00000000
00010000
00000000
00000000
00000000
00011000
00000000
00000000
00000000
,
10000000
00000000
00000000
00000000
01000000
00000000
00000000
00000000
10000000
00000000
00000000
00000000
00000100
00000000
00000000
00000000
10000000
00000000
00000000
00000000
00000001
00000000
00000000
00000000
00000010
00000000
00000000
00000000
00001000
00000000
00000000
00010000
00001000
00000000
00000000
00000000
00010000
00000000
00000000
00000000
00001000
00000000
00000000
00000000
00011000
00000000
00000000
00000000
,
02000000
00000100
00000100
03000020
00100000
00100030
02000000
00000001
00000001
03000020
10000000
10000000
,
00010030
00000000
00000000
00001000
00000100
00000000
00000000
00000001
00000010
00000000
00000000
00000000
00000001
00000000
00000000
00000000
00001000
00000000
00000000
00000000
00010000
00000000
00000000
00000000
10000000
00000000
00000000
01000000
00010000
00000000
00000000
00001000
00010000
00000000
00000000
00000000
00011000
00000000
00000000
00000000
01000100
00000000
00000000
00000000
01000100
00000000
00000000
00000000
,
00021000
00000000
01000000
00030100
00010000
00010000
00012000
00000000
00000100
01003000
00001000
00001000
,
00021000
00000000
00100000
00030010
00010000
00010000
00012000
00000000
00000010
00103000
00001000
00001000
,
00011000
00000000
00000000
00010000
01000000
00000000
00000000
10000000
00100000
00000000
00000000
00000000
10000000
00000000
00000000
00000000
00000001
00000000
00000000
00000000
00011000
00000000
00000000
00000000
00010000
00000000
00000000
00001000
00000100
00000000
00000000
00000001
00000010
00000000
00000000
00000000
00000001
00000000
00000000
00000000
10000000
00000000
00000000
00000000
00011000
00000000
00000000
00000000
,
00001000
00000000
00000000
00010000
00100000
00000000
00000000
10000000
01000000
00000000
00000000
00000000
10000000
00000000
00000000
00000000
00000001
00000000
00000000
00000000
00011000
00000000
00000000
00000000
00010000
00000000
00000000
00001000
00000010
00000000
00000000
00000001
00000100
00000000
00000000
00000000
00000001
00000000
00000000
00000000
10000000
00000000
00000000
00000000
00011000
00000000
00000000
00000000
,
00010000
00000000
01000000
00000000
10000000
00000000
00000001
00000000
10000000
00000000
00000001
00000100
00001000
00000000
00000100
00000000
00000001
00000000
10000000
00000000
00000001
00000000
10000000
00100000
,
00010000
00000000
00100000
00000000
10000000
00000000
00000001
00000000
10000000
00000000
00000001
00000010
00001000
00000000
00000010
00000000
00000001
00000000
10000000
00000000
00000001
00000000
10000000
00000000
,
00011000
00000000
00000000
00000000
01000000
00000000
00000000
00000100
01000000
00000000
00000000
00000000
00011000
00000000
00000000
00000000
00100000
00000000
00000000
00000010
00100000
00000000
00000000
00000000
00011000
00000000
00000000
00000000
00000100
00000000
00000000
10000000
00000100
00000000
00000000
00000000
00011000
00000000
00000000
00000000
01000000
00000000
00000000
00000001
01000000
00000000
00000000
00000000
,
00011000
00000000
00000000
00000000
00000010
00000000
00000000
10000000
00000010
00000000
00000000
00000000
00011000
00000000
00000000
00000000
00100000
00000000
00000000
00000001
00100000
00000000
00000000
00000000
00001000
00000000
00000000
00000000
00010000
00000000
00000000
01000000
10000000
00000000
00000000
00000000
00100000
00000000
00000000
00000000
00010000
00000000
00000000
00000000
00011000
00000000
00000000
00000000
,
20000002
00000000
00000000
00000000
,
30000003
00000000
00000000
00000000
;
