#TITLE:太陽SUNSUNボンジュールアバンチュール;
#SUBTITLE:;
#ARTIST:Project B-;
#TITLETRANSLIT:Taiyou SUNSUN bonjour aventure;
#SUBTITLETRANSLIT:;
#ARTISTTRANSLIT:;
#GENRE:PIECED SUNDAY;
#CREDIT:;
#MUSIC:Taiyou SUNSUN bonjour aventure.ogg;
#BANNER:Taiyou SUNSUN bonjour aventure.png;
#BACKGROUND:Taiyou SUNSUN bonjour aventure-bg.png;
#CDTITLE:;
#SAMPLESTART:78.149;
#SAMPLELENGTH:15.000;
#SELECTABLE:YES;
#OFFSET:0.699;
#BPMS:0.000=140.000;
#STOPS:;
#BGCHANGES:-0.300=Taiyou SUNSUN bonjour aventure.mp4=1.000=0=0=0=StretchNoLoop====,
999.000=Taiyou SUNSUN bonjour aventure-bg.png=1.000=0=0=1,
99999.000=-nosongbg-=1.000=0=0=0=StretchNoLoop====
;
#FGCHANGES:;

//--------------- dance-single - forcednature ----------------
#NOTES:
     dance-single:
     forcednature:
     Beginner:
     3:
     0,0,0,0,0:
0000
0000
0000
0000
,
0000
0000
0000
0000
,
0000
0000
0000
0000
,
0000
0000
0000
0000
,
0000
0000
0000
0000
,
0000
0000
0000
0000
,
1001
0000
0000
0000
,
1000
0000
0000
0000
,
0010
0000
0000
0000
,
0100
0000
0001
0000
,
0010
0000
0000
0000
,
0100
0000
0000
0000
,
1000
0000
0000
0000
,
0001
0000
0000
0000
,
0100
0000
0000
0000
,
0010
0000
0000
0000
,
1000
0000
0001
0000
,
0010
0000
0100
0000
,
1001
0000
0000
0000
,
1000
0000
0000
0000
,
0010
0000
0000
0000
,
0100
0000
0000
0000
,
0001
0000
0000
0000
,
0010
0000
0000
0000
,
0100
0000
1000
0000
,
0001
0000
0100
0000
,
0000
0010
0000
0010
,
0000
0000
0000
0000
,
1001
0000
0000
0000
,
1000
0000
0000
0000
,
0010
0000
0000
0000
,
0100
0000
0001
0000
,
1000
0000
0000
0000
,
0100
0000
0000
0000
,
0010
0000
0000
0000
,
0001
0000
1000
0000
,
0010
0000
0100
0000
,
0000
0000
0100
0000
,
0001
0000
1000
0000
,
0000
0000
0001
0000
,
1001
0000
1000
0000
,
0001
0000
0001
0000
,
0010
0000
0100
0000
,
1000
1000
0001
0001
,
0100
0000
0010
0000
,
1000
0001
0010
0000
,
0110
0000
0100
0000
,
1000
0000
0001
0000
,
0100
0000
0010
0000
,
1000
0000
0001
0000
,
0010
0000
0001
0000
,
0100
0000
0010
0000
,
1000
0000
0100
0000
,
0010
0000
0001
0001
,
1000
0000
0010
0000
,
0100
0000
0001
0000
,
1000
0000
0100
0000
,
1000
0000
0010
0000
,
0100
0000
0001
0000
,
0010
0000
0100
0000
,
0010
0000
0001
0000
,
0100
0100
0100
0000
,
1001
0000
0100
0000
,
0010
0010
0010
0000
,
1001
0000
0001
0000
,
1001
0000
1000
0000
,
0010
0000
0000
0000
0010
0000
0000
0000
0010
0000
0000
0000
,
0010
0000
0000
0000
,
0100
0000
0000
0000
0100
0000
0000
0000
0100
0000
0000
0000
,
0100
0000
0000
0000
;

//--------------- dance-single - forcednature ----------------
#NOTES:
     dance-single:
     forcednature:
     Easy:
     6:
     0,0,0,0,0:
0000
0000
0000
0000
,
0000
0000
0000
0000
,
0000
0000
0000
0000
,
0000
0000
0000
0000
,
0000
0000
0000
0000
,
0000
0000
0000
0000
,
1001
0000
1000
0001
,
0100
0000
0010
1000
,
0001
0000
0010
0100
,
1000
0001
0100
0000
,
0110
0000
0010
0000
,
1000
1000
1000
0000
,
0100
0000
0010
0000
,
0001
0001
0001
0000
,
0100
0000
0010
1000
,
0001
0000
0010
0000
,
0100
0100
1000
1000
,
0001
0001
0110
0000
,
0001
1000
0002
0003
,
0010
0100
2000
3000
,
1000
0001
2000
3000
,
0010
0100
0002
0003
,
0001
0010
0001
0100
,
0010
1000
0100
0000
,
1100
0000
0101
0000
,
0010
0010
0110
0000
,
0000
2000
3000
0002
,
0003
1000
0000
0110
,
0001
0100
0002
0003
,
1000
0100
2000
3000
,
0001
0010
0002
0003
,
2000
0000
3002
0000
,
0103
0001
2000
3000
,
0100
1000
0002
0003
,
0010
0001
2000
3000
,
0020
0000
0230
0000
,
0301
0000
0101
0000
,
1000
0000
1100
0000
,
0001
0000
0011
0000
,
1000
0000
1010
0000
,
1001
0000
1100
0000
,
0101
0000
1001
0000
,
1000
0010
0100
0001
,
0010
0010
0100
0100
,
2200
3300
0202
0303
,
0010
0100
0220
0330
,
1000
0001
0100
0010
,
1000
0100
0010
0001
,
0100
0010
0100
0001
,
0010
0100
1000
0001
,
0100
0010
1000
0100
,
0010
0001
1000
0010
,
1000
0001
0010
0100
,
1000
0001
1001
0000
,
1000
0010
0100
0010
,
1000
0001
0010
0001
,
0100
0010
1000
0001
,
0010
0100
1000
0001
,
0100
1000
0100
0001
,
0010
1000
0010
0001
,
1001
1000
1001
0001
,
0100
0010
0110
0000
,
2200
3300
0202
0303
,
0010
0000
0010
0000
0010
0000
0010
0000
0000
0000
0000
0000
,
1001
1000
0010
0010
,
1001
0001
0010
0100
,
1001
0000
0000
0000
0110
0000
0000
0000
0110
0000
0000
0000
,
1001
0000
0000
0000
,
1001
0000
0000
0000
0110
0000
0000
0000
0110
0000
0000
0000
,
1001
0000
0000
0000
;

//--------------- dance-single - forcednature ----------------
#NOTES:
     dance-single:
     forcednature:
     Medium:
     10:
     0,0,0,0,0:
0000
0000
0000
0000
,
0000
0000
0000
0000
,
0000
0000
0000
0000
,
0000
0000
0000
0000
,
0000
0000
0000
0000
,
0000
0000
0000
0000
0010
0010
0010
0000
,
1001
0000
0001
0100
0010
0000
0100
0001
,
1000
0000
0100
0010
0001
0000
0100
0010
,
1000
0000
0001
0010
0100
0000
1000
0001
,
0101
0000
0000
1100
0000
0000
0010
0100
0010
0100
0000
0000
,
0001
0000
0001
0000
0001
0010
0100
0000
,
1000
0001
1000
0001
1000
0010
0100
0000
,
0001
0000
0001
0000
0001
0100
0010
0000
,
1000
0001
1000
0001
1000
0100
0010
0000
,
0100
0000
0100
0000
0100
1000
0010
0100
,
0001
0000
0010
0100
1000
0001
0100
0000
,
0010
1010
0100
0101
,
2000
0000
3002
0000
0013
0010
0010
0000
,
0101
0000
0001
0100
0010
1000
0001
0000
,
0010
0100
1000
0100
0010
0001
1000
0000
,
1010
0000
0010
0100
0001
0010
0100
0000
,
0001
0100
1000
0001
0010
0001
0100
0000
,
0110
0000
0010
1000
0100
1000
0010
0001
,
0010
0100
0001
1000
0100
0010
0001
0000
,
0101
0000
0001
1000
1100
0000
1000
0001
,
0011
0000
0000
1010
0000
0000
0100
0010
0100
0010
0000
0000
,
1000
1000
1000
0000
0001
0001
0001
0000
,
1000
0000
1000
0000
0001
0000
0000
0001
0000
0000
0100
0000
0010
0000
0000
0000
,
2001
0000
3001
0100
0010
1000
0001
0000
,
0020
0000
0130
1000
0001
0100
0010
0000
,
2000
0000
3100
1000
0010
0100
0001
0000
,
0020
0000
0230
0000
2300
0000
3001
0100
,
0120
0000
1030
0001
0010
0100
0010
0000
,
0002
0000
0103
0001
1000
0100
0010
0000
,
0200
0000
1300
0010
0100
0001
0010
0000
,
0200
0000
2300
0000
3002
0000
0103
0100
,
0010
0000
0000
1000
0000
0000
0001
0000
0011
0000
0000
0010
0000
0000
0100
0000
,
1000
0000
0000
0000
1000
0000
0100
0000
0010
0000
0000
0000
0001
0000
0000
0100
0000
0000
0010
0000
0000
0010
0000
0000
,
1010
0000
0000
0010
0000
0000
0100
0000
0101
0000
0000
0001
0000
0000
1000
0000
,
0001
0000
0001
0100
0010
0000
1010
0000
0000
MMMM
0000
0000
,
1100
0000
0000
1000
0000
0000
0001
0000
0101
0000
0000
0001
0000
0000
1000
0000
,
1010
0000
0000
1000
0000
0000
0001
0000
0011
0000
0000
0001
0000
0000
1000
0000
,
0010
0100
1000
0100
0010
0100
0001
0010
,
0001
0000
0000
0101
0000
0000
1000
0000
0000
1100
0000
0000
0010
0000
0000
0000
,
2002
3003
0220
0330
,
1100
0000
0101
0000
0010
0100
0110
0000
,
0001
0100
0010
1000
0001
0010
0100
0010
,
0001
1000
0100
1000
0010
0100
0001
1000
,
0100
0010
0001
0100
0010
0100
0001
0010
,
0100
1000
0001
0100
0001
1000
0100
1000
,
0010
0100
1000
0100
0001
0010
0100
0010
,
0001
1000
0010
1000
0001
0010
0100
0001
,
0100
1000
0001
0010
0001
1000
0010
0100
,
0001
0000
0000
1000
0000
0000
0100
0000
0000
0000
0000
0000
0010
0000
0100
0000
0010
0000
0100
0000
0000
0000
0000
0000
,
1000
0001
0010
0001
0100
0010
1000
0001
,
0010
0100
1000
0001
0100
1000
0100
0001
,
1000
0010
0100
0001
0010
1000
0010
0001
,
1000
0010
1000
0100
0001
0100
0010
0001
,
1000
0010
0001
0010
0100
0001
1000
0100
,
0010
1000
0010
0001
0100
1000
0100
0001
,
0010
0100
0001
0100
1000
0010
0001
0010
,
0100
0000
0000
0001
0000
0000
1000
0000
0000
0000
0000
0000
0100
0000
0010
0000
0100
0000
0010
0000
0000
0000
0000
0000
,
0011
0000
1000
1000
1010
0000
0001
0001
,
0100
0000
0010
0000
0100
0000
1001
0000
0000
0000
0000
0000
,
1100
0001
0010
0010
,
0101
0000
1000
0000
0001
0010
0100
1000
,
0110
0000
0000
0000
0011
0000
0000
0000
1010
0000
0000
0000
,
1001
0000
MMMM
0000
,
0110
0000
0000
0000
1010
0000
0000
0000
0011
0000
0000
0000
,
1001
0000
0000
0000
;

//--------------- dance-single - forcednature ----------------
#NOTES:
     dance-single:
     forcednature:
     Hard:
     13:
     0,0,0,0,0:
0000
0000
0000
0000
,
0000
0000
0000
0000
,
0000
0000
0000
0000
,
0000
0000
0000
0000
,
0000
0000
0000
0000
,
0000
0000
0000
0000
0010
0010
0110
0000
,
1001
0000
1000
0100
0010
0100
1000
0001
,
0100
0000
0010
1000
0001
0010
0100
0010
,
0001
0000
0100
0010
1000
0001
0010
0010
,
0100
0000
0000
1000
0000
0000
0001
0000
0000
1000
0000
0000
0010
0000
0100
0000
0010
0000
0100
0000
0000
0000
0000
0000
,
0101
0000
0001
1000
0100
0010
0001
0000
,
1000
0100
1000
0010
0100
0001
0010
0000
,
0100
0000
1000
0001
0100
0010
1000
0000
,
0100
0010
0001
0100
0010
0100
0001
0000
,
1000
0000
0010
0100
0001
1000
0100
0010
,
0001
0000
0100
0010
1000
0001
0010
0100
,
1000
0000
0001
0000
0100
0000
0010
0000
0000
1000
0000
0001
0000
0010
0000
0000
,
0100
0000
1000
0000
0001
0000
0000
0100
0010
0000
0010
0000
0010
0000
0000
0000
,
1000
0100
0000
1000
0100
0000
0010
0000
0001
0000
1000
0000
0010
0000
0000
0000
,
0100
1000
0100
0001
0010
0100
0010
0000
,
0001
0100
0000
0001
0100
0000
0010
0000
1000
0000
0001
0000
0010
0000
0000
0000
,
0100
0001
0100
1000
0010
0100
0010
0000
,
1000
0001
0000
1000
0001
0000
0010
0000
0100
0000
1000
0000
0001
0000
0100
0000
,
0010
1000
0001
0010
0001
0100
0010
0000
,
2010
0000
3100
0000
0012
0000
0103
0001
,
1000
0000
0000
0100
0000
0000
0001
0000
0000
0100
0000
0000
0010
0000
0001
0000
0010
0000
0001
0000
0000
0000
0000
0000
,
1000
1000
0200
0000
1300
1000
0020
0000
,
1030
0000
1000
0000
0100
0010
0000
0100
0010
0000
0001
0000
1001
0000
0000
0000
,
1000
0000
0000
1000
0010
0000
0001
0000
0010
0000
0100
0001
0100
0000
0000
0000
,
0001
0000
0000
0001
0010
0000
1000
0000
0010
0000
0100
1000
0100
0000
0000
0000
,
0010
0000
0000
0010
0001
0000
0100
0000
1000
0000
0100
0010
0100
0000
0000
0000
,
0002
0000
0000
0000
0023
0000
0000
0000
0230
0000
0000
0000
1300
0001
1000
0000
,
0010
0000
0000
0010
0100
0000
1000
0000
0100
0000
0001
1000
0001
0000
0000
0000
,
0010
0000
0000
0010
0100
0000
0001
0000
0100
0000
1000
0001
1000
0000
0000
0000
,
0001
0000
0000
0001
0010
0000
0100
0000
0001
0000
0100
1000
0100
0000
0000
0000
,
0020
0000
0000
0000
0032
0000
0000
0000
2003
0000
0000
0000
3001
0100
0001
0000
,
0010
0000
0000
0010
0000
0100
1000
0000
1100
0000
0000
0001
0000
0000
0100
0000
,
0010
0000
0000
0000
1000
0000
0000
0000
0001
0000
0000
0000
0010
0000
0000
0000
0001
0000
0000
0000
1000
0000
0000
0000
0010
0000
0000
0000
0000
0000
0100
0000
0000
0001
0000
0000
0100
0000
0000
0000
0000
0000
0100
0000
0000
0000
0000
0000
,
0010
0000
0000
0010
0000
0100
0001
0000
0101
0000
0000
1000
0000
0000
0010
0000
,
0100
0001
1000
0100
1000
0001
0010
0000
0000
MMMM
0000
0000
,
1001
0000
0000
0001
0100
0000
0010
0000
1001
0000
0000
1000
0100
0000
0010
0000
,
1100
0000
0000
0001
0010
0000
0001
0000
0101
0000
0000
1000
0010
0000
1000
0000
,
0100
0001
0100
1000
0010
0001
0010
1000
,
0001
0010
0000
0010
0100
0000
0100
1000
0000
1000
0001
0000
0100
0000
0010
0000
,
0202
0303
2200
3300
,
1001
0000
0110
0000
1000
1100
0001
0101
,
1000
0010
0000
0010
0100
0000
0001
0000
0010
0000
0100
1000
0100
0000
0010
0000
,
0001
0000
1000
0010
0000
0100
0001
0000
0010
0000
0100
1000
0100
0000
0010
0000
,
0001
0000
1000
0010
0000
0100
0000
0000
0001
0000
0010
0100
0010
0000
1000
0000
,
0001
0000
0100
0000
1000
0000
0001
0100
0001
0000
0010
0100
0000
1000
0100
0000
,
0110
0000
0010
0001
0010
0000
0100
0000
1000
0001
0000
0100
0001
0000
0010
0000
,
0100
0000
1000
0001
1000
0000
0010
0000
0100
0000
1000
0100
0000
0001
0010
0000
,
0100
0000
1000
0001
1000
0000
0010
0000
0100
0000
0001
1000
0000
0001
0010
0000
,
0100
0000
0000
1000
0000
0000
0010
0000
0000
0001
0000
0000
0010
0000
1000
0000
0010
0000
1000
0000
0000
0000
0000
0000
,
0001
0010
0000
0100
0010
0000
0001
0000
0100
0000
0010
1000
0010
0000
0100
0000
,
0001
0000
1000
0100
0000
0010
0001
0000
0100
0010
0100
0000
0001
0000
0010
0000
,
0100
0000
0001
0100
0000
1000
0000
0000
0001
0000
0100
0010
0100
0000
1000
0000
,
0100
0000
0001
0010
0001
0000
0100
1000
0100
0000
0010
0000
1000
0000
0100
0000
,
1001
0000
0001
0010
0001
0000
0100
0000
1000
0100
0000
0100
0010
0000
1000
0000
,
0100
0000
0010
0001
0010
0000
1000
0000
0010
0000
0001
0100
0000
0010
1000
0000
,
1100
0000
0001
1000
0001
0000
0010
0000
0101
0000
1000
0001
1000
0000
0010
0100
,
0010
0000
0000
0000
0000
0000
1000
0000
0000
0100
0000
0000
0010
0000
0000
0000
0000
0000
0001
0000
0000
0000
0000
0000
0100
0000
0000
0000
0001
0000
0000
0000
0100
0000
0000
0000
0001
0000
0000
0000
0000
0000
0000
0000
0000
0000
0000
0000
,
1100
0001
0010
0010
0101
1000
0010
0100
,
0101
0000
0011
0000
1100
0000
1010
0000
0000
0000
0000
0000
,
2100
0001
0010
3010
,
0102
0000
1000
0000
0013
0100
1000
0001
,
1100
0000
0000
0000
1010
0000
0000
0000
0011
0000
0000
0000
,
0101
0000
MMMM
0000
,
1001
0000
0000
0000
0110
0000
0000
0000
0110
0000
0000
0000
,
1001
0000
0000
0000
;

//--------------- dance-single - forcednature ----------------
#NOTES:
     dance-single:
     forcednature:
     Challenge:
     16:
     0,0,0,0,0:
0000
0000
0000
0000
,
0000
0000
0000
0000
,
0000
0000
0000
0000
,
0000
0000
0000
0000
,
0000
0000
0000
0000
,
0000
0000
0000
0000
0010
0100
0110
0000
,
0001
0000
1000
0010
1000
0000
0100
0000
0010
0000
0001
0100
0010
0000
1000
0000
,
0001
0000
0010
0100
0010
0000
0001
0000
1000
0000
0010
0100
0001
0000
1000
0000
,
0100
0000
0010
0001
0010
0000
0100
0000
1000
0000
0001
0100
0010
0000
1000
0000
,
0100
0000
0000
0000
0000
0000
1000
0000
0000
0010
0000
0000
0001
0000
0000
0000
0000
0000
0010
0000
0000
0000
0000
0000
0100
0000
0000
0000
0001
0000
0000
0000
0010
0000
0000
0000
0001
0000
0000
0000
0000
0000
0000
0000
0000
0000
0000
0000
,
1000
0010
0000
0010
0100
0000
0001
0000
1000
0000
0100
0010
0001
0000
0000
0000
,
1000
0100
0010
0000
0100
1000
0001
0100
0010
0000
1000
0001
0100
0000
0000
0000
,
0001
0010
0000
0010
0100
0000
1000
0000
0001
0000
0100
0010
1000
0000
0000
0000
,
0001
0100
0010
0000
0100
0001
1000
0100
0010
0000
0001
1000
0100
0000
0000
0000
,
0010
0001
0000
0001
0100
0000
0010
0000
1000
0000
0001
0010
0100
0000
1000
0001
,
0100
0010
1000
0000
0001
0010
0100
1000
0010
0000
0100
0001
1000
0001
0010
0100
,
1000
0000
0010
0100
0001
0000
0010
0100
0000
1000
0001
0010
0000
0001
0100
0000
,
0010
1000
0001
0000
0010
0100
0000
1000
0010
0000
0100
0000
0110
0000
0000
0000
,
0001
0100
0000
0001
0010
0000
0100
0000
1000
0000
0001
0100
0010
0000
0000
0000
,
1000
0100
0010
0000
0100
1000
0001
0100
0010
0000
1000
0001
0010
0000
0000
0000
,
0100
1000
0000
0010
1000
0000
0100
0000
0010
0000
0001
1000
0010
0000
0000
0000
,
0100
0001
1000
0000
0100
0010
0001
0100
0010
0000
1000
0001
0010
0000
0000
0000
,
0100
1000
0000
0001
0100
0000
0010
0000
1000
0000
0001
0010
0100
0000
1000
0001
,
0100
0010
1000
0000
0100
0010
0001
1000
0010
0000
0100
0001
1000
0001
0010
0100
,
1000
0010
1000
0100
0010
0001
0100
0001
0010
0100
1000
0001
0100
0010
1000
0001
,
0010
0000
0000
0000
0000
0000
0001
0000
0000
0100
0000
0000
1000
0000
0000
0000
0000
0000
0100
0000
0000
0000
0000
0000
0010
0000
0000
0000
0010
0000
0000
0000
0010
0000
0000
0000
0010
0000
0000
0000
0000
0000
0000
0000
0000
0000
0000
0000
,
1000
1000
1000
0000
0001
0001
0001
0000
,
1000
0000
1000
0000
1000
0001
0000
0001
1000
0000
0010
0000
0110
0000
0000
0000
,
0201
0000
0000
0301
0010
0100
1000
0001
0100
0000
0010
1000
0001
0000
0000
0000
,
0020
0000
0000
0130
1000
0001
0100
0001
1000
0000
0100
0010
0001
0000
0000
0000
,
1020
0000
0000
0130
0001
1000
0001
0010
0100
0000
0010
0001
1000
0000
0000
0000
,
0020
0000
0000
0000
0230
0000
0000
0000
2300
0000
0000
0000
3100
0001
1000
0001
,
0020
0000
0000
0130
1000
0001
0100
0010
1000
0000
0001
0010
0001
0000
0000
0000
,
0200
0000
0000
0301
1000
0100
0010
0001
1000
0000
0010
0100
0010
0000
0000
0000
,
2010
0000
0000
3001
0010
0100
1000
0001
0100
0000
0010
1000
0100
0000
0000
0000
,
0020
0000
0000
0000
0032
0000
0000
0000
0203
0000
0000
0000
0310
1000
0010
1000
,
0100
0000
0000
0010
0000
0001
0100
0000
0110
0000
0000
1010
0000
0000
0001
0000
,
0010
0000
0000
0000
1000
0000
0000
0000
0010
0000
0000
0000
0001
0000
0000
0000
0100
0000
0000
0000
1000
0000
0000
0000
0100
0000
0000
0000
0000
0000
0010
0000
0000
1000
0000
0000
0001
0000
0000
0100
0000
0000
0001
0000
0000
0100
0000
0000
,
0010
0000
0000
0001
0000
0010
1000
0000
1100
0000
0000
0110
0000
0000
0001
0000
,
1000
0100
0001
0100
1000
0010
0110
0000
0000
MMMM
0000
0000
,
1100
0000
0000
0001
1000
0000
0010
0000
0101
0000
0000
1000
0001
0000
0010
0000
,
0110
0000
0000
1000
0001
0000
0100
0000
0110
0000
0000
0001
1000
0000
0100
0000
,
1100
1000
0011
0001
0101
0100
1010
0010
,
1000
0001
0100
0001
1000
0100
0010
0001
1000
0010
1000
0001
0010
0100
0010
0100
,
2000
3000
0202
0303
,
1010
0000
0011
0000
1001
0110
1001
0000
,
1000
0100
0010
0001
1000
0001
0100
0010
1000
0001
0010
0001
1000
0010
0100
0001
,
1000
0100
1000
0010
0100
0001
0010
0100
1000
0100
0010
0001
0100
0010
1000
0001
,
1000
0010
0100
0001
0010
0001
0100
0001
1000
0010
1000
0001
0010
0100
0010
0001
,
1000
0100
0010
0001
0010
0100
1000
0001
0100
0010
1000
0001
0010
0100
0010
0001
,
1000
0010
0100
0001
1000
0100
1000
0010
0100
0001
0010
0001
0100
0010
1000
0001
,
0010
0100
1000
0001
0100
0001
1000
0010
1000
0100
1000
0010
0100
0001
0010
0100
,
0010
0001
1000
0010
0100
0001
1000
0100
0010
0100
1000
0001
0100
0010
0100
0001
,
0010
0000
0000
0100
0000
0000
0010
0000
0000
0001
0000
0000
1000
0000
0000
0000
0000
0000
0010
0000
0000
0000
0000
0000
0100
0000
0000
0000
0001
0000
0000
0000
0100
0000
0000
0000
0101
0000
0000
0000
0000
0000
0000
0000
0000
0000
0000
0000
,
0001
0010
0100
1000
0001
0100
0010
1000
0001
0010
0001
0100
0010
1000
0100
1000
,
0010
0100
0001
1000
0100
0010
0001
0100
0010
1000
0001
0010
0001
0100
1000
0100
,
0010
1000
0001
0010
1000
0010
0001
0100
0010
1000
0001
0010
0001
0100
1000
0100
,
0010
1000
0010
0100
0010
0001
0010
0100
0001
1000
0100
1000
0010
0100
0001
0010
,
0100
0001
0100
1000
0001
0010
0001
0100
0010
0001
0010
1000
0001
0100
0001
0010
,
0100
1000
0001
0100
1000
0100
0010
1000
0001
0010
0100
0001
0100
1000
0001
0010
,
0001
0100
0010
1000
0001
0100
1000
0100
0001
0010
0100
1000
0001
0010
1000
0010
,
0001
0000
0000
0000
0000
0000
1000
0000
0000
0100
0000
0000
0001
0000
0000
0000
0000
0000
0100
0000
0000
0000
0000
0000
0010
0000
0000
0000
0001
0000
0000
0000
0010
0000
0000
0000
0011
0000
0000
0000
0000
0000
0000
0000
0000
0000
0000
0000
,
0101
0000
1000
0000
0010
0000
0010
0000
1100
0000
0001
0000
0010
0100
1000
0001
,
0100
0000
0011
0000
1010
0000
1001
0000
0000
0000
0000
0000
,
2100
0010
0001
3001
,
0102
0000
0010
0000
1003
0001
0100
0010
,
1010
0000
0000
0000
0101
0000
0000
0000
0011
0000
0000
0000
,
1100
0000
MMMM
0000
,
0110
0000
0000
0000
1100
0000
0000
0000
0101
0000
0000
0000
,
1001
0000
0000
0000
;

//--------------- dance-double - forcednature ----------------
#NOTES:
     dance-double:
     forcednature:
     Easy:
     6:
     0,0,0,0,0:
00000000
00000000
00000000
00000000
,
00000000
00000000
00000000
00000000
,
00000000
00000000
00000000
00000000
,
00000000
00000000
00000000
00000000
,
00000000
00000000
00000000
00000000
,
00000000
00000000
00000000
00000000
,
00011000
00000000
01000000
00010000
,
01000000
00000000
00100000
10000000
,
00100000
00000000
10000000
01000000
,
10000000
00010000
00100000
00000000
,
00011000
00000000
00000010
00000000
,
00001000
00001000
00001000
00000000
,
00000100
00000000
00000010
00000000
,
00000001
00000001
00000001
00000000
,
00000100
00000000
00000010
00010000
,
00001000
00000000
00100000
00000000
,
01000000
01000000
10000000
10000000
,
00010000
00010000
01000000
00000000
,
00011000
00000000
00000200
00000300
,
00001000
00000010
00020000
00030000
,
00001000
00100000
00020000
00030000
,
01000000
00001000
00020000
00030000
,
00000100
00001000
00000100
00000010
,
00000001
00001000
00000001
00000000
,
00000101
00000000
00001010
00000000
,
00010000
00010000
00011000
00000000
,
00000000
00002000
00003000
00020000
,
00030000
00001000
00000000
01000000
,
00100000
10000000
00020000
00030000
,
00100000
00001000
00020000
00030000
,
00000010
00001000
00000002
00000003
,
00000020
00000000
00000230
00000000
,
00010300
00001000
02000000
03000000
,
00010000
00100000
02000000
03000000
,
10000000
00010000
00200000
00300000
,
00002000
00000000
00023000
00000000
,
00030010
00000000
00011000
00000000
,
00100000
00000000
00011000
00000000
,
00000100
00000000
00011000
00000000
,
01000000
00000000
00011000
00000000
,
01001000
00000000
00101000
00000000
,
00010100
00000000
00010010
00000000
,
00010000
00001000
00001000
00010000
,
00000010
00001000
00000001
00000010
,
00000220
00000330
00020200
00030300
,
00010000
00001000
02002000
03003000
,
01000000
00010000
00100000
00010000
,
01000000
00001000
00010000
00000100
,
00001000
00000010
00001000
00000100
,
00000010
00000001
00001000
00000010
,
00001000
00000100
00010000
00001000
,
01000000
00010000
00100000
01000000
,
10000000
00010000
00100000
00010000
,
01000000
00001000
00011000
00000000
,
00000100
00001000
00000010
00010000
,
00001000
00100000
00010000
01000000
,
00100000
10000000
00010000
10000000
,
01000000
00010000
00001000
00010000
,
00000100
00001000
00000010
00000100
,
00000001
00000010
00000100
00000010
,
00001001
00000000
00000110
00000000
,
00000100
00010000
00001000
00000000
,
02002000
03003000
00020200
00030300
,
00010000
00000000
00001000
00000000
00010000
00000000
00001000
00000000
00000000
00000000
00000000
00000000
,
00011000
01000000
00001000
00010000
,
00011000
00000100
00010000
00001000
,
00011000
00000000
00000000
00000000
01001000
00000000
00000000
00000000
00101000
00000000
00000000
00000000
,
00011000
00000000
00000000
00000000
,
00011000
00000000
00000000
00000000
00010100
00000000
00000000
00000000
00010010
00000000
00000000
00000000
,
00011000
00000000
00000000
00000000
;

//--------------- dance-double - forcednature ----------------
#NOTES:
     dance-double:
     forcednature:
     Medium:
     10:
     0,0,0,0,0:
00000000
00000000
00000000
00000000
,
00000000
00000000
00000000
00000000
,
00000000
00000000
00000000
00000000
,
00000000
00000000
00000000
00000000
,
00000000
00000000
00000000
00000000
,
00000000
00000000
00000000
00000000
00001000
00001000
00010000
00000000
,
00011000
00000000
01000000
00010000
00100000
00000000
01000000
10000000
,
00100000
00000000
01000000
00001000
00010000
00000000
00000100
00010000
,
00001000
00000000
00000100
00000001
00000010
00000000
00000100
00010000
,
00011000
00000000
00000000
01001000
00000000
00000000
10000000
00010000
10000000
00010000
00000000
00000000
,
00100000
00000000
00100000
00000000
00100000
01000000
00010000
00000000
,
00001000
00000010
00000100
00000010
00000001
00001000
00000010
00000000
,
00010000
00000000
00010000
00000000
00001000
01000000
00010000
00000000
,
00100000
01000000
10000000
01000000
00010000
00001000
00010000
00000000
,
00000010
00000000
00000010
00000000
00000100
00001000
00000100
00000001
,
00000010
00000000
00000100
00010000
00001000
00010000
00100000
00000000
,
10000000
11000000
01000000
01010000
,
00020000
00000000
00032000
00000000
00003010
00000010
00000010
00000000
,
00000110
00000000
00000100
00001000
00000001
00000100
00000010
00000000
,
00000100
00001000
00010000
00100000
00010000
00001000
00000100
00000000
,
00000110
00000000
00000010
00010000
00001000
00100000
01000000
00000000
,
00100000
00010000
01000000
10000000
01000000
00010000
00100000
00000000
,
00011000
00000000
00000100
00001000
00000010
00000001
00000010
00001000
,
00000100
00000010
00001000
00010000
01000000
00100000
00010000
00000000
,
01010000
00000000
00010000
10000000
11000000
00000000
10000000
00010000
,
00110000
00000000
00000000
00011000
00000000
00000000
00000100
00001000
00000100
00001000
00000000
00000000
,
00000010
00000010
00000010
00000000
00010000
00010000
00010000
00000000
,
00001000
00000000
00001000
00000000
00100000
00000000
00000000
00100000
00000000
00000000
01000000
00000000
01000000
00000000
00000000
00000000
,
20010000
00000000
30010000
01000000
00100000
00010000
00001000
00000000
,
00200000
00000000
01300000
00010000
00001000
00000100
00000010
00000000
,
00002000
00000000
00003001
00000010
00001000
00000010
00000100
00000000
,
00020000
00000000
00032000
00000000
02003000
00000000
03010000
00100000
,
02100000
00000000
13000000
00010000
01000000
00001000
00010000
00000000
,
00000200
00000000
00001300
00000010
00000001
00000010
00000100
00000000
,
00000002
00000000
00000013
00000100
00010000
00001000
00100000
00000000
,
02000000
00000000
23000000
00000000
30020000
00000000
01030000
01000000
,
00001000
00000000
00000000
00010000
00000000
00000000
00000100
00000000
00001100
00000000
00000000
00001000
00000000
00000000
00000010
00000000
,
00010000
00000000
00000000
00000000
00010000
00000000
00001000
00000000
00100000
00000000
00000000
00000000
00010000
00000000
00000000
01000000
00000000
00000000
00100000
00000000
00000000
00100000
00000000
00000000
,
10100000
00000000
00000000
10000000
00000000
00000000
01000000
00000000
01100000
00000000
00000000
00100000
00000000
00000000
00001000
00000000
,
00010000
00000000
00010000
00000010
00001000
00000000
00001001
00000000
00000000
MMMMMMMM
00000000
00000000
,
00000001
00000000
00000000
00000100
00000000
00000000
00001000
00000000
00010000
00000000
00000000
01000000
00000000
00000000
10000000
00000000
,
10000000
00000000
00000000
00100000
00000000
00000000
00010000
00000000
00001000
00000000
00000000
00000010
00000000
00000000
00000001
00000000
,
00000100
00000010
00000100
00001000
00010000
01000000
00100000
01000000
,
10000000
00000000
00000000
00100000
00000000
00000000
00010000
00000000
00000000
00001000
00000000
00000000
00000010
00000000
00000000
00000000
,
00000220
00000330
00022000
00033000
,
01100000
00000000
10010000
00000000
10000000
01000000
00100000
00010000
,
01000000
00100000
10000000
00010000
00100000
00001000
00010000
00000010
,
00001000
00000100
00000010
00000100
00001000
00000001
00000100
00000001
,
00000010
00000100
00001000
00000010
00010000
00001000
00100000
00010000
,
01000000
00100000
10000000
00010000
01000000
00001000
00010000
00000100
,
00001000
00000010
00000100
00000001
00000010
00000100
00000010
00000001
,
00000100
00000010
00001000
00000100
00010000
00001000
01000000
00010000
,
00100000
01000000
10000000
01000000
00100000
00001000
00010000
00000010
,
00001000
00000000
00000000
00000100
00000000
00000000
00000010
00000000
00000000
00000000
00000000
00000000
00000001
00000000
00001000
00000000
00000001
00000000
00001000
00000000
00000000
00000000
00000000
00000000
,
00000010
00010000
00001000
00100000
00010000
01000000
00100000
10000000
,
01000000
10000000
00100000
01000000
00100000
00010000
00001000
00100000
,
01000000
00100000
00001000
00010000
00000010
00000100
00001000
00000100
,
00000001
00000010
00000100
00000001
00000100
00001000
00000010
00010000
,
00001000
00100000
00010000
01000000
10000000
01000000
00100000
10000000
,
01000000
00010000
00001000
00000010
00000100
00010000
00001000
00000100
,
00000010
00001000
00010000
01000000
00100000
00010000
00100000
10000000
,
01000000
00000000
00000000
00010000
00000000
00000000
00001000
00000000
00000000
00000000
00000000
00000000
00000010
00000000
00000100
00000000
00000010
00000000
00000100
00000000
00000000
00000000
00000000
00000000
,
00000110
00000000
00000001
00000100
00001000
00000000
00010000
01000000
,
10000000
00000000
00010000
00000000
10000000
00000000
10010000
00000000
00000000
00000000
00000000
00000000
,
11000000
01000000
00010000
00010000
,
00011000
00000000
00001000
00000000
00000100
00000001
00000010
00000001
,
00000101
00000000
00000000
00000000
00001100
00000000
00000000
00000000
00011000
00000000
00000000
00000000
,
00110000
00000000
MMMMMMMM
00000000
,
11000000
00000000
00000000
00000000
01010000
00000000
00000000
00000000
00011000
00000000
00000000
00000000
,
00001010
00000000
00000000
00000000
;

//--------------- dance-double - forcednature ----------------
#NOTES:
     dance-double:
     forcednature:
     Hard:
     13:
     0,0,0,0,0:
00000000
00000000
00000000
00000000
,
00000000
00000000
00000000
00000000
,
00000000
00000000
00000000
00000000
,
00000000
00000000
00000000
00000000
,
00000000
00000000
00000000
00000000
,
00000000
00000000
00000000
00000000
00010000
00001000
00011000
00000000
,
01001000
00000000
01000000
00010000
00100000
00010000
01000000
00100000
,
10000000
00000000
01000000
00010000
00001000
00010000
00000010
00001000
,
00000001
00000000
00000010
00000100
00010000
00000100
00001000
00001000
,
00000010
00000000
00000000
00001000
00000000
00000000
00010000
00000000
00000000
01000000
00000000
00000000
00100000
00000000
10000000
00000000
00100000
00000000
10000000
00000000
00000000
00000000
00000000
00000000
,
11000000
00000000
01000000
00010000
00001000
00000010
00000100
00000000
,
00001000
00000010
00000001
00000010
00000100
00001000
00010000
00000000
,
01000000
00000000
00100000
00001000
00010000
00100000
00010000
00000000
,
00001000
01000000
00010000
00100000
01000000
10000000
00100000
00000000
,
10000000
00000000
01000000
00010000
00001000
00000100
00000001
00000010
,
00000100
00000000
00001000
00000010
00000001
00000010
00000100
00001000
,
00010000
00000000
01000000
00000000
00100000
00000000
00010000
00000000
00000000
01000000
00000000
00100000
00000000
00010000
00000000
00000000
,
00001000
00000000
00000010
00000000
00000001
00000000
00000000
00000001
00000100
00000000
00000100
00000000
00000100
00000000
00000000
00000000
,
00001000
00010000
00000000
00001000
01000000
00000000
00010000
00000000
00100000
00000000
01000000
00000000
10000000
00000000
00000000
00000000
,
00100000
01000000
00100000
00010000
00001000
00000010
00000100
00000000
,
00010000
00001000
00000000
00010000
00000100
00000000
00001000
00000000
00000010
00000000
00000100
00000000
00000001
00000000
00000000
00000000
,
00000010
00000100
00000010
00001000
00010000
00100000
01000000
00000000
,
00010000
10000000
00000000
00010000
00100000
00000000
01000000
00000000
00010000
00000000
00001000
00000000
00000010
00000000
00000100
00000000
,
00001000
00000010
00000001
00000010
00000100
00000001
00001000
00000000
,
00020010
00000000
00030100
00000000
00102000
00000000
01003000
00001000
,
00010000
00000000
00000000
00100000
00000000
00000000
01000000
00000000
00000000
00100000
00000000
00000000
10000000
00000000
00010000
00000000
10000000
00000000
00010000
00000000
00000000
00000000
00000000
00000000
,
10000000
10000000
01000000
00010000
00001000
00001000
00000100
00000001
,
00000010
00000000
00000010
00000000
00000100
00010000
00000000
00001000
00010000
00000000
00100000
00000000
01100000
00000000
00000000
00000000
,
01000000
00000000
00000000
01000000
00010000
00000000
00100000
00000000
01000000
00000000
00010000
00001000
00010000
00000000
00000000
00000000
,
00000100
00000000
00000000
00000100
00001000
00000000
00000010
00000000
00000100
00000000
00001000
00010000
00001000
00000000
00000000
00000000
,
00100000
00000000
00000000
00100000
00010000
00000000
01000000
00000000
00100000
00000000
00010000
00001000
00010000
00000000
00000000
00000000
,
00000020
00000000
00002030
00000000
00023000
00000000
01030000
00100000
,
10000000
00000000
00000000
10000000
01000000
00000000
00010000
00000000
00001000
00000000
00000010
00000100
00000010
00000000
00000000
00000000
,
00000001
00000000
00000000
00000001
00000100
00000000
00001000
00000000
00010000
00000000
00100000
01000000
00100000
00000000
00000000
00000000
,
10000000
00000000
00000000
10000000
01000000
00000000
00010000
00000000
00001000
00000000
00100000
00010000
00100000
00000000
00000000
00000000
,
02000000
00000000
03020000
00000000
00032000
00000000
00003010
00000100
,
00001000
00000000
00000000
00001000
00000000
00000001
00000100
00000000
00000110
00000000
00000000
00000010
00000000
00000000
00010000
00000000
,
00001000
00000000
00000000
00000000
00100000
00000000
00000000
00000000
00010000
00000000
00000000
00000000
01000000
00000000
00000000
00000000
00010000
00000000
00000000
00000000
00100000
00000000
00000000
00000000
00001000
00000000
00000000
00000000
00000000
00000000
00010000
00000000
00000000
00000010
00000000
00000000
00010000
00000000
00000000
00000000
00000000
00000000
00010000
00000000
00000000
00000000
00000000
00000000
,
00001000
00000000
00000000
00100000
00000000
01000000
10000000
00000000
10100000
00000000
00000000
00100000
00000000
00000000
01000000
00000000
,
00010000
00100000
00001000
00010000
00000010
00001000
00000100
00000000
00000000
MMMMMMMM
00000000
00000000
,
00000110
00000000
00000000
00000010
00000001
00000000
00000100
00000000
00000110
00000000
00000000
00000010
00010000
00000000
00001000
00000000
,
00011000
00000000
00000000
00010000
01000000
00000000
00100000
00000000
01100000
00000000
00000000
01000000
10000000
00000000
00100000
00000000
,
10000000
01000000
00100000
00010000
00001000
00000100
00000010
00000001
,
00000100
00000001
00000000
00000001
00001000
00000000
00001000
00000100
00000000
00000100
00010000
00000000
00001000
00000000
01000000
00000000
,
02020000
03030000
00202000
00303000
,
00010010
00000000
00001100
00000000
00001000
00000100
00010000
01000000
,
00100000
00010000
00000000
00010000
01000000
00000000
00100000
00000000
10000000
00000000
00010000
00100000
00010000
00000000
01000000
00000000
,
00001000
00000000
00010000
00000100
00000000
00001000
00000100
00000000
00000010
00000000
00000001
00001000
00000001
00000000
00000100
00000000
,
00000010
00000000
00001000
00000100
00000000
00010000
00000000
00000000
00001000
00000000
01000000
00010000
01000000
00000000
00100000
00000000
,
10000000
00000000
01000000
00000000
00010000
00000000
00001000
00100000
00001000
00000000
00010000
00000010
00000000
00001000
00000100
00000000
,
00000110
00000000
00000010
00000001
00000010
00000000
00000100
00000000
00010000
00001000
00000000
01000000
00010000
00000000
00100000
00000000
,
01000000
00000000
10000000
00100000
10000000
00000000
01000000
00000000
00010000
00000000
00001000
00100000
00000000
00010000
01000000
00000000
,
00100000
00000000
00010000
00001000
00010000
00000000
00000100
00000000
00001000
00000000
00000010
00000100
00000000
00000001
00000010
00000000
,
00000100
00000000
00000000
00010000
00000000
00000000
00001000
00000000
00000000
01000000
00000000
00000000
00010000
00000000
10000000
00000000
00010000
00000000
10000000
00000000
00000000
00000000
00000000
00000000
,
01000000
00010000
00000000
00001000
00010000
00000000
00000010
00000000
00000100
00000000
00000001
00000010
00000001
00000000
00000100
00000000
,
00001000
00000000
00010000
00100000
00000000
01000000
00100000
00000000
10000000
00010000
10000000
00000000
01000000
00000000
00010000
00000000
,
00001000
00000000
00100000
00010000
00000000
00001000
00000000
00000000
00000100
00000000
00001000
00000010
00001000
00000000
00000100
00000000
,
00000001
00000000
00000100
00000010
00000100
00000000
00001000
00000100
00001000
00000000
00000010
00000000
00010000
00000000
00001000
00000000
,
00011000
00000000
00100000
00010000
00100000
00000000
01000000
00000000
00010000
01000000
00000000
01000000
10000000
00000000
00100000
00000000
,
01000000
00000000
00001000
00010000
00001000
00000000
00000010
00000000
00000100
00000000
00001000
00000010
00000000
00000001
00000010
00000000
,
00000110
00000000
00000100
00001000
00010000
00000000
01000000
00000000
01100000
00000000
00100000
00010000
01000000
00000000
00100000
10000000
,
00100000
00000000
00000000
00000000
00000000
00000000
01000000
00000000
00000000
00001000
00000000
00000000
00010000
00000000
00000000
00000000
00000000
00000000
00000100
00000000
00000000
00000000
00000000
00000000
00001000
00000000
00000000
00000000
00000010
00000000
00000000
00000000
00001000
00000000
00000000
00000000
00000010
00000000
00000000
00000000
00000000
00000000
00000000
00000000
00000000
00000000
00000000
00000000
,
00000101
00000100
00001000
00010000
01010000
01000000
10000000
00100000
,
10100000
00000000
11000000
00000000
01010000
00000000
00011000
00000000
00000000
00000000
00000000
00000000
,
00020100
00001000
00100000
00130000
,
01002000
00000000
00010000
00000000
00003010
00001000
00010000
00000100
,
00001100
00000000
00000000
00000000
00010010
00000000
00000000
00000000
00101000
00000000
00000000
00000000
,
01010000
00000000
MMMMMMMM
00000000
,
01100000
00000000
00000000
00000000
00011000
00000000
00000000
00000000
00000110
00000000
00000000
00000000
,
00011000
00000000
00000000
00000000
;

//--------------- dance-double - forcednature ----------------
#NOTES:
     dance-double:
     forcednature:
     Challenge:
     16:
     0,0,0,0,0:
00000000
00000000
00000000
00000000
,
00000000
00000000
00000000
00000000
,
00000000
00000000
00000000
00000000
,
00000000
00000000
00000000
00000000
,
00000000
00000000
00000000
00000000
,
00000000
00000000
00000000
00000000
00001000
00010000
00011000
00000000
,
01000000
00000000
00010000
10000000
00010000
00000000
00100000
00000000
01000000
00000000
00010000
00001000
00100000
00000000
00010000
00000000
,
01000000
00000000
00001000
00010000
00001000
00000000
00000010
00000000
00000100
00000000
00001000
00000001
00000100
00000000
00000010
00000000
,
00001000
00000000
00010000
01000000
00010000
00000000
00100000
00000000
01000000
00000000
10000000
00010000
00100000
00000000
01000000
00000000
,
00010000
00000000
00000000
00000000
00000000
00000000
00001000
00000000
00000000
00000010
00000000
00000000
00000100
00000000
00000000
00000000
00000000
00000000
00001000
00000000
00000000
00000000
00000000
00000000
00000001
00000000
00000000
00000000
00000100
00000000
00000000
00000000
00000010
00000000
00000000
00000000
00001000
00000000
00000000
00000000
00000000
00000000
00000000
00000000
00000000
00000000
00000000
00000000
,
00000100
00010000
00000000
00010000
00001000
00000000
01000000
00000000
00010000
00000000
00100000
01000000
10000000
00000000
00000000
00000000
,
01000000
00010000
00001000
00000000
00100000
00010000
00100000
00001000
00010000
00000000
00000010
00001000
00000001
00000000
00000000
00000000
,
00000010
00000100
00000000
00000100
00010000
00000000
00001000
00000000
00000100
00000000
00000001
00001000
00000010
00000000
00000000
00000000
,
00000100
00001000
00010000
00000000
00001000
00010000
00001000
00100000
00010000
00000000
10000000
00010000
00100000
00000000
00000000
00000000
,
01000000
00010000
00000000
00010000
00001000
00000000
00100000
00000000
00010000
00000000
01000000
00001000
00010000
00000000
00000100
00001000
,
00000100
00000010
00000001
00000000
00000100
00000010
00001000
00000010
00010000
00000000
00001000
00100000
00010000
00100000
01000000
10000000
,
00010000
00000000
01000000
00001000
00010000
00000000
00000100
00001000
00000000
00000001
00000100
00000010
00000000
00010000
00001000
00000000
,
00100000
00010000
01000000
00000000
00100000
10000000
00000000
10000000
01000000
00000000
00010000
00000000
00011000
00000000
00000000
00000000
,
00000100
00001000
00000000
00000010
00001000
00000000
00000100
00000000
00000010
00000000
00000001
00001000
00000010
00000000
00000000
00000000
,
00010000
00001000
00100000
00000000
01000000
10000000
01000000
00100000
00010000
00000000
01000000
00001000
00010000
00000000
00000000
00000000
,
00000100
00001000
00000000
00000010
00001000
00000000
00000100
00000000
00000001
00000000
00000100
00000010
00000001
00000000
00000000
00000000
,
00001000
00000010
00010000
00000000
00001000
00100000
00010000
00100000
01000000
00000000
10000000
00010000
01000000
00000000
00000000
00000000
,
00100000
10000000
00000000
01000000
10000000
00000000
00100000
00000000
00010000
00000000
00001000
00100000
00010000
00000000
01000000
00001000
,
00010000
00000010
00001000
00000000
00000100
00001000
00000100
00000010
00000001
00000000
00000100
00000010
00001000
00000010
00010000
00001000
,
00100000
00010000
00100000
01000000
10000000
01000000
00010000
00001000
00100000
00010000
01000000
00001000
00010000
00000100
00001000
00000010
,
00000100
00000000
00000000
00000000
00000000
00000000
00000001
00000000
00000000
00000010
00000000
00000000
00001000
00000000
00000000
00000000
00000000
00000000
00010000
00000000
00000000
00000000
00000000
00000000
00000100
00000000
00000000
00000000
00001000
00000000
00000000
00000000
00000100
00000000
00000000
00000000
00001000
00000000
00000000
00000000
00000000
00000000
00000000
00000000
00000000
00000000
00000000
00000000
,
00000001
00000100
00001000
00000000
00010000
01000000
10000000
00000000
,
10000000
00000000
00100000
00000000
00010000
00001000
00000000
00001000
00000010
00000000
00000100
00000000
00000110
00000000
00000000
00000000
,
00000012
00000000
00000000
00000103
00000001
00001000
00000001
00000010
00000100
00000000
00010000
00001000
00100000
00000000
00000000
00000000
,
02000000
00000000
00000000
13000000
00010000
01000000
00010000
00100000
00001000
00000000
00010000
00000010
00001000
00000000
00000000
00000000
,
00001200
00000000
00000000
00000310
00000100
00001000
00000001
00001000
00000010
00000000
00010000
00001000
00100000
00000000
00000000
00000000
,
02000000
00000000
00000000
00000000
03020000
00000000
00000000
00000000
00032000
00000000
00000000
00000000
00003010
00000100
00001000
00000100
,
00020000
00000000
00000000
00030010
00010000
00001000
01000000
00010000
01000000
00000000
00100000
10000000
00010000
00000000
00000000
00000000
,
00200000
00000000
00000000
00310000
01000000
00001000
00010000
00000010
00010000
00000000
00000100
00001000
00000100
00000000
00000000
00000000
,
00000012
00000000
00000000
00000103
00000001
00001000
00000010
00010000
00001000
00000000
00000010
00000100
00001000
00000000
00000000
00000000
,
00000020
00000000
00000000
00000000
00000000
00000000
00000000
00000000
00020030
00000000
00000000
00000000
00000000
00000000
00000000
00000000
00230000
00000000
00000000
00000000
00000000
00000000
00000000
00000000
01300000
00010000
00000000
00000000
01000000
00010000
00000000
00000000
,
00100000
00000000
00000000
01000000
00000000
00010000
00001000
00000000
00011000
00000000
00000000
00000100
00000000
00000000
00001000
00000000
,
00000010
00000000
00000000
00000000
00000100
00000000
00000000
00000000
00001000
00000000
00000000
00000000
00010000
00000000
00000000
00000000
00100000
00000000
00000000
00000000
01000000
00000000
00000000
00000000
00010000
00000000
00000000
00000000
00000000
00000000
10000000
00000000
00000000
01000000
00000000
00000000
00100000
00000000
00000000
00010000
00000000
00000000
00100000
00000000
00000000
00010000
00000000
00000000
,
01000000
00000000
00000000
00001000
00000000
00010000
00000100
00000000
00000110
00000000
00000000
00000010
00000000
00000000
00000001
00000000
,
00000100
00001000
00010000
00100000
00010000
00001000
00011000
00000000
00000000
MMMMMMMM
00000000
00000000
,
01001000
00000000
00000000
00001000
00010000
00000000
00000100
00000000
00010100
00000000
00000000
00010000
00001000
00000000
00100000
00000000
,
00110000
00000000
00000000
00100000
00001000
00000000
00000100
00000000
00001010
00000000
00000000
00000010
00010000
00000000
01000000
00000000
,
10000000
00100000
01000000
00010000
00001000
00000010
00000100
00000001
,
00000010
00000100
00001000
00000100
00010000
00001000
01000000
00010000
01000000
00100000
10000000
00010000
00100000
00001000
00010000
00000010
,
00020000
00030000
02002000
03003000
,
00010010
00000000
00101000
00000000
00001000
00010000
00100000
01000000
,
00010000
10000000
00010000
00100000
01000000
10000000
01000000
00100000
00010000
00100000
00001000
00010000
00000010
00001000
00000010
00000100
,
00000001
00000010
00000100
00000010
00000001
00001000
00000010
00001000
00000100
00010000
00001000
00100000
00010000
00100000
00001000
00010000
,
00001000
01000000
00010000
01000000
00100000
10000000
00010000
00100000
01000000
00100000
00010000
00100000
00001000
00010000
00000010
00010000
,
00000100
00001000
00000100
00000010
00000001
00001000
00000010
00001000
00000100
00000010
00000100
00001000
00000010
00010000
00001000
00100000
,
00010000
01000000
00010000
10000000
01000000
00100000
00010000
01000000
00001000
00010000
00000100
00001000
00000100
00000010
00000001
00001000
,
00000010
00010000
00001000
00100000
00010000
00100000
01000000
10000000
00010000
01000000
00010000
00100000
00001000
00010000
00000010
00001000
,
00000010
00000100
00000001
00000010
00000100
00000010
00001000
00010000
00001000
01000000
00010000
01000000
00100000
10000000
00010000
00100000
,
01000000
00000000
00000000
00100000
00000000
00000000
00010000
00000000
00000000
00100000
00000000
00000000
00001000
00000000
00000000
00000000
00000000
00000000
00010000
00000000
00000000
00000000
00000000
00000000
00000010
00000000
00000000
00000000
00000100
00000000
00000000
00000000
00001000
00000000
00000000
00000000
00000100
00000000
00000000
00000000
00000000
00000000
00000000
00000000
00000000
00000000
00000000
00000000
,
00000010
00001000
00000010
00010000
00001000
00100000
00010000
00100000
01000000
10000000
01000000
00010000
00001000
00010000
00000010
00001000
,
00000100
00000010
00000001
00000100
00000010
00001000
00000100
00000010
00000100
00010000
00001000
00100000
01000000
00010000
01000000
10000000
,
00100000
10000000
00010000
01000000
00001000
00010000
00100000
00010000
00001000
00010000
00000100
00001000
00000010
00000100
00001000
00000100
,
00000001
00000010
00000100
00001000
00010000
00100000
01000000
00010000
01000000
10000000
00010000
10000000
00100000
01000000
00010000
00100000
,
01000000
00010000
00001000
00010000
00000100
00001000
00000010
00001000
00000100
00000001
00000100
00000010
00000001
00001000
00000010
00010000
,
00001000
00010000
00100000
01000000
00100000
00010000
00001000
00100000
00010000
01000000
00100000
00010000
00100000
10000000
01000000
00100000
,
00010000
01000000
00001000
00010000
00000100
00000010
00001000
00000010
00000001
00000100
00000010
00010000
00001000
00100000
01000000
00010000
,
01000000
00000000
00000000
00000000
00000000
00000000
10000000
00000000
00000000
00100000
00000000
00000000
00010000
00000000
00000000
00000000
00000000
00000000
00001000
00000000
00000000
00000000
00000000
00000000
00000100
00000000
00000000
00000000
00000100
00000000
00000000
00000000
00000100
00000000
00000000
00000000
00000001
00000000
00000000
00000000
00000000
00000000
00000000
00000000
00000000
00000000
00000000
00000000
,
00000001
00000000
00000010
00000000
00001000
00000000
00001000
00000000
00010000
00000000
00100000
00000000
01000000
00010000
10000000
00010000
,
00100000
00000000
01100000
00000000
01010000
00000000
00011000
00000000
00000000
00000000
00000000
00000000
,
00020100
00001000
00100000
00130000
,
01002000
00000000
00010000
00000000
00003010
00001000
00010000
00100000
,
10100000
00000000
00000000
00000000
01010000
00000000
00000000
00000000
00001010
00000000
00000000
00000000
,
00000101
00000000
MMMMMMMM
00000000
,
00000011
00000000
00000000
00000000
00001100
00000000
00000000
00000000
00110000
00000000
00000000
00000000
,
11000000
00000000
00000000
00000000
;
