#TITLE:名悪役;
#SUBTITLE:;
#ARTIST:フレデリック;
#TITLETRANSLIT:THE GREAT VILLAIN;
#SUBTITLETRANSLIT:;
#ARTISTTRANSLIT:frederic;
#GENRE:;
#CREDIT:;
#BANNER:THE GREAT VILLAIN.png;
#BACKGROUND:THE GREAT VILLIAN-bg.png;
#LYRICSPATH:;
#CDTITLE:;
#MUSIC:THE GREAT VILLAIN.ogg;
#OFFSET:1.397000;
#SAMPLESTART:44.422001;
#SAMPLELENGTH:12.000000;
#LASTBEATHINT:1.422667;
#SELECTABLE:YES;
#BPMS:0.000000=220.000000
;
#STOPS:
;
#BGCHANGES:8.000=THE GREAT VILLAIN.avi=1.000=0=0=1=====,
99999=-nosongbg-=1.000=0=0=0 // don't automatically add -songbackground-
;
#KEYSOUNDS:;
#ATTACKS:;

//---------------dance-single - ----------------
#NOTES:
     dance-single:
     :
     Hard:
     13:
     0.661784,0.773162,0.186083,0.861858,0.029382,473.000000,454.000000,19.000000,88.000000,0.000000,0.000000,0.661784,0.773162,0.186083,0.861858,0.029382,473.000000,454.000000,19.000000,88.000000,0.000000,0.000000:
// measure 0
0000
0000
0000
0000
,  // measure 1
0000
0000
0000
0000
,  // measure 2
0000
0000
0000
0000
,  // measure 3
0000
0000
0000
0000
,  // measure 4
0000
0000
0000
0000
,  // measure 5
0000
0000
0000
0000
,  // measure 6
0000
0000
0000
0000
,  // measure 7
0000
0000
0000
0000
,  // measure 8
0000
0000
0000
0000
,  // measure 9
0000
0000
0000
0000
0001
1000
0001
0000
,  // measure 10
1000
0100
0010
0100
1000
0000
0001
0100
,  // measure 11
0010
0100
0001
0010
0100
1000
0010
0100
,  // measure 12
0002
0023
2333
3002
,  // measure 13
0203
0000
0000
1330
0010
1000
0020
0000
0000
0130
0000
0000
,  // measure 14
0001
0100
0010
0100
0001
0000
1000
0100
,  // measure 15
0010
0100
1000
0000
0001
0010
1000
0010
,  // measure 16
0001
0100
0001
0100
0010
1000
0010
1000
,  // measure 17
0001
0100
0010
1000
0100
0010
0001
0000
,  // measure 18
1000
0100
1000
0001
0000
0001
0100
0000
,  // measure 19
0102
0000
1003
0000
0001
0010
0100
0010
,  // measure 20
2000
0000
3010
0001
0200
0000
3320
0000
,  // measure 21
2030
0000
3301
0000
1000
0100
0010
0000
,  // measure 22
0001
0000
0101
0000
0110
0000
1000
0020
,  // measure 23
0000
0230
0000
0301
0010
0100
2000
0000
,  // measure 24
3020
0000
0130
0001
2000
0000
3002
0000
,  // measure 25
0203
0000
0310
0000
1000
0001
1000
0000
,  // measure 26
0001
0100
0001
1000
0000
0001
0010
0100
,  // measure 27
2000
0000
3001
0000
1000
0100
0010
0100
,  // measure 28
0002
0000
0103
1000
0020
0000
0230
0000
,  // measure 29
0302
0000
1003
0000
0001
1000
0010
0000
,  // measure 30
1000
0000
1010
0000
0101
0000
0001
0010
,  // measure 31
0200
0000
2300
0000
3001
0010
1000
0010
,  // measure 32
0002
0203
2330
3200
,  // measure 33
3301
0000
1000
0000
0001
1000
0001
0000
,  // measure 34
2000
3100
2002
3303
,  // measure 35
0000
0000
0002
0000
0000
0203
0000
0000
,  // measure 36
0310
0000
1000
0000
0001
0000
1000
0100
,  // measure 37
0000
0100
0010
0000
0001
1000
0000
0000
,  // measure 38
0002
0013
2002
3033
,  // measure 39
0000
0000
2000
0000
0000
3020
0000
0000
,  // measure 40
0130
0001
1000
0001
1000
0000
0001
0010
,  // measure 41
0000
0110
0000
1001
0000
1000
0001
0000
,  // measure 42
1000
0100
0010
0100
0001
0100
0020
0000
,  // measure 43
0031
0100
0010
0100
1000
0100
0020
0000
,  // measure 44
1030
0000
0001
0000
1000
0100
0010
0001
,  // measure 45
0200
0320
2030
3001
,  // measure 46
1000
1010
0001
0011
,  // measure 47
1000
0100
0010
0000
0001
0100
0010
0000
,  // measure 48
1000
0000
1000
0000
0001
0010
0000
0200
,  // measure 49
0000
2300
0000
3010
0100
0000
0001
1000
,  // measure 50
0001
0010
0100
0010
1000
0010
0200
0000
,  // measure 51
1300
0010
0100
0010
0001
0010
0200
0000
,  // measure 52
0301
0000
1000
0000
0001
0010
0100
1000
,  // measure 53
0020
0000
0230
0000
0302
0000
1003
0100
,  // measure 54
1000
0001
0100
0010
0000
1000
0010
1000
,  // measure 55
0000
0001
0010
0001
0000
1000
0010
0000
,  // measure 56
2000
0000
3100
0010
0002
0000
0103
0010
,  // measure 57
2000
3001
0100
0010
,  // measure 58
2001
3200
0332
2003
,  // measure 59
3020
0000
0331
1000
0001
0000
1000
0010
,  // measure 60
0001
0000
0001
0010
1000
0000
0001
0000
,  // measure 61
1001
0000
1000
0100
0010
0001
0100
0010
,  // measure 62
1000
0000
0001
0000
2020
0000
0000
3030
,  // measure 63
3030
0000
0001
0000
,  // measure 64
1000
0001
0010
0100
,  // measure 65
1000
1000
0010
0100
,  // measure 66
0001
0000
1000
0000
0202
0000
0000
0303
,  // measure 67
0303
0000
0000
0000
1000
0001
0000
0000
,  // measure 68
2000
3100
0020
0031
,  // measure 69
2002
0000
3003
0000
0001
1000
0001
0000
,  // measure 70
1000
0100
0010
0100
1000
0000
0001
0100
,  // measure 71
0010
0100
0001
0010
1000
0010
0001
0100
,  // measure 72
0020
0032
2303
3203
,  // measure 73
3310
0000
0000
1330
0010
1000
0020
0000
0000
0130
0000
0000
,  // measure 74
0001
0010
0100
0010
0001
0000
1000
0010
,  // measure 75
0100
0010
1000
0000
0001
0100
1000
0100
,  // measure 76
0001
0010
0001
0010
0100
1000
0100
1000
,  // measure 77
0001
1000
0010
0100
0001
1000
0100
0000
,  // measure 78
1000
0100
0001
0100
1000
0000
0001
0100
,  // measure 79
1000
0100
0001
0010
0100
1000
0010
0001
,  // measure 80
0020
2030
3002
0023
,  // measure 81
0130
0000
0000
1300
0100
1000
0200
0000
0000
0310
0000
0000
,  // measure 82
0001
0100
1000
0100
0001
0000
1000
0100
,  // measure 83
0001
0100
1000
0000
0001
0010
1000
0010
,  // measure 84
0001
1000
0010
0100
0010
0001
0010
0100
,  // measure 85
0001
0010
0100
1000
0010
1000
0001
0000
,  // measure 86
1000
0100
1000
0001
0000
0001
0100
0000
,  // measure 87
0202
0000
0303
0000
1000
0100
0010
0000
,  // measure 88
0001
0010
0001
1000
0000
1000
0010
0000
,  // measure 89
2020
0000
3030
0000
0001
0010
0100
0000
,  // measure 90
2000
0000
3020
0000
0032
0000
0013
2000
,  // measure 91
0000
3200
0000
0301
0100
1000
0010
0100
,  // measure 92
0002
0000
2003
0000
3100
0100
0000
0110
;

//---------------dance-single - ----------------
#NOTES:
     dance-single:
     :
     Medium:
     10:
     0.554051,0.682202,0.235052,0.352578,0.000000,396.000000,372.000000,24.000000,36.000000,0.000000,0.000000,0.554051,0.682202,0.235052,0.352578,0.000000,396.000000,372.000000,24.000000,36.000000,0.000000,0.000000:
0000
0000
0000
0000
,
0000
0000
0000
0000
,
0000
0000
0000
0000
,
0000
0000
0000
0000
,
0000
0000
0000
0000
,
0000
0000
0000
0000
,
0000
0000
0000
0000
,
0000
0000
0000
0000
,
0000
0000
0000
0000
,
0000
0000
0000
0000
0001
1000
0001
0000
,
1000
0100
1000
0100
1000
0000
0001
0100
,
0001
0000
1000
0000
0010
0100
0010
0000
,
1000
0100
0010
0001
,
1000
0000
0001
1000
0010
0000
0000
0000
,
1000
0010
1000
0010
1000
0000
0001
0100
,
0001
0100
0001
0000
1000
0100
1000
0100
,
1000
0001
0010
0100
,
1000
0000
0010
0000
1000
0001
1000
0000
,
0001
0000
1000
0100
0000
0100
0010
0000
,
0002
0000
0003
0000
0010
0100
0010
0000
,
0001
0000
1000
0010
0000
0010
0100
0000
,
0002
0000
0003
0000
1000
0100
1000
0000
,
0001
0000
0100
0000
0010
0000
1000
0100
,
0000
0100
0000
0010
0000
0001
1000
0000
,
0001
1000
0010
0100
,
0001
0000
0000
0000
0001
1000
0001
0000
,
1000
0000
0001
0010
0000
0010
0100
0000
,
2000
0000
3000
0000
0100
0010
0100
0000
,
1000
0000
0001
0100
0000
0100
0010
0000
,
2000
0000
3000
0000
0001
0010
0001
0000
,
1000
0000
0010
0000
0100
0000
0001
0010
,
0001
0000
0100
0000
0010
0000
1000
0010
,
1000
0001
0010
0100
,
1000
0001
0100
0000
,
0010
0100
2002
0000
,
3003
0000
1000
0000
,
0001
0000
1000
0000
0010
0000
1000
0100
,
0000
0100
0010
0000
0001
0000
0000
0000
,
0100
0010
2002
0000
,
3003
0000
0001
0000
,
1000
0000
0001
0000
0100
0000
0001
0010
,
0000
0010
0000
0100
0000
1000
0001
0000
,
1000
1100
0110
0011
,
1000
1010
0110
2002
,
3003
0001
1000
0010
,
1000
0100
1000
0000
0001
0100
0001
0000
,
1000
0000
0001
0000
0010
0100
0010
0000
,
0001
0000
1000
0000
0010
0100
0010
0000
,
1000
0001
0010
0100
,
1000
0000
0001
0000
0100
0010
1000
0000
,
0001
0011
0110
1100
,
0001
0101
0110
2002
,
3003
1000
0001
0100
,
0001
0010
0002
0000
0203
0000
0301
1000
,
0001
0000
1000
0100
0000
0100
0010
0000
,
0001
0000
1000
0010
0000
0010
0100
0000
,
0002
0013
0200
1300
,
0020
0000
0130
0000
0001
1000
0010
0000
,
1001
0000
0001
0010
0000
0010
0100
0000
,
1000
0000
0001
0100
0000
0100
0010
0000
,
2000
3100
0020
0031
,
1001
0000
1000
0001
1000
0001
1000
0001
,
0100
0100
2002
0000
,
3003
0000
0001
0000
,
1000
0001
0100
0000
,
0001
1000
0100
0000
,
0010
0010
2002
0000
,
3003
0000
0000
0000
1000
0001
0000
0000
,
0202
0303
2020
3030
,
2002
0000
3003
0000
1000
0001
1000
0000
,
0001
0010
0001
0010
0001
0000
1000
0010
,
1000
0000
0001
0000
0100
0010
0100
0000
,
0001
0010
0100
1000
,
0001
0000
1000
0001
0100
0000
0000
0000
,
0001
0100
0001
0100
0001
0000
1000
0010
,
1000
0010
1000
0000
0001
0010
0001
0010
,
0001
1000
0100
0010
,
0001
0000
0100
0000
0001
1000
0001
0000
,
1000
0100
1000
0100
0010
0000
0001
0100
,
0001
0100
0010
0000
1000
0000
0001
0000
,
0010
0010
0100
0100
,
1000
0000
0001
0010
0100
0000
0000
0000
,
1000
0100
1000
0100
0010
0000
0001
0100
,
0001
0100
0010
0000
1000
0010
1000
0010
,
0100
0001
0010
0100
,
1000
0001
1000
0000
0001
0000
0000
0000
,
1000
0000
0100
0010
0000
0010
0001
0000
,
0022
0000
0033
0000
0001
0100
0001
0000
,
1000
0000
0001
0100
0000
0100
0010
0000
,
2020
0000
3030
0000
0001
1000
0001
0000
,
2000
0000
3200
0000
0320
0000
0031
0100
,
0000
0100
0000
0010
1000
0000
0001
0000
,
0100
0000
0100
0000
0001
0010
0000
0110
;

//---------------dance-single - ----------------
#NOTES:
     dance-single:
     :
     Easy:
     7:
     0.358175,0.409321,0.078351,0.235052,0.000000,256.000000,248.000000,8.000000,24.000000,0.000000,0.000000,0.358175,0.409321,0.078351,0.235052,0.000000,256.000000,248.000000,8.000000,24.000000,0.000000,0.000000:
0000
0000
0000
0000
,
0000
0000
0000
0000
,
0000
0000
0000
0000
,
0000
0000
0000
0000
,
0000
0000
0000
0000
,
0000
0000
0000
0000
,
0000
0000
0000
0000
,
0000
0000
0000
0000
,
0000
0000
0000
0000
,
0000
0000
0000
0000
,
1000
0100
0100
0010
,
0001
0001
1000
0010
,
0100
0100
0001
0001
,
1000
0001
1000
0000
,
0001
0010
0010
0100
,
1000
1000
0001
0100
,
0010
0010
1000
1000
,
0001
0001
1000
0000
,
0001
0010
0100
1000
,
0001
0000
0100
0000
,
0001
0100
0010
0000
,
1000
0010
0100
0000
,
0010
0010
0100
0000
,
0001
0001
0010
0000
,
0100
0100
0010
0001
,
1000
0000
0001
0000
,
1000
0100
0010
0001
,
1000
0000
0010
0000
,
1000
0010
0100
0000
,
0001
0100
0010
0000
,
0100
0100
0010
0000
,
1000
1000
0100
0000
,
0010
0010
0100
1000
,
0001
0000
1000
0000
,
0010
0000
2002
0000
,
3003
0000
1000
0000
,
0001
0100
0001
0000
,
1000
0100
1000
0000
,
0010
0000
2002
0000
,
3003
0000
1000
0000
,
0001
0000
0010
0000
0001
0000
0000
1000
,
0000
1000
0000
0001
0000
0000
0000
0000
,
2000
3200
0320
0032
,
0003
2000
3020
2030
,
3001
0000
1000
0000
,
0001
0010
0100
0100
,
1000
0000
0001
0000
,
1000
0010
0100
0000
,
0001
0100
0010
0000
,
1000
0100
0010
0000
,
0002
0023
0230
2300
,
3000
0002
0203
0302
,
1003
0000
0001
0000
,
1000
0100
0010
0010
,
0001
0000
1000
0000
,
0001
0100
0010
0000
,
1000
0010
0100
0000
,
0001
0010
0100
0000
,
1000
0000
0001
0000
,
1000
0010
0100
0000
,
0001
0010
0100
0000
,
1000
0010
0100
0000
,
0010
0000
2002
0000
,
3003
0000
0001
0000
,
1000
0000
0100
0000
,
0010
0000
0001
0000
,
0100
0000
2002
0000
,
3003
0000
0001
0000
,
1001
0000
0110
0000
,
2002
0000
3003
0000
,
0001
0010
0010
0100
,
1000
1000
0001
0100
,
0010
0010
1000
1000
,
0001
1000
0001
0000
,
1000
0100
0100
0010
,
0001
0001
1000
0010
,
0100
0100
0001
0001
,
1000
1000
0001
0000
,
1000
0100
0100
0010
,
0001
0001
1000
0001
,
0100
0100
0010
0010
,
1000
0001
1000
0000
,
0001
0100
0100
0010
,
1000
1000
0001
0010
,
0100
1000
0010
0100
,
0001
1000
0001
0000
,
1000
0000
0001
1000
,
0010
0000
1000
0000
,
0001
0000
1000
0001
,
0010
0000
0001
0000
,
1000
1000
0100
0000
,
0010
0010
0001
0000
,
0100
0000
0100
0000
0010
0000
0000
0110
;

//---------------dance-single - ----------------
#NOTES:
     dance-single:
     :
     Beginner:
     4:
     0.160899,0.227401,0.048969,0.000000,0.000000,115.000000,110.000000,5.000000,0.000000,0.000000,0.000000,0.160899,0.227401,0.048969,0.000000,0.000000,115.000000,110.000000,5.000000,0.000000,0.000000,0.000000:
0000
0000
0000
0000
,
0000
0000
0000
0000
,
0000
0000
0000
0000
,
0000
0000
0000
0000
,
0000
0000
0000
0000
,
0000
0000
0000
0000
,
0000
0000
0000
0000
,
0000
0000
0000
0000
,
0000
0000
0000
0000
,
0000
0000
0000
0000
,
0001
0000
0000
0000
,
1000
0000
0000
0000
,
0010
0000
0010
0000
,
0010
0000
0000
0000
,
1000
0000
0000
0000
,
0001
0000
0000
0000
,
0100
0000
0100
0000
,
0100
0000
0000
0000
,
0001
0000
0001
0000
,
0001
0000
0000
0000
,
0010
0000
0010
0000
,
0010
0000
0000
0000
,
0100
0000
0000
0000
,
1000
0000
0000
0000
,
0010
0000
0000
0000
,
0010
0000
0000
0000
,
1000
0000
1000
0000
,
1000
0000
0000
0000
,
0100
0000
0100
0000
,
0100
0000
0000
0000
,
0010
0000
0000
0000
,
0001
0000
0000
0000
,
1000
0000
0000
0000
,
1000
0000
0000
0000
,
0010
0000
1001
0000
,
0000
0000
1000
0000
,
0000
0000
0001
0000
,
0000
0000
0100
0000
,
0100
0000
1001
0000
,
0000
0000
0001
0000
,
0000
0000
1000
0000
,
1000
0000
0000
0000
,
0010
0000
0010
0000
,
0010
0000
0010
0000
,
0010
0000
0000
0000
,
1000
0000
0000
0000
,
0100
0000
0100
0000
,
0100
0000
0000
0000
,
0010
0000
0010
0000
,
0010
0000
0000
0000
,
0001
0000
0001
0000
,
0001
0000
0001
0000
,
0001
0000
0000
0000
,
1000
0000
0000
0000
,
0010
0000
0010
0000
,
0010
0000
0000
0000
,
0100
0000
0100
0000
,
0100
0000
0000
0000
,
0001
0000
0001
0000
,
0001
0000
0000
0000
,
1000
0000
1000
0000
,
1000
0000
0000
0000
,
0100
0000
1001
0000
,
0000
0000
0000
0000
,
1000
0000
0000
0000
,
1000
0000
0000
0000
,
0010
0000
1001
0000
,
0000
0000
0000
0000
,
0001
0000
0001
0000
,
0001
0000
0000
0000
,
0010
0000
0000
0000
,
0010
0000
0000
0000
,
0100
0000
0100
0000
,
0100
0000
0000
0000
,
1000
0000
0000
0000
,
1000
0000
0000
0000
,
0001
0000
0001
0000
,
0001
0000
0000
0000
,
0100
0100
0000
0000
,
0100
0000
0000
0000
,
0010
0000
0010
0000
,
0010
0000
0000
0000
,
1000
1000
0000
0000
,
1000
0000
0000
0000
,
0001
0000
0001
0000
,
0001
0000
0000
0000
,
1000
0000
0000
0000
,
1000
0000
0000
0000
,
0100
0000
0000
0000
,
0100
0000
0000
0000
,
0010
0000
0010
0000
,
0010
0000
0000
0000
,
0001
0000
0000
0000
0000
0000
0000
1001
;

//---------------dance-double - ----------------
#NOTES:
     dance-double:
     :
     Hard:
     13:
     0.658985,0.773162,0.254640,0.979384,0.029382,471.000000,445.000000,26.000000,100.000000,0.000000,0.000000,0.658985,0.773162,0.254640,0.979384,0.029382,471.000000,445.000000,26.000000,100.000000,0.000000,0.000000:
00000000
00000000
00000000
00000000
,
00000000
00000000
00000000
00000000
,
00000000
00000000
00000000
00000000
,
00000000
00000000
00000000
00000000
,
00000000
00000000
00000000
00000000
,
00000000
00000000
00000000
00000000
,
00000000
00000000
00000000
00000000
,
00000000
00000000
00000000
00000000
,
00000000
00000000
00000000
00000000
,
00000000
00000000
00000000
00000000
00001000
00010000
00001000
00000000
,
00010000
00000100
00001000
00000100
00020000
00000000
00031000
01000000
,
00010000
01000000
00001000
00010000
00003100
00000010
00000001
00001000
,
00000020
00000032
00002003
00003200
,
00000320
00000000
00000000
00010030
00001000
00010000
00002000
00000000
00000000
00103000
00000000
00000000
,
00001000
00010000
00000010
00010000
00002000
00000000
00013000
00001000
,
00100000
00001000
00020000
00000000
00031000
01000000
00100000
01000000
,
00001000
00010000
01000000
10000000
00100000
01000000
00010000
00100000
,
00001000
00010000
00000010
00000100
00000001
00001000
00000001
00000000
,
00002010
00000000
00003001
00000010
00000200
00000000
00001330
00000000
,
00020100
00000000
00130000
00000000
10000000
00010000
00100000
00000000
,
10020000
00000000
10030000
01000000
00200000
00000000
03310000
00000000
,
00102000
00000000
00003100
00000000
00000001
00001000
00000100
00000010
,
00000002
00000000
00000203
00000000
00002300
00000000
00003100
00000020
,
00000000
00020030
00000000
00031000
00100000
00001000
00010000
00000000
,
00002000
00000000
00103000
00010000
02000000
00000000
03200000
00000000
,
10300000
00000000
00010000
00000000
10000000
00010000
10000000
00000000
,
00010000
01000000
00100000
01000000
00002000
00000000
00003020
00000000
,
00000031
00000000
00001000
00000000
00000001
00000100
00000010
00000000
,
00001000
00000010
00000100
00000010
00020000
00000000
02030000
00000000
,
13000000
00000000
00010000
00000000
10000000
00100000
01000000
00000000
,
00010000
00000000
01010000
00000000
01002000
00000000
00013000
00000100
,
00000010
00000000
00000011
00000000
00000001
00000100
00001000
00000100
,
00000020
00002030
00003200
00010300
,
00202000
00000000
00333000
00000000
00001000
00010000
00001000
00000000
,
00010000
00000000
00010000
00000000
00002002
00000000
00000000
00003003
,
00000000
00000000
00000002
00000000
00000000
00000203
00000000
00000000
,
00000310
00000000
00001000
00000000
00000001
00000000
00001000
00000100
,
00000000
00000100
00020000
00000000
00032000
00000000
00003000
00000000
,
00001000
00000000
00001000
00000000
20020000
00000000
00000000
30030000
,
00000000
00000000
20000000
00000000
00000000
30200000
00000000
00000000
,
01300000
00010000
10000000
00010000
10000000
00000000
00010000
00100000
,
00000000
00101000
00000000
00010100
00003000
00010000
00031000
00000000
,
00010000
00000100
00001000
00000100
00000010
00000100
00002000
00000000
,
00003001
00000100
00000010
00000100
00001000
00000100
00000002
00000000
,
00001003
00000000
00000100
00000000
00010000
00001000
00200000
00000000
,
00320000
02030000
03200000
10300000
,
00010000
01010000
10000000
11000000
,
00020000
00230000
00302000
00023000
,
00030100
00000000
00000100
00000000
00001000
00000010
00000000
00000100
,
00000000
00000001
00000000
00001000
00000100
00000000
00010000
00010000
,
00001000
00100000
00010000
00100000
01000000
00100000
00020000
00000000
,
10030000
00100000
01000000
00100000
00010000
00100000
20000000
00000000
,
30010000
00000000
00100000
00000000
00001000
00010000
00000200
00000000
,
00002300
00000000
00003020
00000000
00000230
00000000
00000301
00001000
,
00000001
00000100
00000010
00000100
00000000
00000010
00001000
00000010
,
00000000
00001000
00000100
00001000
00000000
00000100
00010000
00000000
,
00010200
00010300
00021000
00031000
,
00102000
00000000
00103000
00000000
00010000
10000000
00100000
00000000
,
10000000
00100000
01000000
00100000
00000000
01000000
00010000
01000000
,
00000000
00010000
00100000
00010000
00000000
00100000
00001000
00000000
,
00201000
00301000
00012000
00013000
,
00020100
00000000
00030100
00000010
00000001
00000100
00000010
00001000
,
00000001
00000100
00002002
00000000
,
00003003
00000000
00000001
00000000
,
00001000
00000001
00000100
00001000
,
00010000
00100000
10000000
00010000
,
00100000
00100000
20020000
00000000
,
30030000
00000000
00000000
00000000
10000000
00010000
00000000
00000000
,
20200000
30300000
02020000
03030000
,
00022000
00000000
00033000
00000000
00010000
00001000
00010000
00000000
,
00001000
00100000
00010000
00100000
00002000
00000000
00013000
00000010
,
00001000
00000010
00010000
00001000
00130000
01000000
10000000
00010000
,
02000000
23000000
30020000
00230000
,
02300000
00000000
00000000
03001000
00010000
00001000
00020000
00000000
00000000
00030100
00000000
00000000
,
00010000
00001000
01000000
00001000
00020000
00000000
00031000
00010000
,
00000100
00010000
00002000
00000000
00013000
00000010
00000100
00000010
,
00010000
00001000
00000010
00000001
00000100
00000010
00001000
00000100
,
00010000
00001000
01000000
00100000
00010000
00001000
00010000
00000000
,
00001000
00010000
00100000
00010000
00001000
00000000
00010000
00001000
,
00000010
00001000
00010000
00000010
00000100
00000001
00001000
00000100
,
00000020
00000032
00000203
00000320
,
00001030
00000000
00000000
00000100
00010000
00000100
00020000
00000000
00000000
00031000
00000000
00000000
,
00010000
00001000
00000100
00001000
00010000
00000000
00001000
00010000
,
01000000
00010000
00001000
00000000
00010000
00100000
10000000
01000000
,
00100000
00001000
00100000
00001000
00010000
00000100
00010000
00000100
,
00000010
00000001
00000100
00000010
00001000
00000001
00001000
00000000
,
00000001
00000100
00000001
00000100
00000000
00000100
00002000
00000000
,
00023000
00000000
00030000
00000000
00001000
00010000
00001000
00000000
,
00010000
01000000
00010000
01000000
00000000
01000000
20000000
00000000
,
30020000
00000000
00030000
00000000
10000000
01000000
00100000
00010000
,
02000000
00000000
03200000
00000000
00320000
00000000
00031000
00000020
,
00000000
00000032
00000000
00000103
00000010
00000100
00000010
00000100
,
00002000
00000000
00023000
00000000
00130000
01000000
00000000
01100000
;

//---------------dance-double - ----------------
#NOTES:
     dance-double:
     :
     Medium:
     11:
     0.563845,0.682202,0.195877,0.783507,0.000000,403.000000,383.000000,20.000000,80.000000,0.000000,0.000000,0.563845,0.682202,0.195877,0.783507,0.000000,403.000000,383.000000,20.000000,80.000000,0.000000,0.000000:
00000000
00000000
00000000
00000000
,
00000000
00000000
00000000
00000000
,
00000000
00000000
00000000
00000000
,
00000000
00000000
00000000
00000000
,
00000000
00000000
00000000
00000000
,
00000000
00000000
00000000
00000000
,
00000000
00000000
00000000
00000000
,
00000000
00000000
00000000
00000000
,
00000000
00000000
00000000
00000000
,
00000000
00000000
00000000
00000000
00001000
00010000
00001000
00000000
,
00010000
00000100
00010000
00000000
00001000
00000000
00100000
00001000
,
00100000
00000000
00001000
00000000
00010000
00000010
00010000
00000000
,
00000010
00000010
00000100
00000100
,
00000001
00000000
00001000
00000100
00010000
00000000
00000000
00000000
,
00001000
00010000
00001000
00010000
00001000
00000000
00100000
00001000
,
00100000
00001000
00100000
00000000
00000010
00010000
00000010
00010000
,
00000010
00010000
00001000
00100000
,
00010000
00100000
00010000
00000000
10000000
00100000
10000000
00000000
,
00010000
00000000
10000000
01000000
00000000
01000000
00100000
00000000
,
00002000
00000000
00003000
00000000
00010000
00001000
00010000
00000000
,
00000100
00000000
00010000
00000100
00000000
00000100
00000010
00000000
,
00000002
00000000
00000003
00000000
00001000
00000010
00001000
00000000
,
00000001
00000000
00000100
00000000
00001000
00000000
00000100
00000010
,
00000000
00000010
00000000
00001000
00000000
00000100
00010000
00000000
,
00002000
00000000
00103300
00010000
02000000
00000000
03200000
00000000
,
00310000
00000000
00001000
00000000
00000010
00000001
00001000
00000000
,
00000001
00000000
00000001
00000010
00000000
00000010
00000100
00000000
,
00020000
00000000
00030000
00000000
00001000
00010000
00001000
00000000
,
00100000
00000000
00001000
00100000
00000000
00100000
01000000
00000000
,
20000000
00000000
30000000
00000000
00010000
01000000
00010000
00000000
,
10000000
00000000
00100000
00000000
00010000
00000000
00100000
01000000
,
00200000
00000000
02330000
00000000
03001000
00010000
00001000
00010000
,
00002000
00333020
00000032
00000233
,
00000310
00000000
00001000
00000000
00000001
00001000
00000001
00000000
,
00001000
00000000
00000100
00000000
00202000
00000000
00000000
00303000
,
00000000
00000000
00200000
00000000
00000000
00320000
00000000
00000000
,
10030000
00000000
00100000
00000000
01000000
00000000
00010000
10000000
,
00000000
10000000
02000000
00000000
03200000
00000000
00300000
00000000
,
00010000
00000000
00100000
00000000
00020200
00000000
00000000
00030300
,
00000000
00000000
00000200
00000000
00000000
00002300
00000000
00000000
,
00003001
00000100
00000010
00000100
00000010
00000000
00001000
00000100
,
00000000
00000100
00000000
00010000
00000000
00001000
00010000
00000000
,
00012000
00203000
02300000
03200000
,
00301000
00023000
00030020
00000230
,
00000301
00000000
00001030
00000000
00000001
00000010
00000100
00000000
,
00001000
00000010
00000100
00000000
00000001
00001000
00000001
00000000
,
00001000
00001100
00000100
00010100
,
00020000
02030000
23000000
30200000
,
01300000
00000000
01000000
00000000
00010000
00100000
00000000
00100000
,
00000000
00001000
00000000
00010000
00001000
00010000
00001000
00000000
,
00021000
00030200
00000320
00000230
,
00010300
00032000
02003000
03200000
,
10300000
00000000
03010000
00000000
10000000
01000000
00100000
00000000
,
00010000
01000000
00100000
00000000
10000000
00010000
10000000
00000000
,
00020000
02030000
03200000
00320000
,
00032000
00003020
00000332
00000103
,
00000202
00000303
00002200
00003300
,
00002002
00000000
00003003
00000000
00000001
00001000
00000001
00000000
,
00002000
00003020
00000230
00002300
,
00023000
02030000
23300000
30100000
,
20200000
30300000
00220000
00330000
,
10010000
00000000
10000000
00010000
10000000
00010000
10000000
00010000
,
01000000
00000000
01000000
00000000
00022000
00000000
00000000
00033000
,
00000000
00000000
00010000
00000000
,
00001000
00010000
00000100
00000100
,
00000010
00000001
00000100
00000100
,
00000010
00000000
00000010
00000000
00022000
00000000
00000000
00033000
,
00000000
00000000
00000000
00000000
00001000
00010000
00000000
00000000
,
00022000
00033000
00202000
00303000
,
00020020
00000000
00030030
00000000
00010000
00001000
00010000
00000000
,
00001000
00100000
00001000
00000000
00010000
00000000
00000100
00010000
,
00000100
00000000
00010000
00000000
00001000
01000000
00001000
00000000
,
01000000
01000000
00100000
00100000
,
10000000
00000000
00010000
00100000
00001000
00000000
00000000
00000000
,
00010000
00001000
00010000
00001000
00010000
00000000
00000100
00010000
,
00000100
00010000
00000100
00000000
01000000
00001000
01000000
00001000
,
01000000
00001000
00010000
00000100
,
00001000
00000100
00001000
00000000
00000100
00010000
00000100
00000000
,
00010000
00001000
00010000
00001000
00010000
00000000
00001000
00100000
,
00001000
00100000
00001000
00000000
10000000
00010000
10000000
00010000
,
10000000
00010000
01000000
00100000
,
10000000
00000000
01000000
00100000
00002000
00000000
00013000
00000000
,
00001000
00010000
00001000
00010000
00001000
00000000
00010000
00000100
,
00010000
00000100
00010000
00000000
00000001
00001000
00000001
00001000
,
00000001
00001000
00000010
00000100
,
00000001
00000010
00000100
00000000
00001000
00000010
00000100
00000000
,
00000001
00000000
00001000
00000100
00000000
00000100
00010000
00000000
,
00022000
00000000
00033000
00000000
00100000
00010000
00100000
00000000
,
00010000
00000000
10000000
00100000
00000000
00100000
01000000
00000000
,
02002000
00000000
03003000
00000000
00001000
00010000
00001000
00000000
,
00010000
00000000
00000100
00000000
00000010
00000000
00000001
00000100
,
00000000
00000100
00000000
00000001
00001000
00000001
00001000
00000001
,
00000100
00000000
00001000
00000000
00010000
00000000
00000000
01100000
;

//---------------dance-double - ----------------
#NOTES:
     dance-double:
     :
     Easy:
     7:
     0.332991,0.409321,0.078351,0.137114,0.000000,238.000000,230.000000,8.000000,14.000000,0.000000,0.000000,0.332991,0.409321,0.078351,0.137114,0.000000,238.000000,230.000000,8.000000,14.000000,0.000000,0.000000:
00000000
00000000
00000000
00000000
,
00000000
00000000
00000000
00000000
,
00000000
00000000
00000000
00000000
,
00000000
00000000
00000000
00000000
,
00000000
00000000
00000000
00000000
,
00000000
00000000
00000000
00000000
,
00000000
00000000
00000000
00000000
,
00000000
00000000
00000000
00000000
,
00000000
00000000
00000000
00000000
,
00000000
00000000
00000000
00000000
,
00010000
00001000
00001000
00010000
,
00000100
00000100
00010000
00001000
,
00010000
00000000
00001000
00000000
,
00100000
00001000
00010000
00000000
,
00001000
00010000
00010000
00001000
,
01000000
01000000
00001000
00010000
,
00001000
00000000
00010000
00000000
,
00000100
00000010
00000001
00000000
,
00001000
00000001
00001000
00000010
,
00000100
00000000
00000001
00000000
,
00001000
00000100
00010000
00000100
,
00010000
00000000
00001000
00000000
,
00100000
00100000
00010000
00000000
,
10000000
10000000
00100000
00000000
,
01000000
00010000
00100000
01000000
,
10000000
00000000
10010000
00000000
,
00010000
10000000
00010000
01000000
,
00100000
00000000
10000000
00000000
,
00010000
00100000
00001000
00100000
,
00001000
00000000
00010000
00000000
,
00000100
00000100
00001000
00000000
,
00000001
00000001
00000100
00000000
,
00000010
00001000
00000100
00000010
,
00000001
00000000
00001001
00000000
,
00000100
00000000
00002002
00000000
,
00003003
00000000
00001000
00000000
,
00000100
00010000
00001000
00000000
,
00100000
00010000
01000000
00000000
,
00100000
00000000
20020000
00000000
,
30030000
00000000
00010000
00000000
,
00100000
00000000
00100000
00000000
00001000
00000000
00000000
00010000
,
00000000
00001000
00000000
00010000
00000000
00000000
00000000
00000000
,
00010000
00010000
00000100
00000100
,
00000000
00001000
00000100
00000010
,
00000001
00000000
00001000
00000000
,
00000001
00000100
00000010
00000000
,
00001000
00001000
00000100
00000000
,
00010000
00010000
00001000
00000000
,
00100000
00010000
01000000
00000000
,
00001000
00000000
00010000
00000000
,
00001000
00001000
00100000
00100000
,
00000000
00010000
00100000
01000000
,
10000000
00000000
00010000
00000000
,
10000000
00100000
01000000
00000000
,
00010000
00010000
00100000
00000000
,
00001000
00001000
00010000
00000000
,
00000200
00000300
00000020
00000030
,
00000002
00000003
00001000
00000000
,
00001000
00001000
00000100
00000000
,
00010000
00010000
00001000
00000000
,
00200000
00300000
02000000
03000000
,
20000000
30000000
00010000
00000000
,
01000000
00000000
20020000
00000000
,
30030000
00000000
10000000
00000000
,
00010000
00000000
00100000
00000000
,
00001000
00000000
00000010
00000000
,
00000100
00000000
00002002
00000000
,
00003003
00000000
00000001
00000000
,
00001000
00000000
00000100
00000000
,
00010000
00000000
00011000
00000000
,
00001000
00010000
00010000
00001000
,
00100000
00100000
00001000
00010000
,
00001000
00000000
00010000
00000000
,
00000100
00010000
00001000
00000000
,
00010000
00001000
00001000
00010000
,
00000010
00000010
00010000
00001000
,
00010000
00000000
00001000
00000000
,
00100000
00000000
01000000
00000000
,
10000000
01000000
01000000
00100000
,
00010000
00010000
00100000
00000000
,
00001000
00000000
00010000
00000000
,
00000100
00000010
00000001
00000000
,
00001000
00000010
00000010
00000100
,
00000001
00000001
00001000
00000100
,
00000100
00000000
00010000
00000000
,
00001000
00000000
00100000
00000000
,
00010000
10000000
00010000
00000000
,
01000000
00000000
00001000
00000000
,
00010000
00000100
00010000
00000000
,
00000100
00000000
00000010
00000000
,
00000001
00001000
00000010
00000000
,
00001000
00000001
00000010
00000000
,
00000100
00000000
00000100
00000000
00000100
00000000
00000000
00000110
;
