#TITLE:Storm Buster;
#SUBTITLE:;
#ARTIST:P*Light;
#TITLETRANSLIT:;
#SUBTITLETRANSLIT:;
#ARTISTTRANSLIT:;
#GENRE:MYTHIC HARDCORE 2;
#CREDIT:;
#MUSIC:Storm Buster.ogg;
#BANNER:Storm Buster.png;
#BACKGROUND:Storm Buster-bg.png;
#CDTITLE:;
#SAMPLESTART:80.622;
#SAMPLELENGTH:12.000;
#SELECTABLE:YES;
#OFFSET:-0.130;
#BPMS:0.000=193.000
,29.000=1200.000
,30.000=193.000
,91.000=96.500
,99.500=193.000
,112.000=96.500
,113.000=1200.000
,114.000=193.000
,179.000=96.500
,193.000=102.531
,193.354=120.625
,193.771=138.719
,194.250=150.781
,194.771=168.875
,195.354=186.967
,196.000=193.000
,229.000=1200.000
,230.000=193.000
;
#STOPS:28.000=0.155
,28.500=0.155
,29.000=0.261
,91.000=0.622
,99.500=0.155
,113.000=0.261
,228.000=0.155
,228.500=0.155
,229.000=0.261
;
#DISPLAYBPM:96.500:193.000;
#BGCHANGES:;
#FGCHANGES:;

//--------------- dance-single - ----------------
#NOTES:
     dance-single:
     :
     Medium:
     12:
     0,0,0,0,0:
0000
0000
0000
0000
,
0000
0000
0000
0000
,
0000
0000
0000
0000
,
0000
0000
0000
0000
,
1000
0100
0010
0000
0001
0100
1000
0000
,
0100
0001
0010
0000
1000
0010
0001
0000
,
1000
0100
0010
0100
1000
0001
1000
0001
,
0200
0000
0000
0000
0300
0000
0001
1000
,
0100
0000
1000
0000
0010
0000
0000
0010
0000
0000
0100
0000
0001
0000
1000
0000
,
0100
0000
1000
0000
0010
0000
0000
0010
0000
0000
0100
0000
0001
0000
1000
0000
,
0100
0000
0010
0000
0001
0000
0000
0001
0000
0000
1000
0000
0100
0000
0000
0000
,
1100
0000
0101
0000
1001
0000
1000
0010
,
0100
0000
0001
0000
1000
0000
0000
1000
0000
0000
0100
0000
1000
0000
0010
0000
,
0100
0000
0001
0000
1000
0000
0000
1000
0000
0000
0100
0000
1000
0000
0001
0000
,
0100
0000
0001
0000
0010
0000
0000
0010
0000
0000
0001
0000
2000
0000
0000
0000
,
3002
0000
0103
0100
0010
0000
1000
0000
,
0011
0000
1000
0100
0010
0000
0001
0000
,
1010
0000
0001
0100
0010
0000
1000
0000
,
0101
0000
1000
0010
0100
0000
0001
0010
,
0100
1000
0001
0010
0100
1000
0001
0000
,
0110
0000
1000
1000
1000
0000
0010
0000
,
1001
0000
0100
0100
0100
0000
0010
0000
,
0110
1001
2002
3003
,
1000
0000
0000
0000
0001
0100
0001
0100
0010
0000
1000
0100
0010
0000
0100
1000
,
0001
0000
0000
0000
0000
0000
0000
0000
1000
0000
0100
0000
1000
0000
0100
0000
0010
0000
0001
0000
1000
0000
0100
0000
0010
0000
0100
0000
2000
3000
0000
0000
,
1001
0010
0101
1000
,
0011
0000
0100
0000
1001
0000
0001
1000
,
0010
1000
0010
0100
0001
1000
0001
1000
,
0200
0000
0000
0000
0300
0000
1000
0010
,
0100
0000
0001
0000
0010
0000
0000
0010
0000
0000
0100
0000
2000
0000
0000
0000
,
3001
1000
0020
0000
1030
0001
1000
0010
,
0100
0000
0001
0000
0010
0000
0000
0010
0000
0000
0100
0000
1000
0000
0100
0000
,
0010
0001
1000
0001
0020
0000
0031
0010
,
0100
0000
1000
0000
0010
0000
0000
0010
0000
0000
0100
0000
0002
0000
0000
0000
,
1003
0100
0010
0010
0020
0000
0031
0010
,
0100
0000
1000
0000
0010
0000
0000
0010
0000
0000
0100
0000
0001
0000
0000
0000
,
1001
0000
0000
0100
0000
0100
0000
0000
0000
1010
0000
1000
,
0010
0000
0000
0011
0000
0001
1000
0000
1000
0100
0000
0000
,
1100
0000
0000
0001
0000
0001
0200
0000
0000
0310
0000
1000
,
0001
0000
0000
0101
0000
0001
1000
0000
0000
0100
0000
0010
,
0001
0000
0000
0000
0100
0000
0010
0000
0000
0000
1000
0000
0002
0000
0000
0000
0000
0000
1003
0000
0000
0010
0000
0000
,
0100
0010
1000
1000
1000
0000
0001
0010
,
0100
0010
0001
0001
0001
0000
1010
0000
,
0011
0000
1010
0000
0011
0000
1000
0100
,
0001
0100
1000
0100
0001
0100
0020
0000
,
0000
0230
0000
0302
,
0000
2003
0000
3020
,
0000
0230
0000
2300
,
0000
3002
0000
0003
,
0110
1000
1000
1000
,
0001
0010
0001
0110
,
1001
1000
0010
0001
,
0110
1001
1001
0100
,
1010
0001
1100
0000
,
0101
1000
0011
0110
,
1001
1000
0001
1000
,
0001
1000
0001
1000
0002
0000
0103
0000
,
0020
0000
0030
1000
,
0001
0010
0001
0000
1000
0010
1000
0001
,
0010
0001
1000
0000
0100
1000
0001
0010
,
0001
1000
0010
0100
0010
1000
0001
0100
,
0010
0100
0001
0000
1000
0100
0010
0001
,
0010
0100
1000
0000
0001
0100
0010
1000
,
0010
0100
0001
0000
1000
0100
0010
0001
,
1000
0001
0010
0100
1000
0001
0100
0010
,
0100
0010
1000
0000
0012
0000
1003
0000
,
0010
0100
0001
0000
0010
0100
1000
0010
,
0100
0010
1000
0000
0001
0100
0010
1000
,
0001
1000
0010
0100
0001
0100
0010
1000
,
0100
1000
0001
0000
0010
0100
1000
0001
,
1000
0100
0010
0000
0100
0010
0001
1000
,
0010
0100
0001
0000
0001
0100
0010
1000
,
0001
0010
0100
1000
0100
0010
0001
1000
,
0010
0100
0001
0000
2010
0000
3100
0000
,
0010
0001
0100
0001
1000
0001
0010
0100
,
0010
0100
0010
0001
1000
0010
0200
0000
,
0000
0001
0302
0000
0000
1003
2000
0000
,
3200
0000
2300
0000
3002
0000
0013
0100
,
0000
0100
1000
0001
0000
0001
0100
0010
,
0000
0010
1000
0001
0000
0001
0010
0100
,
0010
0100
0010
0010
0200
0000
0301
0100
,
1000
0010
0001
0000
0120
0000
1030
0000
;

//--------------- dance-single - ----------------
#NOTES:
     dance-single:
     :
     Hard:
     15:
     0,0,0,0,0:
0000
0000
0000
0000
,
0000
0000
0000
0000
,
0000
0000
0000
0000
,
0000
0000
0000
0000
,
1010
1000
0100
0000
0011
0001
1000
0000
,
1100
1000
0010
0000
0101
0001
1000
0000
,
0011
0000
0001
0000
1000
0000
0010
0000
0100
0001
0100
0001
1000
0001
1000
0001
,
2000
0000
0000
0000
3000
0000
1000
0100
,
0010
0000
0001
0000
1000
0000
0010
1000
0000
0010
0100
0001
1000
0000
0100
0000
,
0010
0000
0001
0000
1000
0000
0010
1000
0000
0010
0100
0001
1000
0000
0001
0000
,
0010
0000
0100
0000
1000
0000
0010
0100
0000
0001
0010
0100
1000
0000
0000
0000
,
1100
0000
0110
0000
0011
0000
0001
0100
,
0010
0000
1000
0000
0001
0000
0010
0100
0000
0010
0001
1000
0001
0000
0100
0000
,
0010
0000
1000
0000
0001
0000
0010
0100
0000
0010
0001
1000
0001
0000
1000
0000
,
0010
0000
0100
0000
0010
0000
1000
0010
0000
0100
0010
1000
0001
0000
0000
0000
,
1100
0000
0000
0000
0101
0000
0001
0000
2000
0000
0000
0000
3001
0100
0001
0000
,
1000
0100
1000
0000
0010
0000
0100
0010
1000
0010
0100
0000
0001
0100
0001
0000
,
1000
0100
1000
0000
0010
0000
0100
0010
1000
0010
0100
0000
0001
0010
0001
0000
,
1000
0010
1000
0000
0001
0010
0100
1000
0100
0010
0001
0000
1000
0000
0000
0000
,
0011
0000
0000
0000
1010
0000
0000
0000
0011
0000
0000
0000
1000
0100
1000
0000
,
0001
0100
0001
0000
1010
0000
1000
0000
0001
0000
0100
0000
0101
0000
0000
0000
,
1000
0100
1000
0000
0011
0000
0001
0000
1000
0000
0100
0000
0010
0001
0010
0000
,
0010
0000
0001
0000
0010
0000
0000
0000
0010
0000
0100
0000
0010
0000
0100
0000
0010
0000
0100
0000
0010
0000
0000
0000
0002
0003
0000
0000
0000
0000
0000
0000
,
1001
0000
0000
0000
1000
0100
0001
0100
0020
0000
0031
0100
0020
0000
0130
0001
,
2000
0000
0000
0000
0000
0000
0000
0000
3001
0000
0100
0000
1000
0000
0100
0000
0001
0000
1000
0000
0010
0000
0100
0000
0001
0000
0010
0000
0200
0300
0000
0000
,
1100
1000
0010
0000
0101
0001
1000
0000
,
0011
0001
0100
0000
1010
1000
0001
1000
,
0100
0000
0010
0000
0100
0000
0010
0000
0001
1000
0001
1000
0001
1000
0001
1000
,
0200
0000
0000
0000
0300
0000
1000
0100
,
0010
0000
0001
0000
1000
0000
0010
1000
0000
0010
0100
0001
2000
0000
0000
0000
,
3001
0010
2000
0000
3010
0001
1000
0100
,
0010
0000
0001
0000
1000
0000
0010
1000
0000
0010
0100
0001
2000
0000
3200
0000
,
0320
2030
3002
0203
2300
0000
3001
0100
,
0010
0000
1000
0000
0001
0000
0010
0001
0000
0010
0100
1000
0002
0000
0000
0000
,
1003
0010
0001
0001
0001
0001
1000
0100
,
0100
0000
0001
0000
0100
0000
0010
1000
0000
0010
0100
0001
1000
0000
0000
0000
,
0101
0000
0000
0010
0000
0010
0000
0000
0000
1001
0000
1000
,
0100
0000
1000
0001
0000
0001
0010
0100
1000
0001
0100
0001
,
0100
0000
0010
1000
0000
1000
0002
0000
0000
1003
0000
1000
,
0100
0000
1000
0001
0000
0001
0010
0100
1000
0001
0100
0001
,
1000
0000
0100
0000
1000
0000
0001
0000
0000
0000
0001
0000
2000
0000
0000
0000
0000
0000
3001
0000
0000
0100
0000
0000
,
0010
0100
1000
0100
0001
0001
1000
0100
,
0010
0000
0100
0000
0001
0000
0100
0000
1000
0000
1000
0000
0001
0010
0001
0000
,
1000
0010
1000
0000
0010
0100
0010
0100
0010
0100
0010
0000
1000
0010
0100
0000
,
0001
0010
0100
0000
1000
0010
0100
0000
0001
0010
0100
0000
0020
0000
0000
0000
,
0000
0032
0000
0203
,
0000
0320
0000
0032
,
0000
2003
0000
3200
,
0000
0302
0000
0000
,
1003
0000
0100
1000
0010
0000
0100
0001
,
0010
1000
0010
0100
1000
0000
1100
0000
,
0101
0000
0100
0010
0001
0010
1000
0000
,
0101
0000
1100
0000
0110
0000
0001
1000
,
0100
0001
0100
1000
0001
0000
1000
0001
,
0100
1000
0100
0001
1000
0000
1010
0000
,
0101
0000
0001
0000
1000
0000
0001
0000
0100
0001
0100
0001
1000
0001
1000
0001
,
0100
0010
1000
0100
0010
0000
1001
0000
,
2000
0000
0000
0000
3100
0010
0002
0000
,
0103
0010
2000
0000
3100
0010
0001
0010
,
1000
0010
0100
0000
0100
0010
0001
0010
,
1000
0001
0100
1000
0001
0100
0010
0001
,
0010
1000
0001
0000
0101
0001
1000
0010
,
0100
0010
1000
0000
0002
0000
0000
0000
0103
0000
0001
0000
1000
0000
0100
0000
,
0010
0100
1000
0000
0100
0000
0000
0000
0100
0000
1000
0000
0001
0000
0100
0000
,
1000
0001
0010
1000
0001
0010
1000
0010
,
0001
0010
0200
0000
1300
0010
0200
0000
,
0301
0010
0200
0000
1300
0010
0100
0010
,
0001
0010
1000
0000
0001
0010
0100
1000
,
0001
0010
1000
0001
0100
1000
0001
0100
,
0010
1000
0001
0000
0001
0100
0010
1000
,
0010
0100
0001
0000
1000
0000
0000
0000
1000
0000
0100
0000
0010
0000
0001
0000
,
0010
0100
1000
0000
0100
0000
0000
0000
0100
0000
1000
0000
0001
0000
0100
0000
,
0010
0001
1000
0100
0001
1000
0100
0010
,
1000
0010
0002
0000
1003
0100
0002
0000
,
1003
0010
0001
0010
0100
1000
0010
0001
,
0010
0100
0010
0001
0010
1000
0002
0000
,
0000
0000
1003
0100
0020
0000
0000
0000
0000
0000
0031
1000
0200
0000
0000
0000
,
0320
0000
0032
0000
1003
0000
2000
0100
,
0000
3100
2000
0001
0000
3001
2000
0010
,
0000
3010
0200
0001
0000
0301
1000
0001
,
1000
0000
0001
0000
0010
0100
0010
0100
0020
0000
0000
0000
1030
0000
0010
0000
,
0001
0100
1000
0000
0210
0000
0301
0000
;
