#VERSION:0.83;
#TITLE:Step Into The Fire;
#SUBTITLE:;
#ARTIST:Odyssey Eurobeat;
#TITLETRANSLIT:;
#SUBTITLETRANSLIT:;
#ARTISTTRANSLIT:;
#GENRE:CASINO EUROBEAT 2;
#ORIGIN:;
#CREDIT:;
#BANNER:Step Into The Fire.png;
#BACKGROUND:Step Into The Fire-bg.png;
#PREVIEWVID:;
#JACKET:Step Into The Fire-jacket.png;
#CDIMAGE:;
#DISCIMAGE:;
#LYRICSPATH:;
#CDTITLE:;
#MUSIC:Step Into The Fire.ogg;
#OFFSET:-0.025000;
#SAMPLESTART:36.013000;
#SAMPLELENGTH:14.984000;
#SELECTABLE:YES;
#BPMS:0.000=160.000;
#STOPS:;
#DELAYS:;
#WARPS:;
#TIMESIGNATURES:0.000=4=4;
#TICKCOUNTS:0.000=4;
#COMBOS:0.000=1;
#SPEEDS:0.000=1.000=0.000=0;
#SCROLLS:0.000=1.000;
#FAKES:;
#LABELS:0.000=Song Start;
#BGCHANGES:;
#KEYSOUNDS:;
#ATTACKS:
;

//---------------dance-single - ----------------
#NOTEDATA:;
#CHARTNAME:;
#STEPSTYPE:dance-single;
#DESCRIPTION:;
#CHARTSTYLE:;
#DIFFICULTY:Hard;
#METER:17;
#RADARVALUES:0.870413,0.958780,0.139178,0.858263,1.039967,788.000000,770.000000,18.000000,111.000000,48.000000,0.000000,0.000000,0.000000,0.000000,0.870413,0.958780,0.139178,0.858263,1.039967,788.000000,770.000000,18.000000,111.000000,48.000000,0.000000,0.000000,0.000000,0.000000;
#CREDIT:;
#NOTES:
0000
0000
0000
0000
,
0000
0000
0000
0000
,
0000
0000
0000
0000
,
0000
0000
0000
0000
,
1000
0100
1000
0000
0001
0100
0001
0200
0000
0000
0310
0000
0M10
0001
1000
0001
,
1000
0010
1000
0000
0001
0010
0001
0010
0001
0100
0010
1000
0002
0000
0003
0000
,
1000
0010
0100
0000
0010
1000
0001
2000
0000
0000
3100
0000
M100
0001
1000
0001
,
1000
0010
0000
0100
0010
0000
0001
0010
0000
1000
0100
0010
0002
0000
0003
0000
,
1000
0000
0010
0000
0100
0000
0010
0000
1000
0100
0000
M100
0001
0000
2000
0000
,
0000
3100
0001
0100
1000
0010
0100
0001
,
1000
0000
0100
0000
0010
0000
0100
0000
1000
0010
0000
M010
0001
0000
1000
0000
,
0002
0103
0020
0130
2000
3100
0020
0130
,
0001
0000
0010
0000
0012
0000
1003
0000
0010
0000
2010
0000
0000
0000
3001
1000
,
0001
0000
0010
0000
1000
0000
0020
0000
0000
0000
0130
0000
1000
0100
1000
0100
,
0000
0000
1000
0010
1000
0010
1000
0000
0010
0000
0200
0000
0000
0000
0301
0000
,
2000
3100
0020
0130
0002
0103
0020
0130
,
1000
0000
0001
0010
0001
0010
0001
0000
2000
0010
0000
3100
1000
0000
0002
0000
,
0000
0000
1003
0010
1000
0010
1000
0000
0001
0010
0001
0010
0001
0000
2000
0000
,
0000
3002
0203
2300
0000
3100
0000
0001
,
2000
0000
0000
0000
0100
0000
3020
0000
0000
0000
1030
0001
1000
0000
0001
0000
,
1000
0000
0001
0010
0001
0010
0100
0000
2000
0001
0000
3100
1000
0000
0002
0000
,
1003
0000
0001
0100
0001
0100
0010
0000
2000
0000
3200
0000
0310
0000
0002
0000
,
1003
0020
0032
2003
3200
0302
2003
3000
,
2002
3000
0020
0033
,
0101
0000
0000
0000
1000
0000
2020
0000
0000
0000
3030
0000
0001
0010
0100
1000
,
0002
0000
0000
0000
1003
0000
0100
0000
0001
0000
0100
1000
0000
0002
0000
0000
,
1003
0010
0100
0001
1000
0100
0010
0001
1000
0000
0010
0000
0001
0000
0020
0000
,
1030
0000
0001
0010
0100
1000
0001
0000
0101
0000
M0M0
0000
1010
0000
0M0M
0000
,
1001
0000
0000
0000
0001
0000
0022
0000
0000
0000
0033
0000
1000
0010
0100
0001
,
2000
0000
0000
0000
3001
0000
0100
0000
1000
0000
0100
0001
0000
2000
0000
0000
,
3001
0010
0100
1000
0001
0100
0010
1000
0002
0000
0013
0000
1000
0000
0020
0000
,
0031
0100
0010
1000
0010
0100
0001
0100
0001
0010
0100
1000
0002
0000
0003
0000
,
1000
0010
1000
0000
M010
0001
0010
0001
0000
0001
1000
0000
0001
0100
0010
1000
,
0001
0100
0001
0000
010M
1000
0100
1000
0001
0010
0100
1000
0002
0000
0003
0000
,
1000
0010
1000
0000
M010
0001
0010
0001
0000
0100
0010
0000
1000
0100
0010
0001
,
1000
0000
0010
0000
0100
0000
0000
0000
0001
0000
0100
0000
0010
0000
0000
0000
1000
0000
0010
0000
0000
00M0
0001
0000
0010
0000
0000
00M0
1000
0000
0010
0000
,
1000
0100
0010
0000
0M10
1000
0010
1000
0000
0001
1000
0000
0001
0010
0100
1000
,
0001
0100
0010
0000
0M10
0001
0010
0001
1000
0010
0100
0001
2000
0000
3001
0000
,
1000
0100
0010
0000
0M10
1000
0010
1000
0000
0100
0010
0000
0001
0010
0100
1000
,
0001
0000
0100
0000
0000
0M00
1000
0000
0100
0000
0000
0M00
0001
0000
0100
0000
0000
0000
0001
0000
0010
0000
0100
0000
2000
0000
0000
0000
3000
0000
0000
0000
,
0001
0000
0100
0000
0010
0000
0100
0000
1000
0100
M000
0100
1000
0000
0002
0000
,
0000
1003
0100
0001
1000
0010
0001
1000
,
0001
0000
0010
0000
0100
0000
0010
0000
1000
0010
M000
0010
1000
0000
0001
0000
,
2000
3100
0002
1003
0020
0031
2000
3001
,
1000
0000
0100
0000
2010
0000
3001
0000
0100
0000
0012
0000
0000
0000
1003
0001
,
1000
0000
0100
0000
0001
0000
0200
0000
0000
0000
0310
0000
0001
0010
0100
1000
,
0000
0000
0001
0010
001M
1000
0001
0000
0010
0000
0200
0000
0000
0000
1300
0000
,
0002
0103
2000
3001
0020
1030
0002
1003
,
0001
0000
1000
0100
1000
0001
1000
0000
0002
0100
0000
0013
0001
0000
2000
0000
,
0000
0000
3001
0100
0001
1000
0001
0000
1000
0100
1000
0010
1000
0000
0002
0000
,
0000
2003
3020
0032
0000
0013
0000
1000
,
0002
0000
0000
0000
0010
0000
0203
0000
0000
0000
0301
1000
0001
0000
1000
0000
,
0001
0000
1000
0100
0010
0M10
1000
0000
0002
1000
0000
0013
0001
0000
2000
0000
,
3001
0000
1000
0010
0100
01M0
1000
0000
0002
0000
0023
0000
0130
0000
2000
0000
,
3001
0200
2300
3002
0023
2030
3002
0003
,
2002
0003
0200
3300
,
1010
0000
0000
0000
0001
0000
0202
0000
0000
0000
0303
0000
1000
0100
M100
0001
,
2000
0000
0000
0000
3001
0000
0010
0000
1000
0000
0010
0001
0000
2000
0000
0000
,
3001
0100
0010
1000
0001
0010
0100
1000
0001
0000
0100
0000
1000
0000
0200
0000
,
0301
0000
1000
0100
M100
0001
1000
0000
1010
0000
0M0M
0000
0101
0000
M0M0
0000
,
1001
0000
0000
0000
1000
0000
2200
0000
0000
0000
3300
0000
0001
0100
010M
1000
,
0002
0000
0000
0000
1003
0000
0010
0000
0001
0000
0010
1000
0000
0002
0000
0000
,
1003
0100
M100
0001
0010
001M
1000
0001
2000
0000
3010
0000
0001
0000
0020
0000
,
1030
0100
0010
0100
0001
0100
0010
0100
1000
0010
0100
0001
2000
0000
3000
0000
,
0001
0010
0100
1000
0001
0100
0010
0200
0000
0000
1300
0000
0100
0001
1000
0001
,
1000
0100
0010
0001
1000
0010
0100
0010
1000
0100
M100
0001
2000
0000
3000
0000
,
0001
0100
0010
0100
0001
0010
0100
0020
0000
0000
1030
0000
0010
0001
1000
0001
,
1000
0010
0100
0001
1000
0100
0010
0001
1000
0100
0000
0001
0100
0000
1000
0001
,
1000
0010
0100
1000
0100
0001
0010
0200
0000
0000
1300
0000
0001
0100
0010
1000
,
0001
0010
0100
0001
0100
0010
0001
1000
0001
0010
001M
1000
0002
0000
0003
0000
,
1000
0100
0010
1000
0001
0100
0010
0002
0000
0000
1003
0000
0001
0100
0010
1000
,
0001
0010
1000
0001
0100
1000
0001
0100
1000
0001
0010
1000
0002
0000
1003
0000
,
0001
0010
0100
01M0
0001
0010
0100
2000
0000
0000
3001
0000
1000
0010
0100
0001
,
1000
0100
0010
0M10
1000
0100
0010
0001
1000
0010
0100
0001
1000
0100
0010
0001
,
1000
0010
0100
01M0
1000
0001
0010
0200
0000
0000
0310
0000
0001
0100
0010
1000
,
0001
0010
0100
01M0
0001
01M0
0010
0010
0001
0100
000M
1000
0100
M000
0001
1000
,
0001
0010
0100
01M0
0001
0010
0100
1000
0000
1000
0001
0000
1000
0010
0100
0001
,
1000
0100
0010
0M10
1000
0100
0010
0001
1000
0010
0100
0001
1000
0100
0010
0001
,
1000
0010
0100
01M0
1000
0001
0100
0010
0000
1000
0001
0000
1000
0100
0010
0001
,
1000
0010
M010
0001
0100
010M
1000
0010
M010
0001
0100
010M
2000
0000
0000
0000
,
3000
0000
0000
0000
;

//---------------dance-single - ----------------
#NOTEDATA:;
#CHARTNAME:;
#STEPSTYPE:dance-single;
#DESCRIPTION:;
#CHARTSTYLE:;
#DIFFICULTY:Medium;
#METER:11;
#RADARVALUES:0.588744,0.618568,0.471658,0.371141,0.185570,533.000000,472.000000,61.000000,48.000000,0.000000,0.000000,0.000000,0.000000,0.000000,0.588744,0.618568,0.471658,0.371141,0.185570,533.000000,472.000000,61.000000,48.000000,0.000000,0.000000,0.000000,0.000000,0.000000;
#CREDIT:;
#NOTES:
0000
0000
0000
0000
,
0000
0000
0000
0000
,
0000
0000
0000
0000
,
0000
0000
0000
0000
,
1000
0000
0100
0000
0001
0000
0000
0100
0000
0000
1000
0000
0001
0000
0100
0000
,
0001
0000
0010
0000
1000
0000
0000
0010
0000
0000
0100
0000
1000
0000
0001
0000
,
1000
0000
0010
0000
0001
0000
0000
1000
0000
0000
0100
0000
0010
0000
1000
0000
,
0001
0000
0000
0010
0000
0000
0100
0000
0000
1000
0000
0000
0001
0000
0000
0000
,
0101
0000
1010
0000
1001
0000
0001
2000
,
0000
3100
0010
0001
0010
0100
1000
0001
,
0011
0000
1100
0000
1001
0000
1000
0001
,
2000
3020
0032
0203
,
1300
0000
1010
0000
0101
0000
0001
2000
,
0000
3100
0010
0001
1000
0010
0100
0001
,
0101
0000
1010
0000
1001
0000
1000
0001
,
2000
3020
0032
0203
,
1300
1010
0101
1010
,
1000
0000
0001
0000
0012
0010
0000
0200
,
0003
0301
0000
0001
0010
0100
1000
0000
,
0001
1000
0000
1100
0000
1001
0000
0000
,
1000
0010
0100
0001
1000
1000
0001
0000
,
1000
0100
0010
0001
1000
1000
0001
0000
,
0201
2300
3002
0023
,
1030
0001
1000
0001
2000
0000
3000
0000
,
0001
0010
0100
0010
0001
0011
0000
1001
,
0000
1000
0010
0100
0010
1000
0000
1000
,
0100
0010
0001
0000
0011
0000
0001
1000
,
0002
0203
2300
3020
,
0031
0100
0010
0100
0001
0101
0000
1001
,
0000
1000
0100
0010
0100
1000
0000
1000
,
0002
0023
2030
3200
,
0301
0010
0100
1000
0001
1000
1001
0000
,
1000
0000
0100
0000
0001
0000
0000
0100
0000
0000
1000
0000
0001
0000
0101
0000
,
0001
0000
0100
0000
1000
0000
0000
0100
0000
0000
0001
0000
1000
0000
1100
0000
,
1000
0000
0010
0000
0001
0000
0000
0010
0000
0000
1000
0000
0001
0000
0011
0000
,
0001
0000
0100
0000
0010
0000
1000
0000
0001
0000
0000
1000
0000
0000
1001
0000
,
1000
0000
0100
0000
0001
0000
0000
1000
0000
0000
0010
0000
0100
0000
1000
0000
,
0001
0000
0100
0000
1000
0000
0000
0001
0000
0000
0010
0000
0100
0000
0001
0000
,
1000
0000
0100
0000
0001
0000
0000
1000
0000
0000
0010
0000
0001
0000
1000
0000
,
1010
0000
0000
0001
0000
0000
0011
0000
0000
1000
0000
0000
1001
0000
0000
0000
,
1010
0000
0101
0000
1001
0000
1000
0002
,
0000
0013
1000
0010
0001
0100
0010
1000
,
1100
0000
0011
0000
1001
0000
0001
1000
,
0002
0203
2300
3020
,
0031
0000
0101
0000
1010
0000
1000
0002
,
0000
0013
1000
0010
0001
0100
0010
1000
,
1010
0000
0101
0000
1001
0000
0001
1000
,
0002
0203
2300
3020
,
0031
0000
0100
0000
0000
1000
0000
0000
0100
0000
0000
0001
0000
0000
1000
0000
,
0100
0000
0001
0000
0000
0100
0000
0000
1000
0000
0000
0001
0000
0000
0100
0000
,
0010
1000
0001
0020
0000
0000
0130
0000
,
2000
0000
0100
0002
0000
3003
1001
0000
,
0001
0000
0100
0000
0010
0000
0100
0000
0001
0000
0000
0001
0000
0000
1000
0000
,
0100
0000
0010
0000
0100
0000
1000
0000
0001
0000
0000
0001
0000
0000
1000
0000
,
0001
0010
0100
1000
0010
0100
0001
0000
,
2002
3000
0200
0303
,
0011
0000
0001
2000
0000
3000
0010
0100
,
0002
0000
0000
0000
0013
0000
1000
0000
0010
0000
0001
0000
0000
1000
0000
0000
,
0001
0100
1000
0100
0010
0010
1000
0001
,
1000
0100
0001
0100
2000
0000
3001
0000
,
1010
0000
1000
0002
0000
0003
0010
0100
,
2000
0000
0000
0000
3010
0000
0001
0000
0010
0000
1000
0000
0000
0001
0000
0000
,
1000
0100
0001
0100
0010
0010
0001
1000
,
0001
0100
1000
0100
0002
0000
1003
0000
,
0001
0000
0100
0000
0010
0000
0010
0100
0000
0000
0001
0000
1000
0000
0001
0000
,
1000
0000
0100
0000
0010
0000
0010
0100
0000
0000
1000
0000
0001
0000
1000
0000
,
0001
0000
0100
0000
1000
0000
0100
0010
0000
0000
0100
0000
0001
0000
1000
0000
,
1010
0000
0000
0000
0101
0000
0000
0000
1001
0000
0000
0110
0000
0000
1001
0000
,
1000
0000
0010
0000
0100
0000
0100
0010
0000
0000
1000
0000
0001
0000
1000
0000
,
0001
0000
0010
0000
0100
0000
0100
0010
0000
0000
0001
0000
1000
0000
0001
0000
,
1000
0000
0010
0000
0001
0000
0010
0100
0000
0000
0010
0000
1000
0000
0001
0000
,
0101
0000
0000
1010
0000
0000
0011
0000
0000
1100
0000
0000
1001
0000
0000
0000
,
1000
0000
0001
0000
0100
0000
0010
0100
0000
0100
0001
0000
1000
0000
0001
0000
,
1000
0000
0100
0000
0010
0000
0100
1000
0000
1000
0001
0000
0100
0000
0010
0000
,
1000
0000
0100
0000
0010
0000
0100
1000
0000
1000
0001
0000
1000
0000
0001
0000
,
0101
0000
0000
0000
1010
0000
0000
0000
1100
0000
0000
0011
0000
0000
1001
0000
,
0001
0000
0100
0000
1000
0000
0100
0010
0000
0010
0100
0000
0001
0000
1000
0000
,
0001
0000
0010
0000
1000
0000
0010
0100
0000
0100
0010
0000
0001
0000
1000
0000
,
0001
0000
0100
0000
1000
0000
0100
0010
0000
0010
0100
0000
0001
0000
1000
0000
,
1000
0100
0000
0100
0010
0000
0010
0001
0000
0001
1000
0000
0002
0000
0000
0000
,
0003
0000
0000
0000
;

//---------------dance-single - ----------------
#NOTEDATA:;
#CHARTNAME:;
#STEPSTYPE:dance-single;
#DESCRIPTION:;
#CHARTSTYLE:;
#DIFFICULTY:Easy;
#METER:6;
#RADARVALUES:0.338003,0.340212,0.146910,0.108249,0.000000,306.000000,287.000000,19.000000,14.000000,0.000000,0.000000,0.000000,0.000000,0.000000,0.338003,0.340212,0.146910,0.108249,0.000000,306.000000,287.000000,19.000000,14.000000,0.000000,0.000000,0.000000,0.000000,0.000000;
#CREDIT:;
#NOTES:
0000
0000
0000
0000
,
0000
0000
0000
0000
,
0000
0000
0000
0000
,
0000
0000
0000
0000
,
1000
0001
0100
0100
,
0001
1000
0010
1010
,
1000
0001
0010
0010
,
0100
1000
0001
1001
,
1000
0010
0100
0000
,
1000
0100
0001
1000
,
0001
0010
0100
0000
,
0001
0100
1000
0001
,
1000
0010
0100
0000
,
1000
0001
0010
0100
,
0001
1000
0010
0000
,
0001
0100
0010
1001
,
0001
0100
0010
0010
,
0100
0001
1000
1000
,
0100
0010
0200
0300
,
1000
0001
2000
3000
,
0001
0100
0010
0010
,
0100
0001
1000
1000
,
0001
0010
0100
1000
,
2002
0000
0000
3003
,
0001
0100
1000
1000
,
0010
1000
0100
0100
,
0001
0010
0100
1000
,
0002
1000
1000
1003
,
0001
0010
1000
1000
,
0100
1000
0010
0010
,
0001
0100
0010
1000
,
0002
1000
1003
1001
,
1000
0100
0010
0010
,
0001
0100
0010
0010
,
1000
0001
0100
0100
,
0001
0010
0100
1000
,
0001
1000
0010
0010
,
1000
0001
0100
0101
,
0001
1000
0100
0100
,
0010
0001
1000
1001
,
0001
0100
0010
0000
,
0001
0010
1000
0001
,
1000
0100
0010
0000
,
1000
0010
0001
1000
,
0001
0100
0010
0000
,
0001
1000
0100
0010
,
1000
0001
0100
0000
,
1000
0010
0100
1001
,
1000
0010
0100
0100
,
0010
1000
0001
0001
,
0010
0100
0020
0030
,
0001
1000
0002
0003
,
1000
0010
0100
0100
,
0010
1000
0001
0001
,
1000
0100
0010
0001
,
2002
0000
0000
3003
,
1000
0010
0001
0001
,
0100
0001
0010
0010
,
1000
0100
0010
0001
,
2000
0001
0001
3001
,
1000
0100
0001
0001
,
0010
0001
0100
0100
,
1000
0010
0100
0001
,
2000
0001
3001
1001
,
1000
0010
0001
0001
,
0100
0001
0010
1010
,
1000
0100
0001
0001
,
0010
0001
0100
1100
,
1000
0010
0001
0001
,
1000
0100
0010
1010
,
1000
0001
0010
0010
,
1000
0001
0100
1001
,
1000
0010
0100
1000
,
0001
0000
0010
0000
0100
0100
0100
0000
,
0001
0010
0100
0001
,
1000
1100
0001
0101
,
1000
0010
0100
1000
,
0001
0000
0010
0000
0100
0100
0100
0000
,
0001
0010
1000
0001
,
0101
0000
0000
1100
0000
0000
2002
0000
,
3003
0000
0000
0000
;

//---------------dance-single - ----------------
#NOTEDATA:;
#CHARTNAME:;
#STEPSTYPE:dance-single;
#DESCRIPTION:;
#CHARTSTYLE:;
#DIFFICULTY:Beginner;
#METER:4;
#RADARVALUES:0.245218,0.246654,0.030928,0.046393,0.000000,222.000000,218.000000,4.000000,6.000000,0.000000,0.000000,0.000000,0.000000,0.000000,0.245218,0.246654,0.030928,0.046393,0.000000,222.000000,218.000000,4.000000,6.000000,0.000000,0.000000,0.000000,0.000000,0.000000;
#CREDIT:;
#NOTES:
// measure 0
0000
0000
0000
0000
,  // measure 1
0000
0000
0000
0000
,  // measure 2
0000
0000
0000
0000
,  // measure 3
0000
0000
0000
0000
,  // measure 4
1000
1000
1000
0000
,  // measure 5
0010
0010
0010
0000
,  // measure 6
0100
0100
0100
0000
,  // measure 7
0001
0000
1000
1000
,  // measure 8
1000
0000
0001
0000
,  // measure 9
0010
0010
0010
0010
,  // measure 10
0010
0000
0100
0000
,  // measure 11
1000
1000
1000
0000
,  // measure 12
0001
0000
0100
0000
,  // measure 13
0010
0010
0010
0010
,  // measure 14
0010
0000
0100
0000
,  // measure 15
0001
0001
0001
0001
,  // measure 16
0001
0000
0010
0000
,  // measure 17
0100
0100
0100
0000
,  // measure 18
1000
0000
0001
0000
,  // measure 19
0010
0010
0010
0000
,  // measure 20
0001
0001
0001
0000
,  // measure 21
1000
1000
1000
0000
,  // measure 22
0010
0000
0100
0000
,  // measure 23
2002
0000
0000
3003
,  // measure 24
0001
0001
0001
0000
,  // measure 25
1000
1000
1000
0000
,  // measure 26
0010
0000
0100
0000
,  // measure 27
0001
0001
0001
0001
,  // measure 28
1000
1000
1000
0000
,  // measure 29
0100
0100
0100
0000
,  // measure 30
0010
0010
0010
0010
,  // measure 31
0020
0000
0030
1001
,  // measure 32
0001
0001
0001
0000
,  // measure 33
0100
0100
0100
0000
,  // measure 34
0010
0010
0010
0000
,  // measure 35
1000
0000
0001
0001
,  // measure 36
0001
0001
0001
0000
,  // measure 37
0010
0010
0010
0000
,  // measure 38
0100
0100
0100
0000
,  // measure 39
1000
0000
0001
0001
,  // measure 40
0001
0000
0100
0000
,  // measure 41
1000
1000
1000
1000
,  // measure 42
1000
0000
0010
0000
,  // measure 43
0001
0001
0001
0000
,  // measure 44
1000
0000
0100
0000
,  // measure 45
0001
0001
0001
0001
,  // measure 46
0001
0000
0010
0000
,  // measure 47
1000
1000
1000
1000
,  // measure 48
1000
0000
0001
0000
,  // measure 49
0100
0100
0100
0000
,  // measure 50
0010
0000
1000
0000
,  // measure 51
0001
0001
0001
0000
,  // measure 52
0010
0010
0010
0000
,  // measure 53
0100
0100
0100
0000
,  // measure 54
1000
0000
0001
0000
,  // measure 55
0220
0000
0000
0330
,  // measure 56
0001
0001
0001
0000
,  // measure 57
1000
1000
1000
0000
,  // measure 58
0100
0000
0010
0010
,  // measure 59
0010
0000
0100
0000
,  // measure 60
1000
1000
1000
0000
,  // measure 61
0001
0001
0001
0000
,  // measure 62
0100
0100
0100
0100
,  // measure 63
0200
0000
0300
1001
,  // measure 64
0001
0001
0001
0000
,  // measure 65
0010
0010
0010
0000
,  // measure 66
1000
1000
1000
0000
,  // measure 67
0100
0100
0100
0100
,  // measure 68
0100
0000
0010
0000
,  // measure 69
1000
1000
1000
0000
,  // measure 70
0001
0001
0001
0000
,  // measure 71
0010
0010
0010
0010
,  // measure 72
0010
0010
0010
0000
,  // measure 73
0100
0100
0100
0000
,  // measure 74
1000
1000
1000
0000
,  // measure 75
0001
0001
0001
0001
,  // measure 76
0001
0001
0001
0000
,  // measure 77
0100
0100
0100
0000
,  // measure 78
0010
0010
0010
0000
,  // measure 79
1000
1000
1000
1000
;
