#VERSION:0.83;
#TITLE:Sparkling Laser Beam;
#SUBTITLE:;
#ARTIST:you;
#TITLETRANSLIT:;
#SUBTITLETRANSLIT:;
#ARTISTTRANSLIT:;
#GENRE:;
#ORIGIN:;
#CREDIT:;
#BANNER:Sparkling Laser Beam.png;
#BACKGROUND:Sparkling Laser Beam-bg.png;
#PREVIEWVID:;
#JACKET:Sparkling Laser Beam-jacket.png;
#CDIMAGE:;
#DISCIMAGE:;
#LYRICSPATH:;
#CDTITLE:;
#MUSIC:Sparkling Laser Beam.ogg;
#OFFSET:0.000000;
#SAMPLESTART:91.717010;
#SAMPLELENGTH:15.000000;
#SELECTABLE:YES;
#BPMS:0.000=170.000;
#STOPS:;
#DELAYS:;
#WARPS:;
#TIMESIGNATURES:0.000=4=4;
#TICKCOUNTS:0.000=4;
#COMBOS:0.000=1;
#SPEEDS:0.000=1.000=0.000=0;
#SCROLLS:0.000=1.000;
#FAKES:;
#LABELS:0.000=Song Start;
#BGCHANGES:;
#KEYSOUNDS:;
#ATTACKS:
;

//---------------dance-single - ----------------
#NOTEDATA:;
#CHARTNAME:;
#STEPSTYPE:dance-single;
#DESCRIPTION:;
#CHARTSTYLE:;
#DIFFICULTY:Challenge;
#METER:17;
#RADARVALUES:0.919048,1.050000,0.391667,0.183333,1.083333,772.000000,725.000000,47.000000,22.000000,51.000000,0.000000,0.000000,0.000000,0.000000,0.919048,1.050000,0.391667,0.183333,1.083333,772.000000,725.000000,47.000000,22.000000,51.000000,0.000000,0.000000,0.000000,0.000000;
#CREDIT:;
#NOTES:
// measure 0
0000
0000
0000
0000
,  // measure 1
0000
0000
0000
0000
,  // measure 2
0000
0000
0000
0000
,  // measure 3
0000
0000
0000
0000
,  // measure 4
0000
0000
0000
0000
,  // measure 5
0000
0000
0000
0000
,  // measure 6
1000
0000
0010
0000
1000
0100
0010
0000
0001
0000
0100
0001
0010
0000
0001
0000
,  // measure 7
0001
0010
0100
0000
0010
0100
1000
0000
0001
0010
0100
0010
0001
0100
0010
0000
,  // measure 8
0001
0010
0100
0001
0010
0100
0001
0100
0010
0001
1000
0010
0100
0010
1000
0100
,  // measure 9
0010
0000
0100
0000
0010
0100
1000
0010
0100
0000
0100
0000
1001
0000
0000
0000
,  // measure 10
1010
0000
0000
0M10
0001
0000
0100
0000
0010
0000
0000
0M10
0001
0000
0100
0000
,  // measure 11
0010
0000
0000
0M10
0001
0000
0100
0000
0110
0000
0100
0010
1000
0001
1000
0000
,  // measure 12
0011
0000
0000
0M10
1000
0000
0100
0000
0010
0000
0000
0M10
1000
0000
0100
0000
,  // measure 13
0010
0000
0000
0M10
1000
0000
0100
0000
0010
0001
0100
0010
1000
0100
0010
0001
,  // measure 14
1000
0000
0100
1000
0010
0000
0100
0000
1000
0100
0010
0000
1000
0100
0010
0000
,  // measure 15
1000
0010
0100
0000
1000
0100
0010
0000
0001
0000
0100
1000
0000
0100
0001
0000
,  // measure 16
1000
0001
0010
0100
1000
0000
1000
0001
0010
0100
1000
0000
1000
0001
0010
0001
,  // measure 17
1000
0010
0001
0010
0100
0001
1000
0010
1000
0100
0010
0000
1001
0000
0000
0000
,  // measure 18
1000
0100
1000
0000
0010
0000
M010
0000
0001
0010
0001
0100
0000
0001
0010
0000
,  // measure 19
0001
0100
0001
0000
0010
0000
001M
0000
1000
0100
1000
0000
0010
0000
M010
0000
,  // measure 20
0001
0100
0001
0000
0010
0000
001M
0000
1000
0100
1000
0010
0000
1000
0100
0000
,  // measure 21
1000
0010
1000
0000
0100
1000
0100
0000
0010
0001
0010
0000
0001
0100
0001
0000
,  // measure 22
0010
0000
0010
0100
1000
0000
1000
0000
0010
0000
0010
0100
1000
0000
0100
0000
,  // measure 23
0010
0000
0010
0100
0001
0000
0001
0000
0010
0000
0010
0100
0001
0100
0010
0000
,  // measure 24
0100
0000
0100
0000
1000
0000
1000
0000
0010
1000
0100
0010
0001
0100
0010
0001
,  // measure 25
0010
0100
0000
0001
0010
0100
1000
0001
1000
0000
1000
0000
1020
0000
0000
0000
,  // measure 26
0130
0000
0100
0001
0020
0000
0000
0000
0000
0000
0000
0000
0000
0000
0000
0000
,  // measure 27
0100
0000
0000
0100
0000
0000
0100
0000
0031
0000
0000
0000
0101
0000
0000
0000
,  // measure 28
0011
0001
0100
1000
1000
0100
0001
0010
1000
0001
0100
1000
,  // measure 29
0020
0000
0000
0000
0230
0000
0000
0000
1300
0000
0000
0110
0000
0000
0101
0000
,  // measure 30
MMMM
1200
0000
0000
,  // measure 31
0001
0000
0000
0001
0000
0000
0010
0000
1300
0000
0000
0000
1010
0000
0000
0000
,  // measure 32
0001
0000
0000
0010
0000
0000
0000
0000
0000
1000
0000
0000
0001
0000
0000
0000
0000
0000
1000
0000
0000
0010
0000
0000
0000
0000
0000
0001
0000
0000
1000
0000
0000
0000
0000
0000
0010
0000
0000
0000
0100
0000
0000
0000
1000
0000
0000
0000
,  // measure 33
0001
0000
0000
0000
0010
0000
0000
0000
0100
0000
0000
0000
0001
0000
0000
0000
0010
0000
0000
0000
0100
0000
0000
0000
1000
0000
0000
0100
0000
0000
0010
0000
0000
0000
0000
0000
1001
0000
0000
0000
0000
0000
0000
0000
0000
0000
0000
0000
,  // measure 34
0001
0100
0001
0000
0010
0000
001M
0000
1000
0010
1000
0100
0000
1000
0010
0000
,  // measure 35
1000
0100
1000
0000
0010
0000
M010
0000
0001
0100
0001
0000
0010
0000
001M
0000
,  // measure 36
1000
0100
1000
0000
0010
0000
M010
0000
0001
0100
0001
0010
0000
0001
0100
0000
,  // measure 37
0001
0010
0001
0000
0100
0001
0100
0000
0010
0001
0010
0001
0010
0100
0010
0100
,  // measure 38
0001
1000
0000
0100
0001
0000
1000
0000
0010
0100
0000
1000
0001
0000
0100
0000
,  // measure 39
1000
0001
0000
0010
0100
0000
0001
0000
1000
0100
0000
0001
1000
0000
0010
0000
,  // measure 40
0100
0000
0100
0000
1000
0000
1000
0000
0010
1000
0100
0010
0001
0100
0010
0001
,  // measure 41
0010
0000
0000
0100
0000
0000
0000
0000
0000
0001
0000
0000
0010
0000
0000
0100
0000
0000
1000
0000
0000
0000
0000
0000
MMMM
0000
0000
0000
0000
0000
0000
0000
0010
0000
0000
0000
1002
0000
0000
0000
0000
0000
0000
0000
0000
0000
0000
0000
,  // measure 42
0013
0000
0000
0000
1100
0000
0000
0000
1100
0000
0000
0101
0000
0000
1100
0000
,  // measure 43
1100
0000
0000
0000
0101
0000
0000
0000
0101
0000
0000
1100
0000
0000
0101
0000
,  // measure 44
MMMM
0000
0000
0000
1010
0000
0000
0000
1010
0000
0000
0011
0000
0000
1010
0000
,  // measure 45
1010
0000
0000
0110
0000
0000
1010
0000
0001
0000
1000
0100
0010
0000
0010
0000
,  // measure 46
0011
0000
0000
0000
0001
0100
1000
0100
0001
0000
0000
0010
0000
0000
1000
0000
,  // measure 47
0001
0100
1000
0100
0001
0100
1000
0100
0001
0000
0000
0100
0000
0000
1000
0000
,  // measure 48
0010
0000
0001
0010
1000
0001
0010
0001
1000
0100
0010
0001
1000
0100
0010
0001
,  // measure 49
0100
0010
0001
0010
0100
0001
0010
0100
1000
0000
1000
0000
1001
0000
0000
0000
,  // measure 50
1100
0000
0000
0000
1000
0001
0100
0000
010M
1000
0001
0000
0001
1000
0010
0000
,  // measure 51
M010
0001
1000
0000
1000
0001
0200
0000
1000
0000
1000
0000
0010
0000
0010
0000
,  // measure 52
0002
0000
0000
0303
0000
0000
1000
0000
0100
0000
M100
0000
0101
0000
0001
0000
0010
0000
0001
0000
0100
0000
010M
0000
,  // measure 53
1100
0000
0000
0000
1000
0000
0000
0000
0001
0000
0000
0000
1000
0000
0000
0000
0010
0000
0000
0000
0001
0000
0000
0000
1000
0000
0000
0100
0000
0000
0001
0000
0000
0000
0000
0000
1001
0000
0000
0000
0000
0000
0000
0000
0000
0000
0000
0000
,  // measure 54
0110
0000
0000
0010
1000
0000
0100
0000
0010
0100
0010
0100
0002
0103
0010
0100
,  // measure 55
0010
0100
0010
0100
0002
0103
0010
0100
0010
0100
0010
0100
0002
0103
0010
0001
,  // measure 56
1000
0000
0000
0000
0220
0000
0000
000M
0000
0000
M000
0000
0000
000M
0000
0000
,  // measure 57
M000
0000
0000
000M
0000
0000
M330
0000
0001
0000
1000
0000
0110
0000
0000
0000
,  // measure 58
2000
0000
0000
0000
,  // measure 59
3002
0000
0000
0000
,  // measure 60
0023
0000
0000
0000
0000
0000
0000
0230
,  // measure 61
0000
0000
0000
2300
0000
0000
0000
0000
,  // measure 62
3001
0000
0010
0000
0001
0100
0010
0000
1000
0000
0100
1000
0010
0000
0010
0000
,  // measure 63
1000
0100
1000
0000
0010
0000
M010
0000
0001
0100
0001
0000
0010
0000
001M
0000
,  // measure 64
1000
0000
1000
0000
0001
0000
0001
0000
0100
0001
1000
0100
0010
0001
0100
0010
,  // measure 65
1000
0000
1000
0000
0001
0010
0100
1000
0001
0000
0001
0000
1001
0000
0000
0000
,  // measure 66
1000
0000
0100
0000
0001
0100
0010
0001
1000
0001
0010
0100
1000
0001
1000
0100
,  // measure 67
0001
0100
1000
0001
0100
0001
1000
0100
0010
0000
0010
0000
0001
0000
1000
0000
,  // measure 68
0001
0000
0100
0000
1000
0100
0010
0100
0001
1000
0001
1000
0100
0010
1000
0010
,  // measure 69
0100
1000
0100
0000
0100
0010
0001
0000
0010
0100
1000
0001
0100
0010
0100
0000
,  // measure 70
0010
0000
0100
0000
0001
1000
0001
0100
0010
0000
0100
0001
1000
0000
0100
0010
,  // measure 71
1000
0010
0100
1000
0001
0100
0010
0000
0001
0000
0010
0100
0001
0010
0001
0000
,  // measure 72
1000
0100
0010
0001
1000
0000
1000
0100
0010
0001
1000
0000
1000
0100
0010
0001
,  // measure 73
0100
0010
0001
0010
0100
0001
0010
0100
1000
0010
0100
0000
1001
0000
0000
0000
,  // measure 74
MMMM
0000
0011
0000
MMMM
0000
1020
0001
,  // measure 75
0000
0000
0001
0000
0000
0000
0031
0010
1000
0000
0100
0010
0100
0000
0001
0100
,  // measure 76
1000
0000
1000
0000
1001
0000
0000
0000
0001
0100
0010
0100
0001
0010
0100
0010
,  // measure 77
0100
1001
MMMM
0120
,  // measure 78
1030
0100
1000
0000
0010
0000
M010
0000
0001
0100
0001
0010
0000
0001
0100
0000
,  // measure 79
0001
0010
0001
0000
0100
0001
0100
0000
0010
1000
0010
0000
1000
0100
1000
0000
,  // measure 80
0010
0000
0010
0000
1000
0000
1000
0000
0100
1000
0010
0100
0001
0010
0100
0001
,  // measure 81
0100
0010
0000
0001
0100
0010
1000
0001
1000
0000
1000
0000
1200
0000
0000
0000
,  // measure 82
0301
0000
1000
0010
0002
0000
0000
0000
0000
0000
0000
0000
0000
0000
0000
0000
,  // measure 83
0000
0000
0000
0000
,  // measure 84
0003
0000
0000
0000
;

//---------------dance-single - ----------------
#NOTEDATA:;
#CHARTNAME:;
#STEPSTYPE:dance-single;
#DESCRIPTION:;
#CHARTSTYLE:;
#DIFFICULTY:Hard;
#METER:15;
#RADARVALUES:0.809524,0.910000,0.316667,0.133333,0.675000,680.000000,642.000000,38.000000,16.000000,0.000000,0.000000,0.000000,0.000000,0.000000,0.809524,0.910000,0.316667,0.133333,0.675000,680.000000,642.000000,38.000000,16.000000,0.000000,0.000000,0.000000,0.000000,0.000000;
#CREDIT:;
#NOTES:
// measure 0
0000
0000
0000
0000
,  // measure 1
0000
0000
0000
0000
,  // measure 2
0000
0000
0000
0000
,  // measure 3
0000
0000
0000
0000
,  // measure 4
0000
0000
0000
0000
,  // measure 5
0000
0000
0000
0000
,  // measure 6
1000
0000
0100
0000
0010
0001
1000
0000
0001
0000
0000
0001
0000
0000
0001
0000
,  // measure 7
1000
0010
0100
0001
1000
0100
0010
0001
,  // measure 8
0100
0010
0000
0100
0001
0000
0010
0100
0000
1000
0001
0000
1000
0001
1000
0001
,  // measure 9
1000
0000
0010
0000
0100
0010
0100
0010
0100
0000
0100
0000
0110
0000
0000
0000
,  // measure 10
0010
0000
0000
0010
1000
0000
0100
0000
0010
0000
0000
0010
0001
0000
0100
0000
,  // measure 11
0010
0000
0000
0010
1000
0000
0100
0000
0010
0000
0010
0100
0000
0010
0100
0000
,  // measure 12
1000
0000
0000
1000
0010
0000
0100
0000
0001
0000
0000
0001
0010
0000
0100
0000
,  // measure 13
1000
0000
0000
1000
0010
0000
0100
0000
1000
0000
0100
0000
0010
0000
1000
0000
,  // measure 14
0001
0010
1000
0010
0001
0100
0010
0001
,  // measure 15
1000
0100
0010
0001
1000
1000
0100
0010
,  // measure 16
1000
0100
0001
1000
0010
0001
1000
0100
,  // measure 17
0001
0000
1000
0000
0010
0000
0100
0000
1000
0001
1000
0000
1001
0000
0000
0000
,  // measure 18
1000
0000
1000
0000
0100
0000
0100
0000
0001
0000
0000
0100
0000
0000
1000
0000
,  // measure 19
0001
0100
1000
1000
0001
0010
1000
1000
,  // measure 20
0001
0000
0001
0000
0100
0000
0100
0000
1000
0000
0000
0100
0000
0000
0001
0000
,  // measure 21
1000
0100
0001
0001
1000
0010
0100
1000
,  // measure 22
0001
0000
0000
0100
0010
0000
0001
0000
1000
0000
0000
0100
0010
0000
0010
0000
,  // measure 23
1000
0000
0000
0100
0010
0000
1000
0000
0001
0000
0000
0100
0010
0000
0010
0000
,  // measure 24
0001
0000
0001
0000
0100
0000
0100
0000
0010
0100
0010
0100
0001
0100
0001
0100
,  // measure 25
0001
1000
0000
0001
2000
0000
3200
0000
0320
0000
0100
0000
0032
0000
0000
0000
,  // measure 26
1003
0000
1000
0010
0200
0000
0000
0000
0000
0000
0000
0000
0000
0000
0000
0000
,  // measure 27
0010
0000
0000
0010
0000
0000
0010
0000
0301
0000
0000
0000
1001
0000
0000
0000
,  // measure 28
0001
0010
0100
0010
1000
0010
0100
1000
0001
0100
0010
0100
,  // measure 29
1000
0000
0000
0000
0110
0000
0000
0000
0001
0000
0000
0001
0000
0000
0001
0000
,  // measure 30
1000
0021
0000
0000
,  // measure 31
0100
0000
0000
0100
0000
0000
0100
0000
0031
0000
0000
0000
1001
0000
0000
0000
,  // measure 32
1000
0000
0000
0010
0000
0000
0000
0000
0000
0100
0000
0000
0001
0000
0000
0000
0000
0000
1000
0000
0000
0100
0000
0000
0000
0000
0000
0010
0000
0000
0001
0000
0000
0000
0000
0000
0100
0000
0000
0000
0001
0000
0000
0000
0010
0000
0000
0000
,  // measure 33
0100
0000
0000
0000
1000
0000
0000
0000
0001
0000
0000
0000
0100
0000
0000
0000
0010
0000
0000
0000
0100
0000
0000
0000
0001
0000
0000
1000
0000
0000
0001
0000
0000
0000
0000
0000
1001
0000
0000
0000
0000
0000
0000
0000
0000
0000
0000
0000
,  // measure 34
0001
0000
0001
0000
0100
0000
0100
0000
1000
0000
0000
0100
0000
0000
0001
0000
,  // measure 35
1000
0100
0001
0001
1000
0010
0001
0001
,  // measure 36
1000
0000
1000
0000
0100
0000
0100
0000
0001
0000
0000
0100
0000
0000
1000
0000
,  // measure 37
0001
0100
1000
1000
0001
0010
1000
0100
,  // measure 38
0010
0001
0000
0100
0010
0000
0100
0000
0001
0010
0000
0100
0010
0000
0001
0000
,  // measure 39
0100
0010
0000
0001
0010
0000
0100
0000
0001
0010
0000
1000
0010
0000
0100
0000
,  // measure 40
1000
0000
1000
0000
0010
0000
0010
0000
0100
0010
0100
0010
1000
0010
1000
0010
,  // measure 41
1000
0000
0000
0001
0000
0000
0000
0000
0000
1000
0000
0000
0002
0000
0000
0000
0000
0000
0023
0000
0000
0000
0000
0000
0130
0000
0000
0000
0000
0000
0000
0000
0100
0000
0000
0000
1100
0000
0000
0000
0000
0000
0000
0000
0000
0000
0000
0000
,  // measure 42
0101
0000
0000
0000
0110
0000
0000
0000
0101
0000
0000
0101
0000
0000
0001
0000
,  // measure 43
0011
0000
0000
0000
0110
0000
0000
0000
1100
0000
0000
1100
0000
0000
1000
0000
,  // measure 44
1010
0000
0000
0000
0110
0000
0000
0000
1010
0000
0000
1010
0000
0000
1000
0000
,  // measure 45
1100
0000
0000
1100
0000
0000
0100
0000
0010
0000
0010
0001
0010
0000
0010
0000
,  // measure 46
0011
0000
0000
0000
0001
0100
0010
0000
0001
0000
0000
0010
0000
0000
0100
0000
,  // measure 47
0001
0010
0100
0000
1000
0010
0100
0000
1000
0000
0000
0100
0000
0000
0010
0000
,  // measure 48
1000
0000
1000
0100
0010
0000
0001
0000
0100
0000
0010
0000
1000
0000
0100
0000
,  // measure 49
0001
1000
0010
0001
1000
1000
1001
0000
,  // measure 50
0110
0000
0000
0000
1000
0100
0010
0000
0010
0100
0010
0000
0001
0100
0010
0000
,  // measure 51
0010
0100
0010
0000
0100
0001
1000
0000
0100
0000
0100
0000
0010
0000
0010
0000
,  // measure 52
0110
0000
0000
0001
1000
0100
0010
0100
1000
0001
1000
0100
,  // measure 53
0010
0000
0000
0000
0100
0000
0000
0000
1000
0000
0000
0000
0001
0000
0000
0000
1000
0000
0000
0000
0100
0000
0000
0000
0010
0000
0000
0001
0000
0000
1000
0000
0000
0000
0000
0000
1001
0000
0000
0000
0000
0000
0000
0000
0000
0000
0000
0000
,  // measure 54
1010
0000
0000
0001
0010
0000
0100
0000
1000
0010
1000
0010
0100
0000
0010
0000
,  // measure 55
1000
0100
1000
0100
0010
0000
0100
0000
1000
0010
1000
0010
0100
0001
0100
0001
,  // measure 56
1000
2002
0000
0000
,  // measure 57
0000
0000
3003
0000
1000
0100
0110
0000
,  // measure 58
1000
0100
1000
0100
1000
0100
1000
0100
,  // measure 59
0010
0100
0010
0100
0010
0100
0010
0100
,  // measure 60
0001
0100
0001
0100
0001
0100
0001
1000
,  // measure 61
0001
1000
0001
0100
0010
0001
1000
0001
,  // measure 62
1000
0000
0100
0000
0010
0001
1000
0000
0010
0000
0000
0010
0100
0000
0001
0000
,  // measure 63
1000
1000
0100
0100
0001
0100
1000
1000
,  // measure 64
0001
0000
0001
0000
0100
0000
0100
0000
0010
0100
0010
0100
0001
0100
0001
0100
,  // measure 65
0001
1000
0000
0001
1000
0000
0100
0000
0010
0000
0001
0000
1001
0000
0000
0000
,  // measure 66
0001
0000
0100
0000
0010
1000
0000
0100
0010
0001
1000
0000
0010
0100
0001
0000
,  // measure 67
0010
0100
1000
0000
0001
0010
0100
0000
1000
0000
0010
0000
0100
0000
0001
0000
,  // measure 68
1000
0100
0000
0100
0010
0001
0000
0100
0000
0010
0000
0100
0001
0000
1000
0100
,  // measure 69
0010
0001
0100
0000
0001
0000
0010
0000
0100
1000
0100
1000
0001
1000
0001
0000
,  // measure 70
0100
0000
0010
0000
0100
0001
0000
0010
0000
0010
0100
1000
0000
1000
0010
0100
,  // measure 71
0010
0100
0001
0000
1000
0100
0010
0000
1000
0000
0010
0100
0010
0001
0010
0000
,  // measure 72
0100
1000
0001
0000
0100
0000
0010
1000
0001
0000
0010
0000
0100
1000
0010
0000
,  // measure 73
0001
0010
1000
0000
0001
0010
0100
0000
1000
0001
1000
0000
1001
0000
0000
0000
,  // measure 74
0110
0000
1010
0000
0001
0000
1200
0010
,  // measure 75
0000
0000
0010
0000
0000
0000
0310
0100
1000
0000
0001
1000
0001
0000
1000
0010
,  // measure 76
0100
0000
0100
0000
0110
0000
0000
0000
0001
1000
0001
1000
0001
1000
0001
1000
,  // measure 77
0001
0011
1000
1001
,  // measure 78
0001
0001
0100
0100
1000
0100
0001
0001
,  // measure 79
1000
0100
0001
0001
1000
0010
0001
0001
,  // measure 80
1000
0000
1000
0000
0010
0000
0010
0000
0100
0010
0100
0010
1000
0010
1000
0010
,  // measure 81
1000
0001
0000
1000
0002
0000
0023
0000
0230
0000
0010
0000
2300
0000
0000
0000
,  // measure 82
3001
0000
0001
0100
0020
0000
0000
0000
0000
0000
0000
0000
0000
0000
0000
0000
,  // measure 83
0000
0000
0000
0000
,  // measure 84
0030
0000
0000
0000
;

//---------------dance-single - ----------------
#NOTEDATA:;
#CHARTNAME:;
#STEPSTYPE:dance-single;
#DESCRIPTION:;
#CHARTSTYLE:;
#DIFFICULTY:Medium;
#METER:13;
#RADARVALUES:0.592857,0.700000,0.125000,0.250000,0.229167,498.000000,483.000000,15.000000,30.000000,0.000000,0.000000,0.000000,0.000000,0.000000,0.592857,0.700000,0.125000,0.250000,0.229167,498.000000,483.000000,15.000000,30.000000,0.000000,0.000000,0.000000,0.000000,0.000000;
#CREDIT:;
#NOTES:
0000
0000
0000
0000
,
0000
0000
0000
0000
,
0000
0000
0000
0000
,
0000
0000
0000
0000
,
0000
0000
0000
0000
,
0000
0000
0000
0000
,
1000
0000
0100
0000
0010
0000
0001
0000
0100
0000
0000
0100
0000
0000
0100
0000
,
0001
0010
0100
0010
0001
0100
0010
1000
,
0100
0010
0000
0100
0010
0000
0001
0010
0000
0001
0010
0000
0001
1000
0000
0001
,
1000
1000
0001
0100
1000
0100
0001
0000
,
1000
0000
0000
1000
0100
0000
0010
0000
0100
0000
0000
0100
1000
0000
0001
0000
,
1000
0000
0000
1000
0010
0000
0100
0000
0010
0000
0000
0010
0000
0000
0010
0000
,
0100
0000
0000
0100
0001
0000
1000
0000
0001
0000
0000
0001
0010
0000
0100
0000
,
0010
0000
0000
0010
0001
0000
1000
0000
0001
0000
0100
0000
1000
0000
0100
0000
,
0001
0010
0100
0000
0100
1000
0001
0100
,
1000
0000
0100
0000
0001
0000
0000
0000
0010
0000
0000
0100
0000
0000
1000
0000
,
0001
0100
0001
1000
0100
1000
0001
0100
,
0010
0001
0010
0100
0001
0000
0101
0000
,
1000
1000
0001
0001
1000
0100
0010
0000
,
0010
0001
0100
0100
0001
0010
0100
1000
,
0001
0001
1000
1000
0001
0100
0010
0000
,
0010
1000
0100
0100
1000
0010
0100
0001
,
1000
0000
0000
1000
0100
0000
0010
0000
0001
0000
0000
0001
1000
0000
1000
0000
,
0001
0000
0000
0001
0100
0000
0010
0000
1000
0000
0000
1000
0001
0000
0001
0000
,
0010
0100
1000
0010
0001
0010
1000
0100
,
0010
0000
0000
0010
0001
0000
0100
0000
0010
0000
0010
0000
0200
0000
0000
0000
,
0310
0100
0002
0000
0000
0000
0000
0000
,
1000
0000
0000
1000
0000
0000
1000
0000
1003
0000
0000
0000
0110
0000
0000
0000
,
1000
0000
0100
0010
0000
0001
0100
0000
0001
0010
0000
0100
,
2000
0000
0000
0000
3002
0000
0000
0000
1003
0000
0000
1000
0000
0000
1000
0000
,
0001
0120
0000
0000
,
0100
0000
0000
0100
0000
0000
0100
0000
0130
0000
0000
0000
1001
0000
0000
0000
,
2000
0000
0000
3200
0000
0000
0320
0000
0000
0032
0000
0000
0203
0000
0000
0320
,
0000
0000
2030
0000
0000
3200
0000
0000
0310
0000
0000
0000
0110
0000
0000
0000
,
0001
0001
1000
1000
0001
0010
0100
0000
,
0100
1000
0010
0010
1000
0100
0010
0001
,
1000
1000
0001
0001
1000
0010
0100
0000
,
0100
0001
0010
0010
0001
0100
1000
0100
,
0001
0000
0000
0001
0010
0000
0100
0000
0100
0000
0000
0100
1000
0000
0001
0000
,
0001
0000
0000
0001
0100
0000
0010
0000
0010
0000
0000
0010
1000
0000
0001
0000
,
0100
0010
1000
0100
0001
0100
1000
0010
,
0100
0000
0000
0000
0000
0000
0000
0000
0000
0100
0000
0000
0001
0000
0000
0000
0000
0000
0010
0000
0000
0000
0000
0000
0100
0000
0000
0000
0000
0000
0000
0000
1000
0000
0000
0000
0002
0000
0000
0000
0000
0000
0000
0000
0000
0000
0000
0000
,
1003
0000
0000
0000
0010
0000
0000
0000
0100
0000
0000
0001
0000
0000
0010
0000
,
0100
0000
0000
0000
1000
0000
0000
0000
0001
0000
0000
0001
0000
0000
0001
0000
,
1000
0000
0000
0000
0100
0000
0000
0000
0010
0000
0000
0001
0000
0000
0100
0000
,
0010
0000
0000
1000
0000
0000
0100
0000
0010
0000
0001
0000
0100
0000
0010
0000
,
0001
0000
0000
0000
0010
0000
0100
0000
0001
0000
0000
0010
0000
0000
0100
0000
,
1000
0000
0010
0000
0001
0000
0010
0000
1000
0000
0000
0100
0000
0000
0010
0000
,
0001
2000
0002
0000
0000
0000
0000
0000
,
0000
0000
3003
0110
,
1001
0000
1000
0100
0001
0100
1000
0100
,
0001
0100
1000
0000
0001
0001
1000
1000
,
1001
0000
0000
0000
0001
0010
0000
0010
0100
0000
0100
1000
,
0000
1000
0001
0000
0001
1000
0002
0000
0000
1003
0000
0000
,
0001
0000
0000
0001
0100
0000
0010
0000
1000
0000
0100
0000
0002
0000
0103
0000
,
1000
0010
0002
0013
1000
0100
0002
0103
,
1000
0220
0000
0000
,
0000
0000
0330
0000
1000
0100
0110
0000
,
0020
0000
0000
0000
,
0230
0000
0000
0000
,
2300
0000
0000
0000
0000
0000
0000
3002
,
0000
0000
0000
2003
0000
0000
0000
0000
,
3001
0001
0100
0100
,
0010
0010
1000
1000
,
0100
0010
0001
0100
1000
0100
0001
0010
,
0100
1000
0001
0001
0100
0010
0110
0000
,
1000
0100
0001
0100
1000
0001
0100
1000
,
0001
0010
1000
0100
0010
0100
1000
0001
,
1000
0100
0010
0001
0100
0010
1000
0100
,
0001
0100
0010
1000
0001
0100
0010
0001
,
0000
0001
0010
0100
1000
0001
0100
0010
,
0001
0010
0100
0001
0010
0100
1000
0001
,
0100
0010
0001
1000
0100
0010
0001
1000
,
0100
0001
0010
0100
1000
0000
1100
0000
,
0001
0000
0110
0000
0001
0000
0020
0100
,
0000
0100
0130
1000
0010
1000
0100
0010
,
0001
0001
0001
0000
0001
0010
0100
1000
,
0001
0110
0001
1001
,
1000
1000
0001
0001
1000
0100
0010
0000
,
0010
0001
0100
0100
0001
0010
0100
1000
,
0010
0100
0001
0010
1000
0010
0001
0100
,
0010
0000
0000
0010
1000
0000
0100
0000
0010
0000
0010
0000
0200
0000
0000
0000
,
0310
0001
2000
0000
0000
0000
0000
0000
,
0000
0000
0000
0000
,
3000
0000
0000
0000
;

//---------------dance-single - ----------------
#NOTEDATA:;
#CHARTNAME:;
#STEPSTYPE:dance-single;
#DESCRIPTION:;
#CHARTSTYLE:;
#DIFFICULTY:Easy;
#METER:10;
#RADARVALUES:0.427381,0.560000,0.525000,0.241667,0.037500,359.000000,296.000000,63.000000,29.000000,0.000000,0.000000,0.000000,0.000000,0.000000,0.427381,0.560000,0.525000,0.241667,0.037500,359.000000,296.000000,63.000000,29.000000,0.000000,0.000000,0.000000,0.000000,0.000000;
#CREDIT:;
#NOTES:
0000
0000
0000
0000
,
0000
0000
0000
0000
,
0000
0000
0000
0000
,
0000
0000
0000
0000
,
0000
0000
0000
0000
,
0000
0000
0000
0000
,
1000
0001
1000
0000
0010
0000
0010
0000
,
1000
0001
1000
0000
0100
0000
0010
0000
,
0001
0000
0000
1000
0000
0000
0001
0000
0000
1000
0000
0000
0001
0000
0000
1000
,
0000
0000
0000
0110
,
1000
0000
0100
0000
1000
0000
0100
1000
,
0100
0010
0011
1001
,
0001
0000
0100
0000
0001
0000
0100
0001
,
0100
0000
0010
0000
0100
0010
0100
0000
,
0010
1000
0100
0001
,
0010
0001
0100
1000
,
1000
0001
0100
1000
,
0010
0001
1000
1001
,
0001
0110
0001
0110
,
1000
0110
1000
0110
,
0010
1001
0010
1001
,
0100
1001
0100
1001
,
1000
1100
0100
0110
,
0010
0011
0001
1001
,
1000
0000
1000
0000
0001
1000
0001
1000
,
0001
0000
0100
1001
,
0100
0220
0000
0000
,
0000
0000
0330
1000
,
0002
0100
1000
0010
,
2003
3020
0100
0130
,
0001
2002
0000
0000
,
0000
0000
3003
1000
,
0002
0023
0230
2300
,
3002
1000
1003
1001
,
0001
0110
0001
0110
,
1000
0110
1000
0110
,
0010
1001
0010
1001
,
0100
0000
1001
0000
1000
0001
1000
0000
,
0001
0101
0100
1100
,
1000
1010
0010
0011
,
1000
0000
1000
0000
0001
1000
0001
1000
,
0001
0000
0100
1001
,
0110
0000
0000
0000
1000
0000
0000
0000
1000
0000
0000
1000
0000
0000
0000
0000
,
0001
0000
0000
0000
1000
0000
0000
0000
0001
0000
0000
0001
0000
0000
0000
0000
,
0002
0000
0000
0000
0103
0000
0000
0000
0010
0000
0000
0010
0000
0000
0000
0000
,
0100
0000
0000
0100
0000
0000
0000
0000
0001
0000
0000
0000
0010
0000
0000
0000
,
0011
0000
0000
0000
0100
0000
0000
0000
1000
0000
0000
0001
0000
0000
0000
0000
,
0100
0000
0000
0000
0100
0000
0000
0000
0001
0000
0000
1000
0000
0000
0000
0000
,
0100
0220
0000
0000
,
0000
0000
0330
0001
,
0001
0110
1001
0110
,
1001
0110
0010
0010
,
0100
0002
0010
0010
,
0010
0013
0100
0110
,
1000
0110
0001
0110
,
1000
0110
0001
0110
,
0001
2002
0000
0000
,
0000
0000
3003
0110
,
2000
0000
0000
0000
,
3200
0000
0000
0000
,
0320
0000
0000
0000
0000
0000
0000
0032
,
0000
0000
0000
2003
0000
0000
0000
0000
,
3001
0100
0010
1000
,
0001
0010
0100
1000
,
0001
0000
0001
0000
1000
0001
1000
0001
,
1000
0000
0000
0110
,
1000
0001
1000
0000
0110
0000
1001
0000
,
0001
1000
0001
0000
0110
0000
1001
0000
,
0100
0010
0100
0000
1001
0000
0110
0000
,
0010
0100
0010
0000
1001
0000
0110
0000
,
1000
0010
1000
0000
1000
0001
1000
0000
,
1000
0100
1000
0000
0100
0010
0100
0000
,
0010
0001
0010
0000
0010
0100
0010
0000
,
0100
1000
0100
1000
0001
0000
1001
0000
,
0100
0000
0020
0000
0100
0000
1030
0010
,
0000
0010
0000
0010
1000
0000
1000
0000
,
0001
1000
0001
0000
2000
0000
0000
0000
,
3001
0020
0130
2000
,
3001
0110
0001
0110
,
0100
1001
0100
1001
,
1000
0000
1000
0000
0001
1000
0001
1000
,
0001
0000
0100
1001
,
0100
0220
0000
0000
,
0000
0000
0000
0000
,
0330
0000
0000
0000
;

//---------------dance-single - ----------------
#NOTEDATA:;
#CHARTNAME:;
#STEPSTYPE:dance-single;
#DESCRIPTION:;
#CHARTSTYLE:;
#DIFFICULTY:Beginner;
#METER:6;
#RADARVALUES:0.248810,0.350000,0.125000,0.100000,0.000000,209.000000,194.000000,15.000000,12.000000,0.000000,0.000000,0.000000,0.000000,0.000000,0.248810,0.350000,0.125000,0.100000,0.000000,209.000000,194.000000,15.000000,12.000000,0.000000,0.000000,0.000000,0.000000,0.000000;
#CREDIT:;
#NOTES:
0000
0000
0000
0000
,
0000
0000
0000
0000
,
0000
0000
0000
0000
,
0000
0000
0000
0000
,
0000
0000
0000
0000
,
0000
0000
0000
0000
,
1000
1000
1000
0000
,
0001
0001
0001
0000
,
1000
0001
1000
0001
,
1000
0000
0000
0001
,
0001
0000
0000
0100
,
0100
0000
0010
0010
,
0010
0000
0000
1000
,
1000
0000
0001
0001
,
0001
1000
0001
0000
,
0010
0100
0010
0000
,
0001
1000
0001
0000
,
0100
0010
0100
0100
,
0100
0000
0001
0001
,
0001
0000
1000
1000
,
1000
0000
0100
0100
,
0100
0000
0010
0010
,
0000
1001
0000
1001
,
0000
0110
0000
0110
,
0000
0001
1000
0001
,
2000
0000
3000
0001
,
0000
0002
0000
0000
,
0000
0000
0003
0100
,
0200
0000
0000
0000
,
0300
0100
0100
0100
,
0000
0002
0000
0000
,
0000
0000
0003
1000
,
0002
0000
0000
0000
,
0000
0000
0003
0001
,
1000
0000
1000
1000
,
1000
0000
0001
0001
,
0001
0000
0100
0100
,
0100
0000
0010
0010
,
0010
0100
0010
0100
,
0010
1000
0010
1000
,
0001
0001
1000
0001
,
1000
0000
0100
0010
,
0010
0010
0000
0000
,
0001
0000
0000
0000
,
1000
1000
0000
0000
,
0010
0000
0100
0100
,
0100
0000
0001
0001
,
0001
1000
0001
0001
,
1000
2000
0000
0000
,
0000
0000
3000
1000
,
0001
0010
0100
0010
,
0100
0010
0000
0000
,
0001
1000
1000
0001
,
0001
1000
1000
1000
,
0000
1001
0000
1001
,
0000
0110
0000
0110
,
0000
2002
0000
0000
,
0000
0000
3003
0001
,
0001
0000
0000
0000
,
0100
0000
0000
0000
,
0010
0000
0000
0000
,
1000
0000
0000
0000
,
0001
0000
0000
0000
,
1000
0000
0000
0000
,
0001
1000
0001
1000
,
0001
0000
0000
0010
,
0100
0100
0100
0100
,
1000
1000
1000
1000
,
0001
0001
0001
0001
,
0100
0100
0100
0100
,
0010
0010
0010
0010
,
1000
1000
1000
1000
,
0100
0100
0100
0100
,
0010
0010
0010
0010
,
0000
0001
0000
0002
,
0000
0003
0001
0000
,
1001
1001
2000
0000
,
3000
1000
0000
0001
,
0000
0110
0000
0110
,
0000
1001
0000
1001
,
0000
1000
0001
1000
,
0002
0000
0003
1000
,
0010
0020
0000
0000
,
0000
0000
0000
0000
,
0030
0000
0000
0000
;
