#TITLE:Snowstorm;
#SUBTITLE:;
#ARTIST:Fractus;
#TITLETRANSLIT:;
#SUBTITLETRANSLIT:;
#ARTISTTRANSLIT:;
#GENRE:;
#CREDIT:Braeden;
#MUSIC:Snowstorm.ogg;
#BANNER:Snowstorm.png;
#BACKGROUND:Snowstorm-bg.png;
#JACKET:Snowstorm-jacket.png;
#CDTITLE:;
#SAMPLESTART:78.171;
#SAMPLELENGTH:15.000;
#SELECTABLE:YES;
#OFFSET:0.000;
#BPMS:0.000=175.000
,100.000=87.500
,156.000=175.000
,168.000=87.500
,170.000=175.000
;
#STOPS:290.000=1.029;
#BGCHANGES:;
#FGCHANGES:;

//--------------- dance-single - ----------------
#NOTES:
     dance-single:
     :
     Beginner:
     3:
     0,0,0,0,0:
0000
0000
0000
0000
,
0000
0000
0000
0000
,
0000
0000
0000
0000
,
0000
1000
0000
0001
,
0000
0100
0000
0010
,
0000
1000
0000
0100
,
0000
0010
0000
0001
,
0000
0100
0000
0000
,
1001
0000
0000
0000
,
0001
0001
0000
0100
,
0000
0010
0000
1000
,
0000
0001
0000
0010
,
0000
0100
0000
1000
,
1000
0000
0001
0000
,
0100
0000
0010
0000
,
1000
0000
0100
0000
,
0010
0000
0000
0000
,
1001
0000
0001
0000
,
0000
0000
1000
0000
,
0001
0000
0100
0000
,
0010
0000
1000
0000
,
1001
0000
0001
0000
,
0100
0000
0010
0000
,
1001
0000
0000
0000
,
0000
0000
0000
0000
,
1000
0000
0001
0000
,
0100
0000
0010
0000
,
1000
0000
0100
0000
,
0010
0000
0001
0000
,
0200
0000
0300
0000
,
0002
0000
0003
0000
,
0200
0000
0300
0000
,
1001
0000
0000
0000
,
1001
0000
0000
0000
,
0001
0000
0100
0000
,
0020
0000
0030
0000
,
0100
0000
0001
0000
,
2002
0000
3003
0000
,
0001
0000
0100
0000
,
0110
0000
0000
0100
,
0100
0000
0000
0010
,
0010
0000
1000
0000
,
1001
0000
1001
0000
,
0001
0000
0100
0000
,
0010
0000
1000
0000
,
0000
0000
0001
0000
,
0100
0000
0000
0100
,
0000
0010
0000
1000
,
0000
0001
0000
0010
,
0000
0100
0000
1000
,
0000
0000
1001
0000
,
0001
0000
1000
0000
,
0010
0000
0100
0000
,
0001
0000
0010
0000
,
0100
0000
1000
0000
,
0001
0000
0100
0000
,
0001
0000
1001
0000
,
0000
0000
0110
0000
,
0000
0000
0100
0000
,
0010
0000
1000
0000
,
0001
0000
0010
0000
,
0110
0000
0100
0000
,
0100
0000
0010
0000
,
1000
0000
0001
0000
,
0000
0000
1000
0000
,
0001
0000
0010
0000
,
0000
0000
1001
0000
,
0001
0000
0100
0000
,
0010
0000
0100
0000
,
0001
0000
0010
0000
,
0100
0000
0010
0000
,
0001
0000
0100
0000
,
0010
0000
0110
0100
,
0000
0000
0000
0010
;

//--------------- dance-single - ----------------
#NOTES:
     dance-single:
     :
     Easy:
     7:
     0,0,0,0,0:
0000
0000
0000
0000
,
0000
0000
0000
0000
,
0000
0000
0000
0000
,
1000
0001
0100
0010
,
1000
0100
0010
0001
,
0100
0010
1000
0001
,
0010
0100
1000
0001
,
0100
0010
1000
0100
,
1001
0000
0001
1000
,
1001
0001
0100
0010
,
1000
0100
0010
0001
,
0100
0010
0100
0001
,
0010
0100
1000
0001
,
2000
3010
2000
3010
,
0200
0310
0200
0310
,
2000
3100
0020
0031
,
0200
0000
0000
0310
,
1000
0000
0001
0000
1000
0000
0000
0001
,
0000
0100
0010
1000
,
0001
0010
0100
1000
,
0001
0100
0010
0100
,
1001
0000
1000
0000
0010
0000
0000
0100
,
0000
0001
0010
0100
,
1100
0000
1000
0000
0000
0001
0000
0100
,
0000
0001
1000
0010
,
1M01
0001
0100
0010
,
1000
0100
1000
0001
,
0100
0010
1000
0100
,
1000
0001
0100
0010
,
1000
0001
0010
0100
,
0010
0000
0002
0000
2003
0000
3001
0001
,
0000
0100
0010
0100
0000
0001
0000
1000
,
2002
0000
0000
3003
,
0001
1000
0001
0000
0000
0010
0100
0000
,
0020
0000
0032
1003
,
0002
2003
3000
0002
,
2003
0000
3000
0000
0001
0100
0010
1000
,
1010
0002
0000
0203
,
0320
0000
0000
0000
1030
0000
0001
1000
,
10M1
0000
0000
0001
0000
0000
0100
0000
,
0110
0000
0000
0010
0000
0000
1000
0000
,
1001
0000
1001
0000
,
10M1
0000
M101
0001
,
0100
0000
0000
0010
0000
0000
1000
0000
,
0100
0000
0010
0000
0001
0000
0000
0100
,
0000
0010
0000
1000
0000
0000
0001
0000
,
0010
0100
1000
0001
,
1000
0010
1000
0001
,
0100
0010
1000
0001
,
0010
0001
0100
0010
,
1000
0100
1001
0001
,
0100
0010
1000
0001
,
0010
0100
1000
0001
,
0010
0001
0100
0010
,
1000
0100
0010
0001
,
0100
0010
1000
0001
,
0010
0100
1001
0000
,
0000
0000
1001
1000
,
0001
0100
0110
0010
,
1000
0001
0010
0001
,
0002
1003
0010
0100
,
1010
1000
1001
1001
,
0001
1000
0010
0100
,
0001
0010
0100
1000
,
1000
0001
0100
0010
,
1000
0100
2000
0000
,
3000
0001
0100
0010
,
1000
0100
1000
0001
,
0010
0100
1000
0001
,
0100
0001
0010
0001
,
1000
0010
1000
0001
,
0010
0100
1000
0001
,
0100
0010
1001
1001
,
0100
0010
1000
0101
;

//--------------- dance-single - XMOD XO ----------------
#NOTES:
     dance-single:
     XMOD XO:
     Medium:
     11:
     0,0,0,0,0:
0000
0000
0000
0000
,
0000
0000
0000
0000
,
0000
0000
0000
0000
,
1000
0000
0001
0000
1000
0000
0000
0000
0001
0000
0000
1000
0000
0010
0000
0000
,
1000
0000
0100
0000
0010
0000
0001
0000
0010
0000
0000
0100
0000
0000
1000
0000
,
0001
0000
0000
0100
0000
0000
0010
0000
1000
0000
0000
0001
0000
0010
0000
0000
,
0100
0000
1000
0000
0001
0000
0100
0000
0010
0000
0000
1000
0000
0001
0000
0000
,
1000
0000
0100
0000
0010
0000
0000
0000
0001
0000
0000
1000
0000
0010
0000
0000
,
1010
0000
0010
0000
1000
0000
0001
1000
,
0001
0000
0101
0000
0100
0010
1000
0000
,
0001
0100
0001
0010
0001
1000
0010
0000
,
1000
0000
0100
0000
0010
0000
0000
0000
0001
0000
0000
1000
0001
0000
0000
0000
,
0100
0000
0010
0000
1000
0000
0100
0000
0010
0000
0000
0001
0000
0000
1000
0000
,
0010
0000
0000
0100
0000
0000
0001
0000
1000
0000
0000
0100
0000
0010
0000
0000
,
0001
0000
1000
0000
0001
0000
0100
0000
0010
0000
0000
1000
0000
0001
0000
0000
,
0010
0000
0100
0000
1000
0000
0000
0000
0001
0000
0000
0100
0000
0010
0000
0000
,
2000
0000
0000
0000
0000
0000
3001
0100
,
0001
0100
1000
0000
0100
0000
0001
0020
,
0000
0130
1000
0000
0001
1000
0010
0000
,
0001
0010
1000
0000
0100
0010
0001
0000
,
1000
0001
0100
0000
0010
1000
0100
0000
,
1000
0100
0001
0000
0100
0010
0100
2000
,
0000
3001
0100
0000
0010
1000
0001
0000
,
1001
0000
1000
0010
0000
0100
0000
0001
,
0000
0010
0001
0000
0100
0000
0010
1000
,
10M1
0001
0100
0010
1000
0001
0100
0010
,
0100
0010
2000
3001
,
0100
0010
1000
0001
0010
0100
1000
0001
,
0200
0000
0310
1000
0001
0100
0020
0000
,
0030
1000
0001
0100
0000
0020
0000
2030
,
0000
3000
0002
0000
0023
0000
0130
0200
,
0000
1300
0010
0200
0000
0302
0000
1003
,
2002
3003
2000
3000
,
1001
0000
1000
0000
0001
0000
0000
0100
0000
0000
0010
0000
1000
0000
0000
0000
,
0100
0000
0000
0010
0000
0001
0000
0100
0000
0010
1000
0000
0001
0000
0100
0000
,
0001
1000
0000
0000
0001
0000
0000
0100
0000
0010
1000
0000
0001
0100
0000
0000
,
0001
0000
0000
1000
0000
0010
0000
0100
0000
0001
0010
0000
0001
0000
1000
0000
,
1001
0000
0000
0000
0001
0000
0000
0100
0000
0000
0010
0000
1000
0000
0000
0000
,
0001
0000
0000
0100
0000
0010
0000
1000
0000
0000
0001
0000
0010
0000
0001
0000
,
1M00
0010
0000
1000
0000
0001
0010
0001
,
0100
0010
0000
1000
0000
0001
0100
0001
,
0100
0010
1010
1000
,
2002
0000
3003
0000
1000
0200
0000
0000
,
0301
0000
0000
0100
0000
1000
0001
0000
,
0100
0010
0000
0000
2000
0000
3010
0100
,
0000
1000
0000
0100
0000
0001
1000
0000
,
0001
0000
0100
0010
0001
0010
0100
0000
,
0001
0000
1000
0010
0000
0100
0001
0000
,
0010
0001
0100
0000
0001
0000
0010
1000
,
0000
0010
0000
0100
0000
1000
0001
0000
,
0100
0000
0010
0000
1000
0010
1000
0100
,
0010
0000
0001
0100
0000
0010
1000
0000
,
0001
0010
0100
1000
0001
0000
1000
0010
,
0000
0100
0000
1000
0000
0100
0010
0000
,
0100
0000
0010
1000
0001
0010
0001
0000
,
1000
0000
0001
0100
0000
0010
1000
0000
,
0001
0010
0100
1000
0001
0000
0100
0010
,
0000
0100
0000
0001
0010
0001
1000
0000
,
0001
0010
0100
1000
0001
0100
0010
0000
,
1000
0001
2000
0010
3000
0010
0100
0010
,
1000
0001
0100
0000
0010
0100
0001
0000
,
1001
0010
1001
1001
,
0001
0000
0100
0000
0010
1000
0100
1000
,
0001
0000
0100
0010
0000
1000
0001
0000
,
0010
0100
0010
0001
,
1000
0000
0010
0000
0100
0001
0100
0001
,
1000
0000
0100
0000
1000
0000
0001
0000
0100
0000
0000
0010
0000
0000
0100
0000
,
0001
0000
0000
0100
0000
0010
0000
0000
1000
0000
0100
0000
0010
0000
0001
0000
,
0010
0000
0000
0100
0000
1000
0000
0000
0001
0000
0100
0000
0001
0000
1000
0000
,
0010
0000
0000
1000
0000
0100
0000
0000
1000
0000
0001
0000
1000
0000
0001
0000
,
1000
0000
0000
0010
0000
0000
0100
0000
0001
0000
0000
0010
0000
0000
0001
0000
,
1000
0000
0000
0010
0000
1000
0000
0000
0001
0000
0010
0000
0001
0000
0100
0000
,
0010
0000
0000
1000
0000
0001
0000
0000
1001
0000
0000
0000
1000
0000
0100
0000
,
0010
0001
0010
0001
1000
0100
1100
0000
;

//--------------- dance-single - XMOD XO ----------------
#NOTES:
     dance-single:
     XMOD XO:
     Hard:
     15:
     0,0,0,0,0:
0000
0000
0000
0000
,
0000
0000
0000
0000
,
0000
0000
0000
0000
,
0001
0000
1000
0001
0000
0000
1000
0000
0100
0010
0000
0001
0000
0010
0000
0000
,
0100
0000
1000
0000
0001
0100
0001
0000
1000
0000
0000
0010
0000
0000
1000
0000
,
0100
0010
0000
0001
0000
0000
1000
0000
0001
0100
0000
0001
0000
1000
0000
0000
,
0001
0000
0010
0000
0100
0000
1000
0000
0001
0000
0100
0010
0000
1000
0000
0000
,
0001
0000
0010
0100
0000
0000
1000
0000
0001
0100
0000
0001
0000
1000
0000
0000
,
1001
0000
0001
0000
0100
0000
0000
0000
0010
0000
0000
0000
1000
0001
1000
0001
,
1000
0100
0000
0010
0001
0000
0100
0000
0010
1000
0000
0001
0000
0010
0000
0000
,
0001
0000
1000
0000
0010
0000
1000
0000
0001
0000
1000
0010
0000
0100
0000
0000
,
0001
0000
1000
0010
0000
0000
1000
0000
0001
0010
0000
0100
0000
1000
0000
0000
,
0001
0000
1000
0000
0010
0100
0010
0000
1000
0000
0001
0100
0000
0001
1000
0000
,
0001
0100
0000
0010
0000
0000
1000
0000
0001
0010
0000
0100
0000
1000
0000
0000
,
0001
0000
0100
0000
0010
0000
1000
0000
0001
0000
0010
0100
0000
1000
0000
0000
,
0001
0000
0100
0010
0100
0000
0001
0000
1000
0010
0000
0100
0000
0001
0000
0000
,
2000
0000
0000
0000
0000
0000
0000
0000
0000
0000
0000
0000
3001
0100
0001
0100
,
0001
0100
1000
0100
0001
0000
0001
0100
,
0000
0100
0010
0000
0010
1000
0001
0000
,
1000
0100
0000
1000
0000
0001
0100
0000
0010
1000
0000
0010
1000
0000
0001
0000
,
1000
0100
0000
0010
0000
0001
1000
0000
0001
0100
0000
0010
1000
0000
0000
0000
,
1001
0001
0010
0100
0001
0100
0010
0001
,
0000
0001
1000
0000
1000
0010
0100
0000
,
0110
0000
0010
0100
0000
0001
0000
0100
,
0000
0000
0010
0000
1000
0000
0000
0000
0001
0000
0000
0000
1000
0001
0100
0001
,
M010
0100
0010
0001
1000
0010
0100
0001
,
0200
0302
2003
3002
,
0013
0001
0010
0001
0100
0010
1000
0001
,
2000
0000
3010
1000
0010
0100
0001
0000
,
0010
0100
1000
0001
0000
0100
0000
0010
,
2000
0000
3002
0000
0023
0000
0130
0010
,
0001
0100
0010
2000
0000
3020
0000
0130
,
0220
0000
0000
0330
0020
0000
0030
0000
,
1000
0001
1000
0000
0010
0000
1000
0001
0000
0100
0001
0000
0010
0001
0000
0000
,
1000
0000
0100
0010
0000
0001
0000
0010
0000
0100
1000
0000
0001
0000
0100
0010
,
0100
0001
0000
0000
1000
0000
0010
0100
0000
0001
0100
0000
0010
1000
0000
0000
,
0001
0000
0010
0100
0000
1000
0000
0100
0000
0010
0001
0000
1000
0000
0010
1000
,
0010
0100
0000
0000
0001
0000
0010
0100
0000
0010
0001
0000
1000
0010
0000
0000
,
0100
0000
0001
0010
0000
0001
0000
0100
0000
0010
1000
0000
0001
0000
0010
0000
,
0M11
0001
0000
1000
0000
0010
0010
0010
,
0100
0000
0001
0000
0000
0000
1000
0000
0000
0000
0100
0000
0010
0100
0010
0000
,
0100
0000
0001
1000
0001
0100
0010
1000
,
1M10
0000
0010
0000
1000
0000
0001
1000
0001
0000
1000
0000
0010
0000
0100
0000
,
1000
0100
0010
1000
0000
0100
0010
0000
,
0001
0100
0001
0010
0100
0000
1000
0010
,
0000
0001
0000
0010
0000
1000
0100
0000
,
0010
0000
0001
0100
0010
0100
0101
0000
,
0001
0000
0100
0010
0000
0010
0001
0000
,
0010
1000
0001
0100
0010
0001
0010
1000
,
0100
0010
0100
1000
0001
0100
0010
0100
,
0001
0000
0000
0000
1000
0001
1000
0001
1000
0000
0010
0000
0100
0000
0010
0000
,
0001
0010
0100
0001
0000
0010
0100
0000
,
1000
0001
0100
0010
1000
0000
0100
0001
,
0000
0100
0000
1000
0010
0100
0001
0000
,
1001
0000
1000
0010
0001
0010
0001
0010
,
1000
0100
0010
0001
0000
0100
0010
0000
,
1000
0001
0100
0010
1010
0000
1000
0100
,
0000
0010
0000
0001
0100
0010
1000
0000
,
0001
1000
0001
1000
0010
0100
0010
0100
0001
0000
0010
0000
0000
0000
0100
0000
,
1000
0001
1000
0020
0000
0130
0001
1000
,
0001
0000
0100
0000
0110
0000
0000
0000
0010
1000
0010
1000
0001
0000
0000
0000
,
1001
1000
1010
0110
,
0100
0001
0100
0001
0010
0010
0100
1000
,
0001
0100
0010
1000
0000
0001
0010
0001
,
0100
0010
1000
0100
0010
0000
0001
0000
,
0100
0000
0010
0000
1000
0001
1000
0100
,
0010
0000
0100
0000
1000
0001
1000
0001
1000
0010
0000
0100
0001
0000
1000
0000
,
0001
0010
0000
0100
0000
0010
0000
0000
0001
0000
0100
0000
0010
0000
1000
0000
,
0001
0000
1000
0010
0000
1000
0000
0000
0001
0100
0000
0010
1000
0000
0001
0000
,
1000
0010
0000
1000
0000
0001
0000
0000
1000
0000
0001
0000
0100
0000
0010
0000
,
1000
0000
0100
0010
0000
0001
0010
0001
1000
0010
0000
0100
0001
0000
1000
0000
,
0001
0100
0000
0010
0000
1000
0000
0000
0001
0000
0010
0000
0100
0000
1000
0000
,
0001
0000
1000
0010
0100
0001
0000
0000
10M1
0000
0000
0000
1000
0000
0001
0000
,
0100
0010
1000
0001
0010
0100
1100
0000
;

//--------------- dance-single - XMOD FS+ XO ----------------
#NOTES:
     dance-single:
     XMOD FS+ XO:
     Challenge:
     17:
     0,0,0,0,0:
0000
0000
0000
0000
,
0000
0000
0000
0000
,
0000
0000
0000
0000
,
0001
1000
0001
0010
0001
0000
1000
0100
0010
0001
0000
0010
0100
0010
0000
0000
,
0001
0000
1000
0000
0001
0100
0010
0000
1000
0000
0001
0010
0000
0100
1000
0100
,
1000
0010
0000
0100
0001
0000
1000
0100
1000
0100
0000
0010
0001
0010
0000
0000
,
0001
0000
0100
0000
0010
1000
0010
0000
0100
0000
0001
1000
0010
1000
0000
0000
,
0001
0010
0001
0100
0001
0000
1000
0100
0010
0100
0000
1000
0001
1000
0000
0000
,
1001
0000
0001
0000
1000
0100
1000
0000
0001
1000
0010
0100
0001
1000
0001
1000
,
0001
0100
00M0
0100
1000
0000
0001
0000
1000
0100
00M0
0100
0001
1000
0000
0000
,
0001
0000
1000
0000
0100
0010
0100
1000
0001
0000
1000
0100
0010
0001
0000
0000
,
1000
0001
0010
0001
1000
0000
0010
1000
0001
0010
0M00
0010
1000
0001
0000
0000
,
1000
0000
0010
0000
0100
0001
0100
0000
0010
0000
1000
0100
00M0
0100
0001
1000
,
0001
0000
0100
0000
0001
0000
0100
0000
1000
0100
0000
1000
0000
0100
0000
0000
,
0001
0000
0010
0000
0001
0000
0010
0000
1000
0000
0010
1000
0000
0010
0000
0000
,
0001
1000
0100
1000
0001
0000
1000
0010
1000
0100
00M0
0100
0001
1000
0000
0000
,
2002
0000
0000
0000
0000
0000
0000
0000
3003
0000
0000
0000
0001
1000
0001
1000
,
0001
0100
1000
0000
0100
0001
0011
0010
,
0M00
0010
1000
0000
0001
0010
0100
1000
,
0001
0010
0000
0001
0000
1000
0100
0000
0010
0000
0001
1000
0001
0000
1000
0000
,
0001
0100
0000
0010
0000
1000
0010
0000
0100
0001
0000
0100
0001
0000
1000
0000
,
1001
0001
0010
0100
0001
0100
1000
0100
,
00M0
0100
0001
0000
1000
0100
0010
0001
,
0021
0000
0031
0100
0000
0001
0000
0010
,
0000
0000
0100
0000
1000
0000
0000
0000
0100
0000
0000
0000
0010
0001
0010
0001
,
1M00
0010
1M00
0010
0M00
1000
0M00
0001
,
0M00
0M00
00M2
00M0
,
01M3
0001
10M0
0100
00M0
1000
00M0
0002
,
00M0
0003
00M0
0001
M000
0020
M000
0000
,
M030
0001
M100
0010
M000
0100
M000
0020
,
M000
0000
103M
0000
010M
0000
001M
0100
,
0000
0100
1000
0002
0000
2003
0000
3001
,
0102
0000
2000
3003
,
1001
1000
0100
0000
0010
0000
0000
0001
0000
0100
0010
0000
1000
0200
0000
0000
,
1300
0000
0100
0010
0000
0001
0000
0100
0000
0010
1000
0000
0100
0000
0010
0001
,
0100
0010
0000
0000
1000
0000
0000
0100
0000
0010
0001
0000
1000
0001
0000
0000
,
0100
0000
0010
1000
0000
0100
0000
1000
0000
0010
1000
0000
0100
0000
0010
0001
,
1001
1000
0000
0000
0100
0000
0000
0010
0000
0001
0100
0000
0010
1000
0000
0000
,
0100
0000
0010
0001
0000
0100
0000
0001
0000
1000
0010
0000
0100
0000
0001
0010
,
M011
0001
0000
0010
0000
0100
0100
0100
,
1001
0000
1000
0000
0000
0000
0001
0000
0000
0000
0010
0000
0001
0010
0001
0000
,
0011
0000
0010
0001
1001
1000
0000
0001
,
1M01
1000
0010
0000
1000
0000
0001
1000
0M10
0000
1000
0000
0100
0000
0010
0000
,
1000
0010
0100
1000
0000
1000
0100
00M0
,
0100
0001
1000
0001
1000
0001
0010
0100
,
0001
0100
0010
0100
0001
0100
1000
0010
,
1000
0000
0001
1000
0001
0100
0101
0000
,
0001
0000
1001
1000
0000
0001
1001
0000
,
1000
0001
0100
0010
1000
0000
1001
0001
,
0000
1000
1100
0100
0000
0010
0001
0000
,
0101
0000
0000
0000
1000
0010
0100
0010
1000
0000
0100
0000
0010
0001
0010
0000
,
0100
0000
0000
0000
1000
0000
0100
0000
00M0
0000
0100
0001
0100
0000
0000
0000
,
0010
0000
1000
0000
0001
0000
0100
0000
0010
1000
0000
0001
1000
0000
0100
0000
,
0010
0100
0001
0100
0010
0100
2000
0000
,
3002
0000
0000
0000
0013
0000
0001
0000
1000
0000
0100
0000
0010
0001
0010
0000
,
0001
1000
0001
0010
M000
0010
0100
0000
,
0001
1000
0100
0010
0011
0000
0001
1000
,
0000
0000
0100
0000
0000
0000
0010
0000
0011
0000
0001
0000
1000
0010
0100
0001
,
1000
0100
0010
0001
1000
0100
1000
0100
0010
0000
0001
0000
1000
0001
1000
0000
,
0001
0010
0100
1000
0001
0000
0002
0000
0000
0000
1003
0000
0001
0010
0100
1000
,
0001
0000
0001
0000
0100
0000
0000
0000
0010
1000
0010
1000
0001
0000
0100
0000
,
0101
0000
0001
1000
1100
0000
0110
0000
,
0011
0001
1001
1000
0010
0100
1000
0100
,
0010
1000
0001
1000
0000
0010
0010
0100
,
0001
1000
0001
1000
0001
0000
0010
0000
0001
0000
0100
0000
0001
0000
0000
0000
,
1000
0000
0010
0000
1000
0000
0000
0000
0001
0010
0100
1000
0001
0100
0010
1000
,
0001
0010
0100
0010
0001
1000
0001
1000
0100
0010
0000
0010
0001
0000
1000
0001
,
1000
0010
0M00
0010
0001
1000
0000
0000
0001
0000
0100
0000
0010
1000
0100
1000
,
0001
0000
1000
0100
0010
0001
0000
0000
1000
0010
1000
0001
0100
0000
0001
1000
,
0001
0100
00M0
0100
1000
0100
0000
0000
0010
0000
0001
0000
1000
0100
0010
0001
,
1000
0000
0001
0100
0010
0100
0001
1000
0001
0100
00M0
0100
1000
0000
0100
1000
,
0001
0100
00M0
0100
1000
0100
0000
0000
0010
0000
0001
0000
0100
0010
0100
0001
,
0100
0000
0010
1000
0010
0100
0001
0000
10M1
0000
0000
0000
1000
0100
1000
0010
,
0100
0001
0010
0001
1000
0100
0010
0001
1000
0010
0100
0001
2000
0000
0000
0000
,
0000
0000
0000
0000
,
0000
3000
0000
0000
;

//--------------- dance-double - ----------------
#NOTES:
     dance-double:
     :
     Easy:
     7:
     0,0,0,0,0:
00000000
00000000
00000000
00000000
,
00000000
00000000
00000000
00000000
,
00000000
00000000
00000000
00000000
,
00010000
00001000
00010000
00000100
,
00010000
00001000
00100000
00010000
,
10000000
01000000
10000000
00010000
,
01000000
00100000
10000000
01000000
,
00100000
00001000
00010000
00000100
,
00001100
00000000
00001000
00000001
,
00001000
00000010
00001000
00000010
,
00000100
00000001
00000100
00000001
,
00001000
00000100
00000010
00000001
,
00000010
00000100
00010000
00001000
,
00010000
00000100
00010000
00001000
,
00010000
00000100
00010000
00001000
,
00100000
00010000
01000000
00100000
,
02000000
00000000
00000000
03100000
,
10100000
00000000
00100000
00000000
10000000
00000000
00000000
00010000
,
00000000
01000000
00001000
00010000
,
00001000
00000000
00000000
00000000
00000000
00000000
00000000
00000000
00000000
00000000
00000000
00000000
00000000
00000000
00000000
00000000
00000000
00000000
00000000
00000000
00000000
00000000
00000000
00000000
00000000
00000000
00000000
00000000
00000000
00000000
00000000
00000000
00000000
00000000
00000000
00000000
00000000
00000000
00000000
00000000
00000000
00000000
00000000
00000000
00000000
00000000
00000000
00000000
00010000
00000000
00000000
00000000
00000000
00000000
00000000
00000000
00000000
00000000
00000000
00000000
00000000
00000000
00000000
00000000
00000000
00000000
00000000
00000000
00000000
00000000
00000000
00000000
00000000
00000000
00000000
00000000
00000000
00000000
00000000
00000000
00000000
00000000
00000000
00000000
00000000
00000000
00000000
00000000
00000000
00000000
00000000
00000000
00000000
00000000
00000000
00000100
00000100
00000000
00000000
00000000
00000000
00000000
00000000
00000000
00000000
00000000
00000000
00000000
00000000
00000000
00000000
00000000
00000000
00000000
00000000
00000000
00000000
00000000
00000000
00000000
00000000
00000000
00000000
00000000
00000000
00000000
00000000
00000000
00000000
00000000
00000000
00000000
00000000
00000000
00000000
00000000
00000000
00000000
00000000
00000000
00000000
00000000
00000000
00000000
00001000
00000000
00000000
00000000
00000000
00000000
00000000
00000000
00000000
00000000
00000000
00000000
00000000
00000000
00000000
00000000
00000000
00000000
00000000
00000000
00000000
00000000
00000000
00000000
00000000
00000000
00000000
00000000
00000000
00000000
00000000
00000000
00000000
00000000
00000000
00000000
00000000
00000000
00000000
00000000
00000000
00000000
00000000
00000000
00000000
00000000
00000000
00000000
,
00000010
00001000
00000001
00000100
,
00000101
00000000
00000001
00000000
00000100
00000000
00000000
00000010
,
00000000
00001000
00000010
00001000
,
00001100
00000000
00000000
00000100
00000000
00001000
00000000
00000100
,
00000000
00010000
00001000
00100000
,
M0101000
00100000
00001000
00100000
,
00010000
10000000
00100000
10000000
,
00100000
01000000
00010000
00100000
,
00001000
00010000
00000100
00001000
,
00000010
00001000
00000001
00001000
,
00000002
00000000
00002003
00000000
00003020
00000000
00001030
00000100
,
00000000
00001000
00000001
00001000
00000000
00000010
00000000
00001000
,
00002020
00000000
00000000
00003030
,
00000010
00001000
00000100
00000000
00000000
00000000
00010000
00000000
,
00002000
00000000
00023000
00000000
,
00032000
01000000
00000000
00103000
,
00020000
00000000
00000000
00000000
20030000
00000000
30010000
10000000
,
10010000
00010000
02000000
03200000
,
02300000
00000000
03001000
00010000
,
0M011000
00000000
00000000
00001000
00000000
00000000
00010000
00000000
,
00010100
00000000
00000000
00000100
00000000
00000000
00001000
00000000
,
00001001
00000000
00001001
00000000
,
0M001001
00000000
0M000110
00000010
,
00000100
00000001
00001000
00000100
,
00010000
00001000
00100000
00010000
,
01000000
00100000
10000000
01000000
,
00100000
00010000
00100000
00010000
,
01000000
00100000
10000000
01000000
,
00100000
00001000
00010000
00001000
,
00010000
00000100
00001000
00000010
,
00010000
00001000
00011000
00010000
,
00000100
00001000
00000010
00000100
,
00000001
00001000
00000010
00000100
,
00000001
00000100
00000010
00001000
,
00000100
00010000
00001000
00010000
,
00001000
00100000
00010000
10000000
,
01000000
10000000
10010000
00000000
,
00000000
00000000
10010000
00000000
,
00010000
10000000
10010000
00000000
,
00010000
00000000
00000000
00100000
00000000
00000000
00001000
00000000
,
00010000
00000100
00001000
00001000
,
00001010
00000010
00000110
00000101
,
00000001
00001000
00000001
00000000
,
00001000
00000000
00000000
00000010
00000000
00000000
00001000
00000000
,
00000001
00001000
00000010
00000000
,
00001000
00000000
00000200
00000000
,
00000000
00000300
00001000
00000100
,
00001000
00000010
00001000
00000001
,
00001000
00000010
00010000
00001000
,
00010000
00000100
00010000
00001000
,
00010000
00001000
00100000
00010000
,
00100000
00001000
01000000
00100000
,
10000000
01000000
01100000
00100000
,
00001000
01000000
00010000
00110000
;

//--------------- dance-double - XMOD FS ----------------
#NOTES:
     dance-double:
     XMOD FS:
     Medium:
     11:
     0,0,0,0,0:
00000000
00000000
00000000
00000000
,
00000000
00000000
00000000
00000000
,
00000000
00000000
00000000
00000000
,
00010000
00000000
00000000
00000000
00001000
00000000
00000000
00000000
00010000
00000000
00000000
00001000
00000000
00001000
00000000
00000000
,
01000000
00000000
00000000
00000000
00100000
00000000
10000000
00000000
00100000
00000000
00000000
10000000
00000000
00000000
00010000
00000000
,
10000000
00000000
00000000
00000000
10100000
00000000
00000000
00000000
00100000
00000000
00000000
01000000
00000000
01000000
00000000
00000000
,
00010000
00000000
00100000
00000000
00010000
00000000
00100000
00000000
00001000
00000000
00000000
00010000
00000000
00000000
00000010
00000000
,
00000100
00000000
00000000
00000000
00000101
00000000
00000000
00000000
00000001
00000000
00000000
00001000
00000000
00001000
00000000
00000000
,
00001100
00000000
00000100
00010000
00000100
00000000
00010000
00001000
,
00010000
00001000
00000000
00100000
00000000
00000000
00000000
00000000
00010000
10000000
00000000
00100000
00000000
00000000
00000000
00000000
,
01000000
00000000
00010000
00000000
01000000
00000000
00010000
00000000
01000000
00000000
00000000
00010000
00000000
00000000
00100000
00000000
,
01000000
00000000
00000000
10000000
00000000
00000000
00100000
00000000
01000000
00000000
00000000
00000000
01010000
00000000
00000000
00000000
,
00010000
00000000
00100000
00000000
00001000
00000000
00010000
00000000
00000100
00000000
00000000
00001000
00000000
00000000
00000001
00000000
,
00001000
00000100
00000010
00000000
00000001
00001000
00000001
00000000
,
00001000
00000010
00001000
00000000
00000001
00000100
00000001
00000000
,
00001000
00000100
00000010
00000000
00000001
00000100
00000010
00000000
,
00002000
00000000
00000000
00000000
00000000
00000000
00003100
00010000
,
00001000
01000000
00100000
00000000
20000000
00000000
30010000
01000000
,
00M00000
01000000
10000000
00000000
00100000
01000000
00010000
00000000
,
00100000
00101000
00001000
00011000
,
00010000
00010100
00000100
00001100
,
00001000
00000001
00001000
00000000
00000001
00000000
00001000
00000100
,
0000000M
00000100
00000010
00000000
00001000
00000100
00010000
00000000
,
00011000
00000000
00001000
00100000
00000000
00010000
00000000
10000000
,
00000000
00100000
01000000
00000000
00020000
00000000
00030000
00000000
,
00110000
00010000
10000000
00100000
10000000
00010000
01000000
00100000
,
10000000
00010000
00200000
00302000
,
00013000
00000100
00001000
00000010
00000100
00000001
00000010
00000100
,
00002000
00000000
00003001
00000100
00000010
00010000
00002000
00000000
,
00003000
01000000
00010000
01000000
00100000
10000000
01000000
10000000
,
00020000
00000000
10030000
00000000
00010000
00000000
00100000
00000200
,
00000000
00010300
00000010
00020000
00000000
00032000
00000000
00003000
,
00022000
00000000
00000000
00033000
,
00001000
01000000
00000000
00000000
00100000
00000000
00000000
10000000
00000000
01000000
10000000
00000000
00100000
10000000
00000000
00000000
,
00010000
00000000
01000000
00100000
00000000
01000000
00000000
00010000
00000000
01000000
00100000
00000000
01000000
00000000
00001000
00010000
,
00001000
00010000
00000000
00000000
00000100
00000000
00000000
00001000
00000000
00000001
00001000
00000000
00000010
00001000
00000000
00000000
,
00000001
00000000
00000100
00000010
00000000
00000100
00000000
00000001
00000000
00001000
00000010
00000000
00001000
00000000
00000001
00000000
,
00001001
00001000
00000000
00000000
00000010
00000000
00000000
00010000
00000000
00001000
00100000
00000000
00010000
01000000
00000000
00000000
,
00100000
00000000
10000000
01000000
00000000
00100000
00000000
00010000
00000000
00100000
01000000
00000000
00100000
00000000
00001000
00000000
,
0M010000
00000010
00000000
00000100
00000000
00000001
00000001
00000001
,
00001000
00000010
00000000
00010000
00000000
00001000
00010000
00001000
,
01001000
00000000
01000000
00100000
00000000
10000000
00000000
00100000
,
1010M000
00000000
00100000
00000000
10000000
01000000
00M00000
01000000
,
00010000
00000000
00100000
00001000
00000000
00010000
00001000
00000000
,
00010000
00000100
00010000
00000000
00000001
00000000
00001000
00000010
,
0000000M
00000010
00000000
00000001
00000000
00001000
00000010
00000000
,
00001000
00000000
00000100
00010000
00001000
00100000
00001000
00000000
,
01000000
00000000
00010000
00100000
M0000000
00100000
01000000
00000000
,
00001000
00010000
00001000
00000000
00010000
00000000
00000100
00001000
,
00000000
00001000
00000000
00000010
00000000
00001000
00000001
00000000
,
00001000
00000000
00000001
00001000
00000001
00000100
00000010
00010000
,
00000100
00000000
00001000
00000100
000000M0
00000100
00000010
00000000
,
00001000
00000100
00001000
00000000
00000100
00000000
00010000
00001000
,
00000000
00010000
00000000
00001000
00000000
00100000
00010000
00000000
,
10000000
00000000
01000000
00100000
00010000
10000000
00010000
00000000
,
10000000
00000000
00010000
01000000
M0000000
01000000
00100000
00000000
,
00001000
00010000
00001000
00000000
00011000
00000000
00010000
00000100
,
00000000
00001000
00000000
00000010
00000000
00000100
00000001
00000000
,
00000100
00000000
00000010
00000000
00001000
00000001
00000100
00000000
,
00000010
00001000
00000010
00000200
00000000
00000301
00001000
00000100
,
00001000
00000000
00000100
00000000
00010000
00000000
00000000
00000000
00001000
00010000
00001000
00010000
00001000
00000000
00000000
00000000
,
00011000
00100000
00101000
00110000
,
10010000
00000000
10010000
00000000
00010000
20000000
00000000
00000000
,
30100000
00000000
00000000
01000000
00000000
00010000
00100000
00010000
,
01000000
00100000
10000000
00000000
00010000
00000000
01000000
00000000
,
00001000
00000000
00010000
00000000
00000100
00001000
00000100
00001000
,
00000001
00000100
00000001
00000100
00000001
00000000
00001001
00000000
,
00001000
00000100
00000000
00001000
00000000
00000100
00000000
00000000
00010000
00000000
00001000
00000000
00010000
00000000
00001000
00000000
,
00100000
00000000
00110000
00000000
00010000
10000000
00100000
00000000
,
10000000
00010000
00000000
01000000
00000000
00100000
00000000
00000000
01000000
00000000
00001000
00000000
00010000
00000000
00000000
00000000
,
00001000
00000000
00000000
00000000
00011000
00000000
00000000
00000000
00010000
00000010
00000000
00001000
00000000
00000000
00000000
00000000
,
00000010
00001000
00000000
00000010
00000000
00001000
00000000
00000000
00000010
00000000
00000100
00000000
00000010
00000000
00000000
00000000
,
00000100
00000000
00000001
00000000
00001001
00000000
00000001
00001000
,
00000001
00001000
00000010
00001000
00000001
00001000
00001001
00000000
;

//--------------- dance-double - XMOD XO ----------------
#NOTES:
     dance-double:
     XMOD XO:
     Hard:
     15:
     0,0,0,0,0:
00000000
00000000
00000000
00000000
,
00000000
00000000
00000000
00000000
,
00000000
00000000
00000000
00000000
,
00010000
00001000
00010000
00001000
00000000
00000000
00010000
00000000
00001000
01000000
00000000
00001000
00000000
01000000
00000000
00000000
,
00010000
00000000
10000000
00000000
00100000
00000000
01000000
00000000
00010000
00000000
10000000
00100000
00000000
10000000
00100000
00000000
,
01000000
00001000
00000000
00010000
00000000
00000000
00000010
00000000
00001000
00000010
00000000
00001000
00000000
00000010
00000000
00000000
,
00001000
00000000
00000001
00000000
00000100
00000000
00000010
00000000
00001000
00000000
00000001
00001000
00000000
00000010
00001000
00000000
,
00000100
00001000
00000100
00001000
00000000
00000000
00000100
00000000
00010000
00001000
00000000
00010000
00000000
00001000
00000000
00000000
,
00011000
00000000
00001000
00000000
01000000
00000000
00100000
00000000
10000000
00000000
00010000
00000000
10000000
01000000
10000000
01000000
,
10000000
00010000
00000000
10000000
00010000
00000000
00100000
00000000
00001000
00010000
00000000
00001000
00000000
00100000
00000000
00000000
,
00010000
00000000
00100000
00000000
00001000
00000000
00010000
00000000
00001000
00000000
00010000
00000100
00000000
00010000
00001000
00000000
,
00010000
00000010
00010000
00000010
00000000
00000000
00001000
00000000
00000001
00000100
00000000
00000010
00000000
00000100
00000000
00000000
,
00000001
00000000
00001000
00000000
00000010
00000000
00001000
00000000
00000001
00000000
00001000
00000010
00000000
00001000
00000100
00000000
,
00001000
00000010
00000000
00001000
00000001
00000000
00000100
00000000
00000010
00010000
00000000
00001000
00000000
00010000
00000000
00000000
,
00001000
00000000
01000000
00000000
00010000
00000000
10000000
00000000
00100000
00000000
10000000
00010000
00000000
00100000
00001000
00000000
,
00010000
00001000
00010000
00001000
00000000
00000000
00010000
00000000
00000010
00000100
00000000
00000010
00000000
00001000
00000000
00000000
,
00000020
00000000
00000000
00000000
00000000
00000000
00000000
00000000
00000030
00000000
00000000
00000000
00000010
00001000
00000010
00001000
,
00000001
00000100
00001000
00000000
00010000
00000000
01000000
00001000
,
00000000
00010000
00001000
00000000
01000000
00001000
01001000
00000000
,
01000000
00100000
00000000
01000000
00000000
00000000
00010000
00000000
10000000
00000000
01000000
10000000
01000000
00000000
00100000
00000000
,
00001000
00000000
00000000
00010000
00000000
00000000
00000010
00000000
00001000
00000000
00000001
00001000
00000001
00000000
00000100
00000000
,
00000001
00000010
00001000
00000000
00010000
00000000
00010000
01000000
,
00000000
00100000
02000000
00000000
03010000
00100000
00010000
00000000
,
00110000
00000000
00100000
00001000
00000000
00010000
00000000
00000100
,
00000000
00000000
00001000
00000000
00000001
00000000
00000000
00000000
00001000
00000000
00000000
00000000
00000010
00001000
00000010
00001000
,
MMMM0010
00000100
MMMM0001
00002000
MM000000
00003002
MM000000
00020003
,
MM000000
MM000000
000320MM
02003000
,
0310MMMM
10000000
0001MMMM
02000000
0000MMMM
03020000
0000MMMM
20030000
,
0000MMMM
00000000
0000MM00
30020000
0000MMMM
00230000
0000MMMM
00300000
,
0000MMMM
00001000
00100000
00002000
00000000
00013000
00000000
00000020
,
00000000
00000000
00001030
00000000
00000001
00000000
00001000
00000010
,
00001000
00000001
00000100
00000010
00000000
00000100
00000000
00000001
,
00002002
00000000
00003003
00000000
,
00001001
00000001
00001000
00000000
00000100
00000000
00010000
00001000
00000000
00010000
00001000
00000000
00010000
00001000
01000000
00000000
,
00100000
00000000
10000000
00100000
00000000
10000000
00000000
01000000
00000000
10000000
00100000
00000000
01000000
00000000
00001000
00010000
,
00001000
00020000
00000000
00000000
00030100
00000000
00000000
00001000
00000000
00000001
00001000
00000000
00000010
00001000
00000000
00000000
,
00000001
00000000
00001000
00000010
00000000
00001000
00000000
00000001
00000000
00001000
00000010
00000000
00001000
00000000
00000001
00001000
,
00000010
00010000
00000000
00000000
00001000
00000000
00000000
01000000
00000000
00100000
10000000
00000000
01000000
00100000
00000000
00000000
,
00010000
00000000
00100000
01000000
00000000
10000000
00000000
00010000
00000000
01000000
00001000
00000000
00010000
00000000
00001000
00010000
,
MM001000
00010000
00000000
00000010
00000000
00001000
00000010
00001000
,
00001001
00000000
00000001
00000000
00000000
00000000
00001000
00000000
00000000
00000000
00000001
00000000
00001000
00000010
00001000
00000000
,
00000001
00000100
00000010
00001000
00000001
00000010
00000100
00001000
,
0M0M1001
00000000
00000100
00000001
M00M0001
00000100
00000010
00000001
,
00000010
00001000
00000100
00010000
01000000
00010000
00001000
00000000
,
10000000
00010000
01000000
00100000
10000000
01000000
00010000
01000000
,
00100000
00001000
00010000
00000010
00010000
00000100
00001000
00000000
,
00001001
00000000
00000001
00000010
00000100
00000010
00000011
00000000
,
00000001
00000000
00001001
00001000
00000000
00000100
00010000
00000000
,
00001000
01000000
01100000
00000000
00100000
10000000
00100000
00010000
,
00100000
01000000
00001000
00010000
00000100
00001000
00000010
00000000
,
00001000
00000000
00000000
00000000
00000010
00010000
00000010
00010000
00001000
00000000
00010000
00000000
00001000
00000000
00000100
00000000
,
00001000
00010000
00001000
01000000
00000000
00100000
10000000
00000000
,
00010000
10000000
01000000
00010000
01000000
00100000
00001000
00100000
,
00010000
00100000
00001000
00010000
00000000
00000100
00001000
00000000
,
00000010
00000000
00001000
00000001
00001000
00000100
00000001
00000100
,
00000010
00000001
00001000
00000100
00001000
00000100
00010000
00001000
,
01000000
00001000
01000000
00100000
01100000
00000000
00100000
10000000
,
00100000
01000000
00010000
01000000
00100000
10000000
00010000
00100000
,
01000000
00000000
10000000
00000000
00010000
01000000
00010000
01000000
00010000
00000000
01000000
00000000
00100000
00000000
01000000
00000000
,
00001000
00100000
00001000
00100000
00001000
00000000
00020000
00000000
00000000
00000000
00030010
00000000
00000100
00000000
00000001
00000000
,
00000100
00000000
00000010
00000000
00001010
00000000
00000000
00000000
00001000
00000001
00001000
00000001
00001000
00000000
00000000
00000000
,
00001010
00000010
00010010
00010100
,
00000100
00010000
00001000
00010000
00001000
01000000
00000000
10000000
,
01000000
00000000
00010000
01000000
00000000
00001000
00010000
00001000
,
00010000
00000100
00010000
00000100
00001000
00000000
00000001
00000000
,
00001000
00000000
00000010
00000000
00000100
00000001
00000100
00000001
,
00001000
00000000
00000010
00000000
00001000
00000001
00001000
00000001
00001000
00000100
00000000
00001000
00000100
00000000
00000010
00000000
,
00000001
00001000
00000000
00000100
00000000
00000010
00000000
00000000
00000001
00000000
00001000
00000000
00000100
00000000
00010000
00000000
,
00001000
00000000
00010000
00001000
00000000
00100000
00010000
00000000
01000000
00001000
01000000
00001000
00000000
00000000
01000000
00000000
,
00100000
10000000
00000000
00010000
00000000
10000000
00000000
00000000
01000000
00000000
00100000
00000000
00001000
00010000
00000100
00010000
,
00001000
00000000
00010000
00000100
00000000
00010000
00000100
00000000
00001000
00000001
00000000
00000100
00000010
00000000
00001000
00000000
,
00000001
00000010
00000000
00000100
00000000
00010000
00000000
00000000
00001000
00000000
01000000
00000000
00100000
00000000
10000000
00000000
,
00010000
00000000
10000000
00100000
10000000
00100000
10000000
00000000
1010M000
00000000
00000000
00000000
00100000
00000000
01000000
00000000
,
00001000
00010000
00000010
00001000
00000010
00010000
00010010
00000000
;
