#TITLE:Silent Clarity;
#SUBTITLE:;
#ARTIST:Tsukasa;
#TITLETRANSLIT:;
#SUBTITLETRANSLIT:;
#ARTISTTRANSLIT:;
#GENRE:Artcore;
#CREDIT:;
#BANNER:Silent Clarity.png;
#BACKGROUND:Silent Clarity-bg.png;
#LYRICSPATH:;
#CDTITLE:cdtitle.png;
#MUSIC:Silent Clarity.ogg;
#OFFSET:-0.035000;
#SAMPLESTART:87.999001;
#SAMPLELENGTH:15.000000;
#SELECTABLE:YES;
#BPMS:0.000000=180.000000
,200.000000=90.000000
,234.000000=180.000000
;
#STOPS:
;
#BGCHANGES:0.000=Silent Clarity.avi=1.000=0=0=0=StretchNoLoop==CrossFade_Fastest==,
99999=-nosongbg-=1.000=0=0=0 // don't automatically add -songbackground-
;
#KEYSOUNDS:;
#ATTACKS:;

//---------------dance-single - Daff_4K----------------
#NOTES:
     dance-single:
     Daff_4K:
     Beginner:
     2:
     0.089746,0.160934,0.054291,0.000000,0.000000,81.000000,74.000000,7.000000,0.000000,0.000000,0.000000,0.089746,0.160934,0.054291,0.000000,0.000000,81.000000,74.000000,7.000000,0.000000,0.000000,0.000000:
0000
0000
0000
0000
,
0000
0000
0000
0000
,
0000
0000
0000
0000
,
0000
0000
0000
0000
,
0000
0000
0000
0000
,
0000
0000
0000
0000
,
0000
0000
0000
0000
,
0000
0000
0000
0000
,
1001
0000
0000
0000
,
1000
0000
0000
0000
,
1000
0000
0000
0000
,
0000
0000
0000
0000
,
0001
0000
0000
0000
,
0001
0000
0000
0000
,
0001
0000
0000
0000
,
0000
0000
0000
0000
,
0000
0000
0000
0000
,
1001
0000
0000
0000
,
0000
0000
0000
0000
,
1000
0000
0000
0000
,
0000
0000
0000
0000
,
0001
0000
0000
0000
,
0000
0000
0000
0000
,
1000
0000
0000
0000
,
0000
0000
0000
0000
,
0010
0000
0000
0000
,
0010
0000
0000
0000
,
0100
0000
0000
0000
,
0100
0000
0000
0000
,
0001
0000
0000
0000
,
1000
0000
0000
0000
,
0001
0000
0000
0000
,
1000
0000
0000
0000
,
0001
0000
0000
0010
,
0000
0000
0001
0000
,
0001
0000
0000
0000
,
0000
0000
0000
0000
,
1000
0000
0000
0010
,
0000
0000
1000
0000
,
1000
0000
0000
0000
,
0000
0000
0000
0000
,
0100
0000
0000
0010
,
0000
0000
0100
0000
,
0100
0000
0000
0000
,
0000
0000
0000
0000
,
1000
0000
0000
1000
,
0000
0000
1000
0000
,
0001
0000
0000
0001
,
0000
0000
0001
0000
,
0000
0000
0000
0000
,
1001
0000
0000
0000
,
0000
0000
0000
0000
,
0000
0000
0000
0000
,
0000
0000
0000
0000
,
0000
1000
0000
0000
,
0000
0001
0000
0000
,
0010
0000
0010
0000
,
0100
0000
0100
0000
,
0000
0000
1001
0000
,
0000
0000
0001
0000
,
0000
0000
1000
0000
,
1000
0000
1000
0000
,
0000
0000
0100
0000
,
0000
0000
0010
0000
,
0000
0000
0001
0000
,
0000
0000
1000
0000
,
0000
0000
1001
0000
,
0000
0000
1000
0000
,
0000
0000
0001
0000
,
0001
0000
0001
0000
,
0000
0000
0100
0000
,
0000
0100
0100
0000
,
0000
0000
0010
0000
,
0000
0010
0010
0000
,
0000
0000
1001
0000
,
0000
0000
1000
0000
,
0000
0000
0001
0000
,
0000
0000
1000
0000
,
0000
0000
0100
0000
,
0000
0100
0100
0000
,
0000
0000
0010
0000
,
0000
0010
0010
0000
,
0000
0000
0000
0000
,
1001
0000
0000
0000
;

//---------------dance-single - Daff_4K----------------
#NOTES:
     dance-single:
     Daff_4K:
     Easy:
     5:
     0.202760,0.303641,0.085314,0.147361,0.000000,183.000000,172.000000,11.000000,19.000000,0.000000,0.000000,0.202760,0.303641,0.085314,0.147361,0.000000,183.000000,172.000000,11.000000,19.000000,0.000000,0.000000:
0000
0000
0000
0000
,
0000
0000
0000
0000
,
0000
0000
0000
0000
,
0000
0000
0000
0000
,
0000
0000
0000
0000
,
0000
0000
0000
0000
,
0000
0000
0000
0000
,
0000
0000
0000
0000
,
1000
0010
0000
0010
,
1000
0001
0000
0001
,
1000
0100
0000
0100
,
0010
0010
0001
1000
,
0001
0010
0000
0010
,
0001
1000
0000
1000
,
0001
0100
0000
0100
,
0010
1000
0200
0000
,
0300
0000
0000
0000
,
1002
0000
0000
0000
,
0103
0000
0000
0000
,
0020
0000
0000
0000
,
1030
0000
0001
0000
,
2000
0000
0000
0000
,
3100
0000
0000
0000
,
0010
0000
0010
0000
,
0001
0001
1000
1000
,
0001
0000
1000
0010
,
0200
0000
0301
0000
,
1000
0100
1000
0000
,
0001
0100
0001
0000
,
0010
0100
0010
0001
,
2000
0000
3001
0000
,
0001
0100
0010
0000
,
1000
0100
0010
0001
,
2000
0000
0000
3010
,
0000
0000
0100
0001
,
1001
0000
0000
0000
,
0000
0000
0000
0000
,
1002
0000
0000
0013
,
0000
0000
0100
1000
,
1001
0000
0000
0000
,
0000
0000
1000
0001
,
0020
0000
0000
0130
,
0000
0000
1000
0001
,
0200
0000
0310
0000
,
0020
0000
1030
0000
,
0001
0000
0000
0010
0000
0000
0100
0000
,
0000
0010
0000
0000
0001
0000
0000
0000
,
1000
0000
0000
0010
0000
0000
0100
0000
,
0000
0010
0000
0000
1000
0000
0001
0000
,
0000
0000
0000
0000
,
1001
0000
0000
0000
,
0000
0000
0000
0000
,
0000
0000
0000
0000
,
0000
0000
0000
0000
,
1000
0100
0000
1000
,
0001
0100
0000
0001
,
0020
0100
0130
1000
,
0020
0100
0130
0001
,
1000
0000
1001
0000
,
0001
0010
0100
0000
,
1000
0001
0200
0000
,
0310
0000
2000
0000
,
3001
0000
1000
0000
,
0001
0010
1000
0000
,
0010
0000
0001
0000
,
0100
0010
0100
0000
,
0001
0000
1001
0000
,
1000
0010
0100
0000
,
0001
1000
0200
0000
,
0310
0000
0002
0000
,
1003
0000
0000
0000
0001
0000
0000
0100
,
0000
0010
1000
0000
,
1001
0000
0000
0000
1000
0000
0000
0100
,
0000
0010
0001
0000
,
1001
0000
0001
0000
,
0100
0000
0010
1000
,
0010
0000
1000
0000
,
0100
0000
0010
0001
,
0010
0000
0000
0000
0001
0000
0000
0100
,
0000
0001
1000
0000
,
1001
0000
0000
0000
1000
0000
0000
0100
,
0000
1000
0001
0100
,
0010
1000
0000
0000
,
2002
0000
0000
0000
,
0000
0000
0000
0000
,
0000
0000
0000
0000
,
0000
0000
0000
0000
,
3003
0000
0000
0000
;

//---------------dance-single - Daff_4K----------------
#NOTES:
     dance-single:
     Daff_4K:
     Medium:
     9:
     0.353445,0.742234,0.403304,0.364525,0.007756,319.000000,267.000000,52.000000,47.000000,0.000000,0.000000,0.353445,0.742234,0.403304,0.364525,0.007756,319.000000,267.000000,52.000000,47.000000,0.000000,0.000000:
0000
0000
0000
0000
,
0000
0000
0000
0000
,
0000
0000
0000
0000
,
0000
0000
0000
0000
,
0000
0000
0000
0000
,
0000
0000
0000
0000
,
0000
0000
0000
0000
,
0000
0000
0000
0000
,
0001
0000
1000
0000
0010
0100
0000
0100
,
0001
0000
0001
1000
0000
1000
0100
0010
,
0001
0100
1000
0100
,
0001
0000
0010
0100
0000
0010
0001
0000
,
1000
0000
0001
0000
0010
0100
0000
0100
,
1000
0000
1000
0001
0000
0001
0100
0010
,
1000
0100
0001
0100
,
1000
0000
0010
0100
0010
1000
0001
0000
,
2002
0000
0000
3003
,
2200
0000
0000
3000
,
0020
0000
0000
0330
,
0002
0000
2003
0000
,
3100
0010
0001
0100
,
0202
0000
0000
0003
,
0020
0000
0000
0330
,
2000
0000
3002
0000
,
0013
0010
0100
0100
,
2000
0010
0000
3010
,
0200
0001
0000
0301
,
1000
0000
0100
0000
0001
0000
0100
0010
,
0100
1000
0010
0100
,
0001
0000
0010
0100
0000
0100
1000
0000
,
0001
0000
0100
0000
0010
1000
0010
0000
,
1000
0000
0100
0010
0000
0010
0001
0000
,
1000
0000
0010
0100
0010
0000
1000
0000
,
2200
0000
3300
0022
,
0000
0033
0001
1000
,
2002
0000
0000
3003
,
0001
1000
0010
0100
,
0202
0000
0303
2020
,
0000
3030
1000
0001
,
2002
0000
0000
3003
,
1000
0000
0001
0000
0010
0100
0010
0000
,
0002
1000
0000
1003
,
0001
0100
1000
0100
,
0001
0000
0010
0100
0010
0000
0001
0000
,
2000
3010
0200
0301
,
0011
0000
0000
0110
0000
0000
1100
0000
,
0000
1001
0000
0000
0001
0000
1000
0000
,
1010
0000
0000
0110
0000
0000
0101
0000
,
0000
1001
0000
0000
1000
0000
0100
0000
,
0220
0000
0330
0000
,
1001
0000
0000
0000
,
0000
0000
0000
0000
,
0000
0000
0000
0000
,
0000
0000
0000
0000
,
2000
0000
0010
0000
0100
0000
3010
1000
,
0002
0000
0010
0000
0103
0010
1000
0001
,
0011
0000
0000
0011
0000
0000
1100
0000
1100
0000
0000
0000
1001
0000
0000
0000
,
1010
0000
0000
1010
0000
0000
0101
0000
0101
0000
0000
0000
1001
0000
0000
0000
,
0220
0000
0330
0000
1001
0000
0001
0100
,
0000
0100
0010
0000
2000
0000
0100
0000
,
3002
0000
0010
0000
1003
0000
0010
0100
,
0000
0100
0001
0000
1000
0001
1000
0000
,
0100
0000
1001
0000
0001
0000
1000
0010
,
0000
0010
0100
0000
0002
0000
0010
0000
,
2003
0000
0100
0000
3001
0000
0100
0010
,
0000
0100
0001
0000
1000
0001
1000
0000
,
0100
0000
0110
0000
1001
0000
1000
0100
,
0000
0100
0010
0000
0002
0000
0100
0000
,
2003
0000
0010
0000
3001
0000
0010
0100
,
0000
0100
1000
0000
0001
1000
0001
0000
,
0100
0000
0110
0000
1001
0000
0000
1100
,
0000
0110
0022
0033
,
0001
0000
1000
0000
1001
0000
0000
0101
,
0000
0110
1010
1000
,
0001
1000
0002
0100
,
0000
0103
0010
1000
,
0001
1000
0001
0000
2000
0000
0100
0000
,
0000
3100
0010
0001
,
1000
0001
1000
0000
1010
0000
0000
0110
,
0000
0101
1001
1000
,
0100
0000
0010
0000
0011
0000
0000
0110
,
0000
1100
1001
0001
,
0100
0010
1000
0001
0000
0000
0000
0000
,
2002
0000
0000
0000
,
0000
0000
0000
0000
,
0000
0000
0000
0000
,
0000
0000
0000
0000
,
3003
0000
0000
0000
;

//---------------dance-single - Daff_4K----------------
#NOTES:
     dance-single:
     Daff_4K:
     Hard:
     12:
     0.465351,0.978400,0.411060,0.674759,0.062047,420.000000,367.000000,53.000000,87.000000,0.000000,0.000000,0.465351,0.978400,0.411060,0.674759,0.062047,420.000000,367.000000,53.000000,87.000000,0.000000,0.000000:
0000
0000
0000
0000
,
0000
0000
0000
0000
,
0000
0000
0000
0000
,
0000
0000
0000
0000
,
0000
0000
0000
0000
,
0000
0000
0000
0000
,
0000
0000
0000
0000
,
0000
0000
0000
0000
,
1010
0000
0102
0000
1003
0200
0000
0310
,
0002
0000
1003
0020
0000
0130
0001
2000
,
0000
3100
0010
0100
1000
0001
1000
0010
,
0200
0000
0301
2000
0000
3100
0010
0000
,
0011
0000
2100
0000
3001
0200
0000
0310
,
2000
0000
3001
0020
0000
0130
1000
0001
,
0200
1000
0001
0310
,
1000
0100
0010
0001
0100
0010
1000
0000
,
2002
0000
0000
3003
,
0202
0000
0000
0300
,
1000
0000
0000
1000
0000
0000
1003
0000
,
0002
0000
0023
0000
0230
0000
1300
0001
,
0200
0320
2030
3001
,
2200
0000
0000
0300
,
0001
0000
0000
0001
0000
0000
3001
0000
,
2000
0000
3020
0000
0230
0000
0301
1000
,
0001
1000
0100
0010
0100
0010
0001
0000
,
2001
0000
0010
0000
0100
0000
3010
0100
,
0002
0000
1003
0200
0000
0310
0001
0000
,
0101
1010
1100
0011
,
0002
0100
2003
0010
,
3002
0000
0013
0200
0000
1300
0002
0000
,
0100
1000
0013
0001
,
2000
0000
3010
0200
0000
0301
2000
0000
,
0100
0000
0001
0000
3010
0100
0001
0000
,
0022
0000
0000
0000
0033
0000
0200
2000
,
0000
3300
1010
0101
,
2002
0000
0000
0000
,
0000
0000
3003
0000
0001
1000
0001
0000
,
2020
0000
0000
0000
3030
0000
0200
0002
,
0000
0303
1001
0110
,
2002
0000
0000
0000
,
0000
0000
3003
0000
1000
0001
0010
0100
,
2000
0000
0010
0000
0001
0000
3100
0010
,
0002
0100
1000
0013
,
1200
0010
0001
0010
,
2300
0010
3002
0010
,
1003
0100
1000
0001
0100
0001
0010
0100
,
1000
0010
0100
0001
1000
0000
1001
0000
,
0001
0100
0001
1000
0100
1000
0010
0100
,
0001
0010
0100
1000
0001
0000
1001
0000
,
0220
0000
0000
0330
,
1001
0000
0000
0000
,
0000
0000
0000
0000
,
0000
0000
0000
0000
,
0000
0000
0000
0000
,
1200
0000
0000
0000
0301
0000
0100
1000
0000
1000
0010
0000
0100
0000
0001
0000
,
0201
0000
0000
0000
1300
0000
0100
0001
0000
0001
0010
0000
0100
0000
1000
0000
,
0001
0100
0001
1000
0100
1000
0001
0100
1000
0000
0100
0000
0110
0000
1001
0000
,
1000
0100
1000
0001
0100
0001
1000
0100
0001
0000
0100
0010
0000
0100
1000
0000
,
2002
0000
3003
0000
1002
0000
0103
0020
,
0000
0130
0001
1000
0200
0000
0301
0000
,
0110
0000
1001
0000
1020
0000
0130
0002
,
0000
1003
0200
0000
0310
0001
1000
0010
,
0100
0010
1000
0001
0020
0000
0130
2000
,
0000
3001
0100
0000
2010
0000
3100
0000
,
0012
0000
0103
0000
2001
0000
3010
0200
,
0000
0310
0001
0010
1000
0100
0010
0001
,
0100
0010
1000
0000
2001
0000
3100
0020
,
0000
0130
1000
0001
0200
0000
1300
0000
,
0110
0000
1001
0000
0021
0000
0130
2000
,
0000
3001
0200
0000
0310
1000
0001
0010
,
0100
0010
0001
1000
0001
0100
1000
0001
,
0010
1000
0001
0000
0011
0000
1100
0000
,
0110
0000
1001
0000
1000
0100
0001
1000
,
0010
0001
1000
0000
1010
0000
0101
0000
,
0110
0000
1001
0000
0201
0000
0310
2000
,
0000
3001
0020
0000
0130
1000
0001
1000
,
0010
0100
0001
1000
0200
0000
0310
0002
,
0000
1003
0020
0000
0130
0001
1000
0001
,
0010
0100
1000
0001
1000
0010
0001
1000
,
0100
0001
1000
0000
1100
0000
0011
0000
,
0001
0100
0010
1000
0001
0010
1000
0001
,
0100
0000
1000
0000
0001
0000
0100
0000
0010
0000
1000
0000
0001
0000
0010
0100
,
0000
0010
0100
0000
1000
0000
0001
0000
0000
0000
0000
0000
0000
0000
0000
0000
,
2002
0000
0000
0000
,
0000
0000
0000
0000
,
0000
0000
0000
0000
,
0000
0000
0000
0000
,
3003
0000
0000
0000
;

//---------------dance-single - Daff_4K----------------
#NOTES:
     dance-single:
     Daff_4K:
     Challenge:
     15:
     0.596092,1.214566,0.263699,0.550665,0.267577,538.000000,504.000000,34.000000,71.000000,0.000000,0.000000,0.596092,1.214566,0.263699,0.550665,0.267577,538.000000,504.000000,34.000000,71.000000,0.000000,0.000000:
// measure 0
0000
0000
0000
0000
,  // measure 1
0000
0000
0000
0000
,  // measure 2
0000
0000
0000
0000
,  // measure 3
0000
0000
0000
0000
,  // measure 4
0000
0000
0000
0000
,  // measure 5
0000
0000
0000
0000
,  // measure 6
0000
0000
0000
0000
,  // measure 7
0000
0000
0000
0000
,  // measure 8
1100
0000
0012
0000
1003
0010
0100
0010
,  // measure 9
2000
0000
3001
1000
0100
0010
0100
0001
,  // measure 10
0100
1000
1000
0001
0001
0100
1000
0100
,  // measure 11
0020
0000
0000
0000
1030
0000
0001
0010
0000
0010
0100
0000
1000
0000
0001
0000
,  // measure 12
0101
0000
2010
0000
3001
0010
0100
0010
,  // measure 13
0002
0000
1003
0001
0100
0010
0100
1000
,  // measure 14
0200
0000
0001
0000
1000
0000
0310
1000
,  // measure 15
0001
0000
0010
0000
1000
0000
0010
0001
0000
1000
0001
0000
1000
0000
0020
0000
,  // measure 16
0200
0000
0000
0330
,  // measure 17
2002
0000
0003
3200
,  // measure 18
0010
0000
0000
0010
0000
0000
0310
0001
,  // measure 19
0200
0000
2300
0000
3002
0000
0013
1000
,  // measure 20
0200
0320
0032
0100
,  // measure 21
2000
0000
3000
0203
,  // measure 22
0010
0000
0000
0010
0000
0000
0310
1000
,  // measure 23
0002
0000
0023
0000
0230
0000
1300
0010
,  // measure 24
0010
0000
0100
0000
0100
0000
0001
0000
1000
0000
0100
0000
0010
0100
0010
0000
,  // measure 25
0002
0000
0103
0000
2010
0000
3100
0010
,  // measure 26
0200
0000
1300
0002
0000
1003
0010
0100
,  // measure 27
0001
0000
0011
0000
1100
0000
1000
0001
,  // measure 28
0100
0000
0010
0000
1000
0000
0001
1000
0000
0001
0010
0000
0100
0000
1000
0000
,  // measure 29
0002
0000
0103
0020
0000
1030
0200
0000
,  // measure 30
0001
0000
1300
0100
0010
0001
0100
0010
,  // measure 31
2000
0000
3100
0010
0001
1000
0001
0100
,  // measure 32
0020
0000
0000
0000
1030
0000
0001
1000
0000
0001
0010
0000
0100
0000
1000
0000
,  // measure 33
2200
0000
0000
0000
3300
0000
0010
0022
,  // measure 34
0000
0033
0101
1010
,  // measure 35
1002
0000
0000
0000
0000
0000
0013
0001
0010
0000
0100
0000
1000
0000
0010
0000
,  // measure 36
0100
0000
0001
0000
1000
0000
0100
0010
0000
0100
0010
0000
0001
0000
0100
0000
,  // measure 37
0202
0000
0000
0000
0303
0000
0010
2020
,  // measure 38
0000
3030
1100
0011
,  // measure 39
2002
0000
0000
0000
3003
0000
1000
0010
,  // measure 40
1000
0000
0001
0000
0010
0000
0001
1000
0000
0001
1000
0000
0010
0000
0100
0000
,  // measure 41
0102
0000
1000
0000
0013
0000
1100
1000
,  // measure 42
0020
0130
1001
0110
,  // measure 43
2001
0000
0000
0000
3100
0000
0010
0100
0010
0000
0001
0000
1000
0000
0001
0000
,  // measure 44
0100
0000
0010
0000
1000
0000
0001
1000
0000
0001
0010
0000
0100
0000
1000
0000
,  // measure 45
0001
0100
1000
0001
0010
1000
0001
0010
,  // measure 46
1000
0001
0100
1000
0010
0000
1001
0000
,  // measure 47
1000
0100
0001
1000
0010
0001
1000
0010
,  // measure 48
0001
1000
0100
0001
1000
0000
1001
0000
,  // measure 49
0220
0000
0000
0330
,  // measure 50
1001
0000
0000
0000
,  // measure 51
0000
0000
0000
0000
,  // measure 52
0000
0000
0000
0000
,  // measure 53
0000
0000
0000
0000
,  // measure 54
0012
0000
1000
0000
0103
0000
0010
1000
0000
1000
0100
0000
0110
0000
1001
0000
,  // measure 55
2010
0000
0001
0000
3100
0000
0010
0001
0000
0001
0100
0000
0100
0010
1000
0001
,  // measure 56
1000
0100
0001
0100
1000
0010
0001
0010
1000
0100
0010
0001
1000
0000
1001
0000
,  // measure 57
0001
0000
0100
0000
1000
0000
0100
0000
0001
0000
0010
0000
1000
0000
0010
0000
0001
0000
0100
0010
0100
0000
0010
1000
0000
0100
0010
0000
0001
1000
0001
1000
,  // measure 58
0002
0000
1003
0000
2001
0000
3100
0020
,  // measure 59
0000
0000
0031
0000
1000
0000
0010
0000
0100
0000
0001
1000
0001
0000
1000
0000
,  // measure 60
0100
0010
0100
0001
2000
0000
3010
0002
,  // measure 61
0000
0000
1003
0000
0001
0000
0100
0000
0010
0000
1000
0001
1000
0000
0001
0010
,  // measure 62
0000
0100
0010
0000
0001
0000
1000
0000
0020
0000
0000
0000
0130
0000
0002
0000
,  // measure 63
0000
0000
1003
0000
0001
0000
0010
0000
0100
0000
1000
0001
1000
0000
0001
0000
,  // measure 64
0100
0010
1000
0001
0010
0100
0010
0001
,  // measure 65
1000
0000
0010
0000
0100
0000
0010
0000
1000
0000
0001
1000
0001
0000
0010
0100
,  // measure 66
0000
0010
0100
0000
1000
0001
1000
0000
0002
0000
0000
0000
0103
0000
0020
0000
,  // measure 67
0000
0000
1030
0000
0001
0000
0010
0000
0100
0000
1000
0001
1000
0000
0001
0000
,  // measure 68
0100
0010
0100
1000
0002
0000
0013
2000
,  // measure 69
0000
0000
3001
0000
1000
0000
0100
0000
0010
0000
0001
1000
0001
0000
1000
0010
,  // measure 70
0000
0100
0010
0000
1000
0000
0001
0000
1000
0000
0100
0000
0001
0000
1000
0000
,  // measure 71
0010
0001
1000
0010
0001
0010
1000
0001
,  // measure 72
0010
0100
0010
0000
0100
0000
1000
0000
0001
0000
0100
0000
1000
0000
0001
0000
,  // measure 73
0010
0000
1000
0000
0001
0000
0010
0000
1000
0000
0010
0100
0010
0000
0001
1000
,  // measure 74
0000
0001
1000
0000
0010
0100
0010
0100
0001
0000
1000
0000
0100
0000
0020
0000
,  // measure 75
0000
0130
1000
0001
0100
0010
1000
0001
,  // measure 76
0010
0100
0010
0000
0100
0000
1000
0000
0001
0000
0100
0000
0010
0000
0200
0000
,  // measure 77
0000
0000
0301
0000
1000
0000
0100
0000
0010
0000
0001
0000
1000
0000
0010
0100
,  // measure 78
0000
0010
0100
0000
0001
0000
1000
0000
0001
0000
0010
0000
1000
0000
0001
0000
,  // measure 79
0100
1000
0001
0100
1000
0100
0001
0010
,  // measure 80
0100
0010
0100
0000
1000
0000
0001
0000
1000
0000
0010
0000
0001
0000
1000
0000
,  // measure 81
0100
0000
0001
0000
1000
0000
0100
0000
0001
0000
0100
1000
0001
0000
0100
0010
,  // measure 82
0000
1000
0100
0010
0001
0000
1000
0000
0000
0000
0000
0000
0000
0000
0000
0000
,  // measure 83
1002
0203
2300
3020
,  // measure 84
0032
0203
0320
2030
,  // measure 85
0002
0000
0000
0000
,  // measure 86
0000
0000
0000
0000
,  // measure 87
3003
0000
0000
0000
;
