#TITLE:終焔のClaudia;
#SUBTITLE:;
#ARTIST:二代目朱雀;
#TITLETRANSLIT:Shuuen no Claudia;
#SUBTITLETRANSLIT:;
#ARTISTTRANSLIT:Nidaime Suzaku;
#GENRE:Artcore;
#CREDIT:;
#BANNER:Shuuen no Claudia.png;
#BACKGROUND:Shuuen no Claudia-bg.png;
#LYRICSPATH:;
#CDTITLE:cdtitle.png;
#MUSIC:Shuuen no Claudia.ogg;
#OFFSET:-0.494030;
#SAMPLESTART:75.020630;
#SAMPLELENGTH:10.378380;
#SELECTABLE:YES;
#BPMS:0.000000=185.000000
,14.000000=176.000000
,16.000000=156.000000
,17.000000=138.000000
,18.000000=125.999992
,19.000000=111.000000
,20.000000=98.000000
,21.000000=90.000000
,24.000000=185.000000
;
#STOPS:
;
#BGCHANGES:;
#KEYSOUNDS:;
#ATTACKS:;

//---------------dance-single - ----------------
#NOTES:
     dance-single:
     :
     Challenge:
     16:
     0.830735,0.976797,0.258253,0.489790,0.752496,653.000000,624.000000,29.000000,55.000000,0.000000,0.000000,0.830735,0.976797,0.258253,0.489790,0.752496,653.000000,624.000000,29.000000,55.000000,0.000000,0.000000:
// measure 0
0000
0000
0000
0000
,  // measure 1
0000
0000
0000
0000
,  // measure 2
0000
0000
0000
0000
,  // measure 3
0000
0000
0000
0000
,  // measure 4
0000
0000
0000
0000
,  // measure 5
0000
0000
0000
0000
,  // measure 6
2001
0010
0001
0000
,  // measure 7
0001
0000
0000
0000
0000
0000
3001
0010
0100
0001
0100
0010
,  // measure 8
0002
0010
1000
0000
,  // measure 9
1000
0000
0000
0000
0000
0000
1003
0010
0100
1000
0100
0010
,  // measure 10
2000
0010
0001
0000
,  // measure 11
0001
0000
0000
0000
0000
0000
3001
0010
0100
1000
0010
0100
,  // measure 12
0002
0000
1003
0100
0001
0000
0101
0000
,  // measure 13
0001
0100
1000
0001
0010
1000
0001
0100
1000
0001
0010
0100
,  // measure 14
0020
0000
0000
0030
,  // measure 15
0011
0000
0000
0000
0000
0000
0000
0000
1001
0000
0000
0000
0001
0100
0001
0100
,  // measure 16
0020
0000
0000
0100
0000
0000
0001
0000
,  // measure 17
0000
0100
0000
0000
1000
0000
0130
0001
,  // measure 18
0020
0000
0000
0100
0000
0000
1000
0000
,  // measure 19
0000
0000
0100
0000
0000
0000
0000
0000
0031
0000
1000
0001
0100
0000
0010
0000
,  // measure 20
1000
0010
1000
0010
1000
0000
0010
1000
0010
1000
0010
0000
1000
0010
0100
0010
,  // measure 21
2000
0000
3020
0000
0130
0010
1000
1000
,  // measure 22
0001
0010
0001
0010
0001
0000
0010
0001
0010
0001
0010
0000
0001
0010
0100
0010
,  // measure 23
0002
0000
0000
0000
0023
0000
0000
0000
0130
1000
0100
1000
0001
0100
0001
0100
,  // measure 24
0010
1000
0001
1000
0010
0000
1000
0010
0100
0010
1000
0000
0010
0100
0001
1000
,  // measure 25
0200
0010
0302
0000
0103
0010
0100
0100
,  // measure 26
0010
0001
1000
0001
0010
0000
0001
0010
0100
0010
0001
0000
0010
0100
1000
0001
,  // measure 27
0200
0000
0010
0000
2300
0000
0000
0000
3100
0010
0100
0010
1000
0000
0001
1000
,  // measure 28
0001
0010
0100
1000
0001
0000
1000
0010
0100
0001
1000
0000
0001
0010
0100
1000
,  // measure 29
0001
0001
0100
0100
0010
1000
0100
0010
,  // measure 30
0012
0000
0103
2010
0000
3100
0012
0000
,  // measure 31
0103
0000
2010
0000
0000
0000
3001
0000
0001
0010
0100
1000
0001
0100
0010
1000
,  // measure 32
0001
0100
0001
0100
1000
0100
0001
1000
,  // measure 33
0010
0001
0010
1000
0001
1000
1001
0000
,  // measure 34
1000
0010
1000
0010
0100
0001
0010
1000
,  // measure 35
0010
0000
0001
0000
0100
0000
1000
0000
0100
0000
0001
0000
1000
0100
0010
0001
,  // measure 36
1000
0100
1000
0100
0001
0100
1000
0001
,  // measure 37
0010
1000
0010
0001
1000
0001
1001
0000
,  // measure 38
0001
0010
0001
0010
0100
1000
0010
0001
,  // measure 39
1000
0000
0100
0000
0001
0000
1000
0000
0010
0000
1000
0010
0100
0001
0010
0100
,  // measure 40
1000
0000
0010
0000
0100
0000
0010
0000
0001
0000
0000
0000
0010
0000
0100
0010
,  // measure 41
1000
0000
1010
0000
0010
1000
0001
0010
,  // measure 42
2000
0000
3000
0010
0100
1000
0001
0100
,  // measure 43
0010
0100
0010
0100
0010
0100
0010
0100
0010
0000
0100
0000
0010
0000
1000
0000
,  // measure 44
0001
0000
0010
0000
0100
0000
0010
0000
1000
0000
0000
0000
0010
0000
0100
0010
,  // measure 45
0001
0000
0000
0000
1000
0000
0001
0000
0100
0000
0000
0000
0110
0000
0010
1000
,  // measure 46
0001
0010
0100
0001
0100
1000
0001
0100
1000
0100
0010
1000
,  // measure 47
0001
1000
0001
1000
0001
1000
0001
1000
0200
0000
0000
0000
0300
0000
1000
0001
,  // measure 48
0200
0010
1000
0000
,  // measure 49
1000
0000
0000
1000
0000
0000
1300
0100
0001
1000
0001
0010
,  // measure 50
0200
0010
0001
0000
,  // measure 51
0001
0000
0000
0001
0000
0000
0301
0100
1000
0001
0100
0010
,  // measure 52
0200
0000
0301
0100
1000
0100
0001
0010
,  // measure 53
1000
0000
0000
0010
0000
0000
0001
0000
0000
0100
0000
0000
0010
0000
1000
0000
0001
0000
1000
0000
0100
0000
0010
0000
,  // measure 54
0001
0010
0001
0010
0100
1000
0100
1000
0001
0010
0001
0010
0100
1000
0001
0100
,  // measure 55
0020
0000
0000
0000
0000
0000
0000
0000
0030
0000
1000
0010
0100
0001
1000
0001
,  // measure 56
0010
0100
0001
0202
0303
0001
0100
1000
,  // measure 57
0001
0000
0100
0000
1000
0000
2200
0000
3300
0000
0110
0000
0100
0010
0100
0001
,  // measure 58
1000
0010
0001
0010
1000
0001
1000
0001
,  // measure 59
1000
0000
0100
0000
0001
0000
0100
0000
1000
0000
0001
0010
0100
1000
0001
0100
,  // measure 60
0010
0000
0100
0000
1000
0000
2200
0000
3300
0000
0110
0000
0100
0001
1000
0001
,  // measure 61
0010
0000
0100
0000
0010
0000
2020
0000
3030
0000
0110
0000
0010
0001
1000
0010
,  // measure 62
0100
0000
0000
0001
0000
0000
0010
0100
0020
0000
0000
0000
0230
0000
0000
0000
,  // measure 63
2300
0000
0000
0000
3001
0010
0100
1000
0001
0000
0001
0000
1000
0000
1000
0000
,  // measure 64
0010
0100
0010
0022
0033
0001
0010
1000
,  // measure 65
0001
0000
0010
0000
1000
0000
2020
0000
3030
0000
0110
0000
0010
0100
0010
0001
,  // measure 66
1000
0010
0100
0010
0001
1000
0100
0010
,  // measure 67
0100
0000
0001
0000
0010
0000
0100
0000
1000
0000
0001
0100
0010
1000
0001
1000
,  // measure 68
0100
0000
0010
0000
0100
0000
0202
0000
0303
0000
0110
0000
0100
1000
0001
1000
,  // measure 69
0010
0000
0100
0000
0010
0000
0022
0000
0033
0000
0110
0000
0010
1000
0001
0010
,  // measure 70
0100
0000
0010
0100
0010
0000
0100
0000
0010
0100
1000
0000
0010
0100
0001
0000
,  // measure 71
0101
1010
0002
0000
,  // measure 72
1003
0100
1000
0100
0010
0000
0100
0010
0100
0010
0001
0000
1000
0100
0010
0001
,  // measure 73
0200
0010
2300
0000
3100
0001
1000
1000
,  // measure 74
0001
0100
0001
0100
0010
0000
0100
0010
0100
0010
1000
0000
0001
0100
0010
1000
,  // measure 75
0200
0000
0010
0000
0302
0000
0000
0000
0103
0010
0001
1000
0100
0010
0001
1000
,  // measure 76
0001
0100
0001
0100
0010
0000
1000
0100
1000
0100
0010
0000
0001
0010
0100
1000
,  // measure 77
0020
0100
0032
0000
0013
1000
0001
0001
,  // measure 78
1000
0100
1000
0100
0010
0000
0001
0100
0001
0100
0010
0000
1000
0010
0100
0001
,  // measure 79
0020
0000
0100
0000
2030
0000
0000
0000
3010
0001
1000
0010
0100
0001
1000
0100
,  // measure 80
0000
0220
0000
0000
,  // measure 81
0000
0330
0000
0000
;

//---------------dance-single - ----------------
#NOTES:
     dance-single:
     :
     Hard:
     14:
     0.670440,0.795909,0.231537,0.427453,0.267158,527.000000,501.000000,26.000000,48.000000,0.000000,0.000000,0.670440,0.795909,0.231537,0.427453,0.267158,527.000000,501.000000,26.000000,48.000000,0.000000,0.000000:
// measure 0
0000
0000
0000
0000
,  // measure 1
0000
0000
0000
0000
,  // measure 2
0000
0000
0000
0000
,  // measure 3
0000
0000
0000
0000
,  // measure 4
0000
0000
0000
0000
,  // measure 5
0000
0000
0000
0000
,  // measure 6
2001
0010
0001
0000
,  // measure 7
0001
0000
0000
0000
0000
0000
3001
1000
0001
0010
0000
0000
,  // measure 8
1002
0010
1000
0000
,  // measure 9
1000
0000
0000
0000
0000
0000
1003
0001
1000
0010
0000
0000
,  // measure 10
2001
0010
0001
0000
,  // measure 11
0001
0000
0000
0000
0000
0000
3100
0010
0100
0010
0000
0000
,  // measure 12
0120
0000
0031
1000
0010
0000
0110
0000
,  // measure 13
0001
0100
0001
0010
0000
0000
1000
0100
1000
0010
0000
0000
,  // measure 14
2002
0000
0000
3003
,  // measure 15
0101
0000
0000
0000
0000
0000
0000
0000
1010
0000
0000
0000
0001
1000
0001
1000
,  // measure 16
0200
0000
0000
0010
0000
0000
0001
0000
,  // measure 17
0000
0010
0000
0000
1000
0000
0310
0001
,  // measure 18
0200
0000
0000
0010
0000
0000
1000
0000
,  // measure 19
0000
0010
0000
0000
0301
1000
0100
0010
,  // measure 20
0012
0000
0010
0010
0000
0010
0013
0000
,  // measure 21
0002
0000
0023
0000
0130
1000
0001
0000
,  // measure 22
2000
0000
0010
0010
0000
0010
3010
0000
,  // measure 23
2000
0000
3020
0000
0130
0010
1000
0001
,  // measure 24
1000
0000
0100
0010
0100
0000
1000
0000
0100
0010
0100
0000
1000
0000
0001
0000
,  // measure 25
0200
0010
2300
0000
3100
0010
1000
1000
,  // measure 26
0001
0000
0100
0010
0100
0000
0001
0000
0100
0010
0100
0000
0001
0000
1000
0000
,  // measure 27
0200
0010
0302
0000
0103
0010
0001
0001
,  // measure 28
1000
0000
1000
0010
0100
0000
0001
0000
0001
0010
0100
0000
1000
0000
0001
0000
,  // measure 29
0100
0100
0010
0010
0100
0001
1000
0100
,  // measure 30
0210
0000
0310
1002
0000
0103
0210
0000
,  // measure 31
0310
1002
0000
1003
0100
0001
0100
1000
,  // measure 32
0001
0100
0001
0100
1000
0100
1000
0100
,  // measure 33
0001
1000
0010
0100
0001
1000
1001
0000
,  // measure 34
0001
0010
0001
0010
1000
0010
0001
1000
,  // measure 35
0010
0000
0001
0000
0010
0000
1000
0000
0010
0000
0100
0000
0001
1000
0001
0000
,  // measure 36
1000
0100
1000
0100
0001
0100
0001
0100
,  // measure 37
1000
0001
0010
0100
1000
0001
1001
0000
,  // measure 38
1000
0010
1000
0010
0001
0010
1000
0100
,  // measure 39
0001
0000
0100
0000
1000
0000
0001
0000
0100
0000
0010
0100
0010
0000
1000
0000
,  // measure 40
0001
0000
0010
0000
0001
0000
0010
0000
0100
0000
0000
0000
0010
0000
0001
1000
,  // measure 41
0001
0000
0101
0000
0001
0100
0010
1000
,  // measure 42
0002
0000
0003
1000
0100
0010
0001
1000
,  // measure 43
0200
0000
0000
0000
0310
0100
0010
0001
,  // measure 44
1000
0000
0010
0000
1000
0000
0010
0000
0100
0000
0000
0000
0010
0000
1000
0001
,  // measure 45
1000
0000
0100
0010
0100
0000
1001
0000
,  // measure 46
1000
0000
0010
0001
0000
0010
1000
0000
0100
0001
0000
0100
,  // measure 47
2000
0000
0000
0000
3001
0000
0000
0001
,  // measure 48
1002
0010
1000
0000
,  // measure 49
1000
0000
0000
1000
0000
0000
1003
0010
1000
0100
0000
0000
,  // measure 50
2001
0010
0001
0000
,  // measure 51
0001
0000
0000
0001
0000
0000
3001
0010
0001
0100
0000
0000
,  // measure 52
1002
0000
0103
0010
1000
1000
0100
0010
,  // measure 53
0001
0001
0100
0010
1000
1000
0100
0010
,  // measure 54
0001
0010
0001
0000
1000
0010
1000
0000
0001
0010
0001
0000
1000
0010
1000
0000
,  // measure 55
0220
0000
0000
0000
0000
0000
0000
0000
0330
0000
0010
0100
0010
0000
1000
0000
,  // measure 56
0001
1000
0100
0002
0000
0103
1000
0100
,  // measure 57
1000
0000
0001
0000
0100
0000
2000
0000
0000
0000
3100
0000
0001
0100
0001
0000
,  // measure 58
1000
0010
0001
0010
1000
1000
0000
0001
,  // measure 59
0010
0000
1000
0000
0010
0000
0001
0000
0001
0000
1000
0000
0100
0010
0001
0000
,  // measure 60
1000
0000
0001
0000
0100
0000
2000
0000
0000
0000
3100
0000
0010
1000
0010
0000
,  // measure 61
1000
0000
0001
0000
0010
0000
2000
0000
0000
0000
3010
0000
0100
1000
0100
0000
,  // measure 62
1000
0000
0000
0001
0000
0000
0100
0010
1000
0000
0000
0000
0011
0000
0000
0000
,  // measure 63
1001
0000
0000
0000
0001
1000
0001
0000
0100
0000
0100
0000
0010
0000
0010
0000
,  // measure 64
1000
0001
0010
2000
0000
3010
0001
0010
,  // measure 65
0001
0000
1000
0000
0010
0000
0002
0000
0000
0000
0013
0000
1000
0010
1000
0000
,  // measure 66
0001
0010
1000
0001
0100
0100
0000
1000
,  // measure 67
0010
0000
0001
0000
1000
0000
0100
0000
0100
0000
0001
0000
1000
0001
1000
0000
,  // measure 68
0001
0000
1000
0000
0100
0000
0002
0000
0000
0000
0103
0000
0010
0001
0010
0000
,  // measure 69
0001
0000
1000
0000
0010
0000
0002
0000
0000
0000
0013
0000
0100
0001
0100
0000
,  // measure 70
0001
0000
1000
0000
0100
0000
0010
0000
0001
1000
0001
0000
0100
0010
0100
0000
,  // measure 71
1001
0110
0002
0000
,  // measure 72
1003
0000
0100
0010
0100
0000
0001
0000
0100
0010
0100
0000
1000
0000
0001
0000
,  // measure 73
0200
0010
2300
0000
3100
0010
1000
1000
,  // measure 74
0001
0000
0100
0010
0100
0000
1000
0000
0100
0010
0100
0000
0001
0000
1000
0000
,  // measure 75
0200
0010
0302
0000
0103
0010
0001
0001
,  // measure 76
1000
0000
0010
0100
0010
0000
1000
0000
0010
0001
0010
0000
1000
0000
0100
0000
,  // measure 77
0020
0100
2030
0000
3010
0001
1000
1000
,  // measure 78
0001
0000
0010
0100
0010
0000
0001
0000
0010
1000
0010
0000
0001
0000
0100
0000
,  // measure 79
0020
0000
0100
0000
0031
0000
0000
0000
0010
0100
0010
0100
0010
0100
0010
0100
,  // measure 80
0000
2002
0000
0000
,  // measure 81
0000
3003
0000
0000
;

//---------------dance-single - ----------------
#NOTES:
     dance-single:
     :
     Medium:
     10:
     0.471980,0.542665,0.311685,0.445264,0.000000,371.000000,336.000000,35.000000,50.000000,0.000000,0.000000,0.471980,0.542665,0.311685,0.445264,0.000000,371.000000,336.000000,35.000000,50.000000,0.000000,0.000000:
0000
0000
0000
0000
,
0000
0000
0000
0000
,
0000
0000
0000
0000
,
0000
0000
0000
0000
,
0000
0000
0000
0000
,
0000
0000
0000
0000
,
2001
0010
0001
0000
,
0001
0000
3001
0010
,
1002
0010
1000
0000
,
1000
0000
1003
0010
,
2001
0010
0001
0000
,
0001
0000
3100
0010
,
0220
0330
0001
1000
,
0002
0203
2300
3020
,
0032
0000
0000
0003
,
0101
0000
0000
0000
1010
0000
0001
1000
,
0200
0000
0000
0010
0000
0000
0010
0000
,
0000
0310
0000
0000
1001
0000
1000
0001
,
0200
0000
0000
0010
0000
0000
0010
0000
,
0000
0310
0000
0000
1001
0000
0001
1000
,
0002
0000
0000
0010
0000
0000
0013
0000
,
0002
0000
0023
0000
0130
1000
0001
0000
,
2000
0000
0000
0010
0000
0000
3010
0000
,
2000
0000
3020
0000
0130
0001
1000
0000
,
0001
0010
0000
0001
0010
0000
0001
0010
,
0100
0000
0011
0000
0100
0010
0001
0000
,
1000
0010
0000
1000
0010
0000
1000
0010
,
0100
0000
1010
0000
0100
0010
1000
0000
,
0001
0010
0000
0100
1000
0000
0001
0100
,
0010
0000
1001
0000
1000
0100
0010
0000
,
0012
0000
0000
2003
0000
0000
3020
0000
,
0000
0230
0000
0310
0110
0000
0110
0000
,
0001
0000
0001
0000
0100
0001
1000
0001
,
0000
0010
0000
0010
0000
0100
0010
0000
,
0001
0000
0001
0000
0010
0001
1000
0001
,
0000
0101
0000
1010
0000
1000
0001
0000
,
1000
0000
1000
0000
0100
1000
0001
1000
,
0000
0010
0000
0010
0000
0100
0010
0000
,
1000
0000
1000
0000
0010
1000
0001
1000
,
0000
1100
0000
0011
0000
0001
1000
0000
,
0002
0103
2000
3100
,
0001
0000
1000
0000
0001
0010
0100
1000
,
0002
0000
0003
1000
0010
0100
0001
0000
,
0020
0000
0000
0000
0130
0010
0001
0000
,
2000
3100
0002
0103
,
1000
0000
0001
0100
0010
1000
0001
0000
,
2000
3200
0302
0203
,
0320
0000
0000
0000
0130
0000
0000
0100
,
1002
0010
1000
0000
,
1000
1000
0103
0010
,
2001
0010
0001
0000
,
0001
0001
3100
0010
,
1002
0000
0103
0000
0001
0100
0001
0000
,
1000
0100
1000
0000
0001
0100
0001
0000
,
1000
0100
0010
0000
0001
0100
0010
0000
,
0220
0000
0000
0330
,
1000
0000
0100
0002
0000
0103
0000
1000
,
0001
0000
0100
2000
0000
3100
0001
0000
,
1000
0100
0010
0000
0001
0100
0000
0010
,
0000
1000
0000
0001
0010
0100
1000
0000
,
0001
0000
0100
2000
0000
3100
0000
0100
,
0001
0000
0010
2000
0000
3010
0001
0000
,
1000
0000
0001
0100
0010
0000
0110
0000
,
1001
0000
1001
0000
1000
0100
0010
0001
,
1000
0000
0010
0002
0000
0013
0000
1000
,
0001
0000
0010
2000
0000
3010
0001
0000
,
0011
0000
1100
0000
0001
0010
0100
1000
,
0000
0001
0000
1000
0010
0100
0001
0000
,
1000
0000
0100
0002
0000
0103
0000
0100
,
1000
0000
0010
0002
0000
0013
1000
0000
,
0001
1000
0001
1000
0100
0000
0100
0000
,
0110
1001
2002
3003
,
0001
0100
0000
0001
0100
0000
0010
1000
,
0100
0000
0011
0000
0100
0010
0001
0000
,
1000
0100
0000
1000
0100
0000
0010
0001
,
0100
0000
1010
0000
0001
0100
0010
0000
,
1000
0100
0000
1000
0100
0000
0001
0100
,
1000
0000
1001
0000
1000
0010
0100
0000
,
0001
0100
0000
0001
0100
0000
1000
0100
,
0001
0000
1001
0000
0001
0010
0100
1000
,
0000
2002
0000
0000
,
0000
3003
0000
0000
;

//---------------dance-single - ----------------
#NOTES:
     dance-single:
     :
     Easy:
     7:
     0.319318,0.361777,0.249348,0.516506,0.000000,251.000000,223.000000,28.000000,58.000000,0.000000,0.000000,0.319318,0.361777,0.249348,0.516506,0.000000,251.000000,223.000000,28.000000,58.000000,0.000000,0.000000:
0000
0000
0000
0000
,
0000
0000
0000
0000
,
0000
0000
0000
0000
,
0000
0000
0000
0000
,
0000
0000
0000
0000
,
0000
0000
0000
0000
,
2001
0000
0010
0000
,
0010
0000
3010
1000
,
1002
0000
0010
0000
,
0010
0000
0013
0001
,
2001
0000
0010
0000
,
0010
0000
3100
0010
,
1002
0000
0103
0000
,
0001
0100
0010
1000
,
2002
0000
0000
3003
,
1100
0000
0011
1000
,
0002
0000
0100
0000
,
0100
0000
0103
0010
,
2000
0000
0100
0000
,
0100
0000
3100
0010
,
0002
0003
0002
0003
,
0010
0001
0100
0010
,
2000
3000
2000
3000
,
0010
1000
0100
0010
,
0022
0033
0022
0033
,
1000
0001
0100
0010
,
2020
3030
2020
3030
,
0001
1000
0100
0010
,
0001
0001
1000
1000
,
0001
0100
0010
1000
,
2002
0000
0000
0000
,
3003
0000
1001
1001
,
0001
0010
0001
0000
,
0010
0010
0100
0100
,
1000
0010
1000
0000
,
0010
0010
0100
0100
,
0001
1000
0100
0000
,
0010
0010
0100
0100
,
1000
0001
0100
0000
,
0010
1000
0001
0010
,
0200
0300
0020
0030
,
0001
0010
0100
1000
,
0002
0003
0100
0010
,
2000
0000
3001
0000
,
0200
0300
0020
0030
,
1000
0010
0100
0001
,
2000
3200
0320
0032
,
2003
0000
3001
0000
,
1002
0000
0100
0000
,
0100
0100
0103
0010
,
2001
0000
0100
0000
,
0100
0100
3100
0010
,
1002
0103
0100
0010
,
0010
0100
0100
0010
,
1000
0100
0010
0001
,
2002
0000
0000
3003
,
0001
0100
1000
0000
,
1000
0100
0001
0000
,
1000
1000
0010
0100
,
0001
0001
1000
0000
,
1000
0100
0001
0000
,
1000
0010
0001
0000
,
1000
0100
0010
0001
,
0100
0010
1000
0000
,
0001
0010
1000
0000
,
1000
0010
0001
0000
,
0010
0010
0100
1000
,
0001
0001
0100
0000
,
0001
0100
1000
0000
,
0001
0010
1000
0000
,
0001
0001
1000
1000
,
0100
0010
0220
0330
,
0022
0033
0022
0033
,
0010
0001
0100
0010
,
2020
3030
2020
3030
,
0010
1000
0001
0010
,
2200
3300
2200
3300
,
0100
1000
0010
0100
,
0202
0303
0202
0303
,
1000
0100
0001
0100
,
0000
2002
0000
0000
,
0000
3003
0000
0000
;

//---------------dance-single - ----------------
#NOTES:
     dance-single:
     :
     Beginner:
     4:
     0.211182,0.325599,0.097958,0.071242,0.000000,166.000000,155.000000,11.000000,8.000000,0.000000,0.000000,0.211182,0.325599,0.097958,0.071242,0.000000,166.000000,155.000000,11.000000,8.000000,0.000000,0.000000:
0000
0000
0000
0000
,
0000
0000
0000
0000
,
0000
0000
0000
0000
,
0000
0000
0000
0000
,
0000
0000
0000
0000
,
0000
0000
0000
0000
,
1001
0000
0000
0000
,
0000
0000
1000
0000
,
1001
0000
0000
0000
,
0000
0000
0001
0000
,
1001
0000
0000
0000
,
0000
0000
0100
0000
,
1001
0000
0000
0000
,
1000
0000
0001
0000
,
0020
0000
0000
0000
,
0030
0000
0000
0000
,
0001
0000
0001
0000
,
0001
0000
1000
1000
,
1000
0000
1000
0000
,
1000
0000
0001
0001
,
0001
0000
0100
0000
,
0001
0001
0001
0000
,
1000
0000
0100
0000
,
1000
1000
1000
0000
,
0001
0000
0010
0000
,
0001
0010
0001
0000
,
1000
0000
0010
0000
,
1000
0010
1000
0000
,
0001
0000
1000
0000
,
0001
1000
0001
0000
,
0020
0000
0000
0000
,
0030
0000
1001
0000
,
0001
0000
0001
0000
,
0010
0010
0100
0000
,
1000
0000
1000
0000
,
0010
0010
0100
0000
,
0001
0000
1000
0000
,
0001
0001
1000
0000
,
0100
0000
0010
0000
,
0100
0010
0100
0000
,
1000
0000
0000
0000
,
0001
0000
0000
0000
,
0100
0000
0010
0000
,
0100
0000
0000
0000
,
0001
0000
0000
0000
,
1000
0000
0000
0000
,
0100
0000
0010
0000
,
0001
0000
1000
0000
,
0020
0000
0000
0000
,
0030
0000
0010
0000
,
1001
0000
0000
0000
,
0000
0000
0100
0000
,
1001
0000
0001
0000
,
1000
0000
1000
0000
,
0001
0000
1000
0000
,
0200
0000
0300
0000
,
0010
0100
0010
0000
,
0100
0010
0100
0000
,
1000
1000
1000
0000
,
0001
0000
1000
0000
,
0010
0100
0010
0000
,
0100
0010
0100
0000
,
0001
0001
0001
0000
,
1000
0000
0001
0000
,
1000
0100
1000
0000
,
0001
0100
0001
0000
,
0010
0010
0010
0000
,
0100
0000
1000
0000
,
0001
0010
0001
0000
,
1000
0010
1000
0000
,
0010
0000
0010
0000
,
1001
1001
1001
0000
,
0002
0000
0013
0000
,
0010
0100
0010
0000
,
0001
0000
0010
0000
,
0001
0100
0010
0000
,
2000
0000
3010
0000
,
0010
0100
0010
0000
,
1000
0000
0010
0000
,
1000
0001
1000
0001
,
0000
2002
0000
0000
,
0000
3003
0000
0000
;
