#VERSION:0.83;
#TITLE:少女レイ;
#SUBTITLE:;
#ARTIST:Synthion feat. Nini Yuuna;
#TITLETRANSLIT:Shoujo Rei;
#SUBTITLETRANSLIT:;
#ARTISTTRANSLIT:;
#GENRE:;
#ORIGIN:;
#CREDIT:;
#BANNER:Shoujo Rei.png;
#BACKGROUND:Shoujo Rei-bg.png;
#PREVIEWVID:;
#JACKET:Shoujo Rei-jacket.png;
#CDIMAGE:;
#DISCIMAGE:;
#LYRICSPATH:;
#CDTITLE:;
#MUSIC:Shoujo Rei.ogg;
#OFFSET:-0.025000;
#SAMPLESTART:46.451004;
#SAMPLELENGTH:12.799999;
#SELECTABLE:YES;
#BPMS:0.000=150.000;
#STOPS:;
#DELAYS:;
#WARPS:;
#TIMESIGNATURES:0.000=4=4;
#TICKCOUNTS:0.000=4;
#COMBOS:0.000=1;
#SPEEDS:0.000=1.000=0.000=0;
#SCROLLS:0.000=1.000;
#FAKES:;
#LABELS:0.000=Song Start;
#BGCHANGES:;
#KEYSOUNDS:;
#ATTACKS:
;

//---------------dance-single - ----------------
#NOTEDATA:;
#CHARTNAME:;
#STEPSTYPE:dance-single;
#DESCRIPTION:;
#CHARTSTYLE:;
#DIFFICULTY:Hard;
#METER:11;
#RADARVALUES:0.359557,0.550802,0.192901,0.376617,0.027557,274.000000,253.000000,21.000000,41.000000,24.000000,0.000000,0.000000,0.000000,0.000000,0.359557,0.550802,0.192901,0.376617,0.027557,274.000000,253.000000,21.000000,41.000000,24.000000,0.000000,0.000000,0.000000,0.000000;
#CREDIT:;
#NOTES:
0000
0000
0000
0000
,
0000
0000
0000
0000
,
0000
0000
0000
0000
,
0000
0000
0000
0000
,
1000
0000
0100
0000
0100
0010
0100
0010
,
0001
0000
0000
0001
0000
0000
0001
0000
1000
0000
0000
0000
1000
0000
0000
0000
,
0001
0000
0100
0000
0100
0010
1000
0001
,
1001
1001
0110
MMMM
,
1000
0000
0001
0000
0000
0001
1000
0000
,
0001
0100
0010
1000
0001
1000
1000
0000
,
0100
0000
0010
0000
0000
0010
0100
0000
,
0010
0001
1000
0010
0100
0010
0010
0000
,
1000
0000
0001
0000
0000
0001
1000
0000
,
0001
0100
0010
1000
0001
1000
1000
0000
,
0100
0000
0000
0010
0000
0000
0100
0000
0000
0010
0000
0000
0001
0000
1000
0000
0001
0000
1000
0000
0001
0000
1000
0000
,
0001
0110
2001
0000
,
3002
0000
0000
0000
,
0023
0000
0000
0000
,
0230
0000
0000
0300
,
0110
0011
1001
1010
,
0210
0000
0000
0000
,
0302
0000
0000
0000
,
2003
0000
0000
0000
,
0002
0000
0000
3003
,
1000
0100
0010
0010
0000
0001
0000
0001
,
1000
0001
2000
0000
3020
0000
0000
0000
,
0130
0000
0010
1000
0000
0100
0010
0002
,
1000
1000
0010
0010
,
1003
0010
0100
0001
1000
0100
0010
0001
,
2000
0000
0000
0000
3010
0001
2000
0000
,
0000
0000
3001
0000
0010
0000
1000
0001
,
0011
0000
0011
0000
0010
0001
2001
0000
,
0000
0010
3001
0000
,
0002
0000
0000
0000
0013
1000
0002
0000
,
0000
1003
0010
0001
,
2000
0000
0000
0000
3010
0001
2000
0000
,
0000
0000
3001
0000
0010
0100
0001
1000
,
0002
0000
0000
0000
0013
1000
0002
0000
,
0000
1003
0010
0001
,
1001
0000
1001
0000
0001
0100
0210
0000
,
0000
1000
0302
0000
,
0023
0000
1030
0000
,
1010
1010
0110
0110
,
2000
0000
0000
0000
3010
0001
2000
0000
,
0000
0000
3001
0010
1000
0000
0000
0000
,
0002
0000
0000
0000
0013
0100
0002
0000
,
0000
0000
0103
0010
0010
0000
0010
0100
,
2000
0000
0000
0001
0000
0010
3020
0000
,
0000
0000
0130
0001
0001
0000
0010
0100
,
2000
0000
0000
0000
3010
0100
2000
0000
,
0000
0000
3100
0010
0010
0000
0010
0100
,
0002
0000
0000
1000
0000
0010
0023
0000
,
0000
0100
0031
0000
,
2000
0000
0000
0000
3010
0100
2000
0000
,
0000
0000
3100
0010
0010
0000
0010
0100
,
0002
0000
0000
1000
0000
0010
0023
0000
,
0000
0000
0130
1000
1000
0000
0010
0100
,
0002
0000
0000
0000
0013
0100
0002
0000
,
0000
0000
0103
0010
0010
0000
0010
0100
,
2000
0000
0000
0001
0000
0010
3020
0000
,
0000
0000
0000
0000
0130
0001
0001
0000
,
MMMM
0001
1000
1000
,
MMMM
1000
0100
0100
,
MMMM
0100
0010
0010
,
MMMM
0000
0010
0000
0001
1000
0001
0000
,
1001
0000
0000
0001
0000
0000
0001
0000
1000
0000
0000
0000
1000
0000
0000
0000
,
0010
0100
0001
0001
1000
MMMM
0000
0000
;

//---------------dance-single - ----------------
#NOTEDATA:;
#CHARTNAME:;
#STEPSTYPE:dance-single;
#DESCRIPTION:;
#CHARTSTYLE:;
#DIFFICULTY:Medium;
#METER:9;
#RADARVALUES:0.318878,0.428401,0.248016,0.376617,0.000000,243.000000,216.000000,27.000000,41.000000,0.000000,0.000000,0.000000,0.000000,0.000000,0.318878,0.428401,0.248016,0.376617,0.000000,243.000000,216.000000,27.000000,41.000000,0.000000,0.000000,0.000000,0.000000,0.000000;
#CREDIT:;
#NOTES:
0000
0000
0000
0000
,
0000
0000
0000
0000
,
0000
0000
0000
0000
,
0000
0000
0000
0000
,
0001
0000
0100
0000
0010
0100
0010
0000
,
1000
1000
0001
0001
,
1000
0000
0100
0000
0010
0100
0010
0000
,
0110
0110
1001
0001
,
1000
0000
0001
0000
0000
0001
1000
0000
,
0001
0100
0010
0000
0110
0000
0000
0000
,
0010
0000
0100
0000
0000
0100
0010
0000
,
0100
0001
1000
0000
1001
0000
0000
0000
,
0001
0000
1000
0000
0000
0001
1000
0000
,
0001
0010
0100
0000
0110
0000
0000
0000
,
0100
0010
0100
0000
1000
0100
1000
0000
,
1001
0110
2001
0000
,
3002
0000
0000
0000
,
0203
0000
0000
0000
,
0320
0000
0000
0030
,
0110
0110
1010
1001
,
2000
0000
0000
0000
,
3200
0000
0000
0000
,
0320
0000
0000
0000
,
0200
0000
0000
0330
,
0010
0000
0001
0001
0000
1000
0000
0001
,
1000
0010
0200
0000
,
0310
0000
0100
0001
0000
0010
0100
0000
,
2000
0001
0010
0010
,
3001
1000
0001
0010
0200
0000
0000
0000
,
2300
0000
0000
0000
3001
0100
0020
0000
,
0000
0100
1030
0000
,
1010
0000
1010
0000
1000
0001
2000
0000
,
0000
0010
3001
0000
,
0002
0000
0000
0000
1003
0100
0020
0000
,
0000
0100
0031
0000
,
2000
0000
0000
0000
3001
0100
0020
0000
,
0000
0000
0100
0000
1030
0001
1000
0000
,
0002
0000
0000
0000
1003
0100
0020
0000
,
0000
0100
0031
0000
,
0011
0000
0011
0000
0001
1000
0002
0000
,
0000
0010
1003
0000
,
0002
0000
1003
0000
,
1001
1001
1010
1010
,
0210
0000
0010
0002
,
0000
0000
0303
0000
,
0002
0000
1000
0023
,
0000
0000
0100
0000
0031
0000
1000
0001
,
2000
0000
0000
0001
0000
0010
3020
0000
,
0000
0100
1030
0001
,
2000
0000
0001
3200
,
0000
0000
0010
0000
1300
0000
0001
1000
,
0002
0000
0000
1000
0000
0100
0203
0000
,
0000
0010
0301
0000
,
2000
0000
0001
3020
,
0000
0000
0100
0000
1030
0000
0001
1000
,
0002
0000
0000
1000
0000
0010
0023
0000
,
0000
0100
0031
1000
,
0002
0000
1000
0203
,
0000
0000
0010
0000
0301
0000
1000
0001
,
2000
0000
0000
0001
0000
0100
3200
0000
,
0000
0000
0010
0000
1300
0001
1000
0000
,
1001
0100
0010
0010
,
1001
0100
0010
0010
,
1001
0100
0010
0010
,
1001
0000
1000
0000
0001
1000
0001
0000
,
1001
0000
0100
0000
0010
0100
0010
0000
,
2000
0000
3001
1000
0100
0010
0000
0000
;

//---------------dance-single - ----------------
#NOTEDATA:;
#CHARTNAME:;
#STEPSTYPE:dance-single;
#DESCRIPTION:;
#CHARTSTYLE:;
#DIFFICULTY:Easy;
#METER:4;
#RADARVALUES:0.174530,0.275401,0.146972,0.496032,0.000000,133.000000,117.000000,16.000000,54.000000,0.000000,0.000000,0.000000,0.000000,0.000000,0.174530,0.275401,0.146972,0.496032,0.000000,133.000000,117.000000,16.000000,54.000000,0.000000,0.000000,0.000000,0.000000,0.000000;
#CREDIT:;
#NOTES:
0000
0000
0000
0000
,
0000
0000
0000
0000
,
0000
0000
0000
0000
,
0000
0000
0000
0000
,
0001
0100
0010
1000
,
0001
0000
0000
0000
,
1000
0100
0010
0001
,
1000
1000
0001
0000
,
1000
0001
0100
1000
,
0010
0001
1000
0000
,
0001
0001
1000
0001
,
0100
0010
0100
0000
,
0001
1000
0100
0001
,
0010
1000
0001
0000
,
1000
1000
0001
1000
,
0100
0100
0110
0000
,
0002
0000
0000
0000
,
2003
0000
0000
0000
,
3020
0000
0000
0000
,
0130
0100
0100
0110
,
2000
0000
0000
0000
,
3002
0000
0000
0000
,
0023
0000
0000
0000
,
0200
0000
0000
0330
,
0100
1000
0000
1000
,
0001
2000
3002
0000
,
1003
0100
0010
0002
,
2000
0000
0000
0000
,
3003
0000
0000
0000
,
2020
0000
0000
3030
0000
0000
0022
0000
,
0000
0000
0000
0033
0000
0000
0000
0000
,
1000
1000
0001
2002
,
0000
0000
0000
3003
0000
0000
0000
0000
,
0022
0000
0000
0033
0000
0000
2020
0000
,
0000
0000
0000
3030
0000
0000
0000
0000
,
0202
0000
0000
0303
0000
0000
2200
0000
,
0000
0000
0000
3300
0000
0000
0000
0000
,
0220
0000
0000
0330
0000
0000
2002
0000
,
0000
0000
0000
3003
0000
0000
0000
0000
,
0001
0001
1000
2002
,
0000
0000
3003
0000
,
2020
0000
0000
3030
0000
0000
0000
0000
,
0010
0010
1000
1000
,
1002
0000
0000
0020
,
0000
0000
0033
0000
,
0002
0000
0000
2003
,
0000
0000
0010
0000
,
3002
0000
0000
0023
,
0000
0000
0100
0000
,
0032
0000
0000
2003
,
0000
0000
0010
0000
,
3002
0000
0000
0023
,
0000
0000
0130
0000
,
2000
0000
0000
3002
,
0000
0000
0010
0000
,
2003
0000
0000
3020
,
0000
0000
0100
0000
,
2030
0000
0000
3002
,
0000
0000
0010
0000
,
2003
0000
0000
3020
,
0000
0000
0100
0200
,
0330
0000
0000
0000
,
0000
0000
0000
0000
,
0000
0000
0000
0000
,
0000
0000
0000
0000
,
1000
0100
0010
0001
,
1000
0000
1001
0000
0220
0330
0000
0000
;

//---------------dance-single - ----------------
#NOTEDATA:;
#CHARTNAME:;
#STEPSTYPE:dance-single;
#DESCRIPTION:;
#CHARTSTYLE:;
#DIFFICULTY:Beginner;
#METER:2;
#RADARVALUES:0.116791,0.183601,0.036743,0.376617,0.000000,89.000000,85.000000,4.000000,41.000000,0.000000,0.000000,0.000000,0.000000,0.000000,0.116791,0.183601,0.036743,0.376617,0.000000,89.000000,85.000000,4.000000,41.000000,0.000000,0.000000,0.000000,0.000000,0.000000;
#CREDIT:;
#NOTES:
0000
0000
0000
0000
,
0000
0000
0000
0000
,
0000
0000
0000
0000
,
0000
0000
0000
0000
,
1000
0000
0000
0000
,
0001
0000
0000
0000
,
0100
0000
0000
0000
,
0010
0000
0010
0000
,
1000
0000
0000
1000
,
0000
0001
0000
0001
,
0000
0010
0000
0010
,
0000
1000
1000
0000
,
0001
0000
0000
0001
,
0000
1000
0000
1000
,
1000
0000
0001
0000
,
1000
1000
1000
0000
,
0002
0000
0003
0000
,
0200
0000
0300
0000
,
0020
0000
0030
0000
,
1001
0000
0110
0000
,
2000
0000
3000
0000
,
0002
0000
0003
0000
,
0020
0000
0030
0000
,
0200
0000
0300
0000
,
2000
0000
3000
0000
,
0001
0000
0100
0000
,
0020
0000
0030
0000
,
0100
0000
0100
0000
,
0001
0001
0001
0000
,
2000
0000
0000
3000
0000
0000
0200
0000
,
0000
0000
0000
0300
0000
0000
0000
0000
,
0010
0010
0000
2002
,
0000
0000
3003
0000
,
0002
0000
0000
0003
0000
0000
0200
0000
,
0000
0000
0000
0300
0000
0000
0000
0000
,
0020
0000
0000
0030
0000
0000
2000
0000
,
0000
3000
0000
0000
,
0200
0000
0000
0300
0000
0000
0020
0000
,
0000
0000
0000
0030
0000
0000
0000
0000
,
0001
0001
0000
2002
,
0000
0000
0000
3003
0000
0000
0000
0000
,
2000
0000
0000
3000
0000
0000
0000
0000
,
0001
0001
0001
0001
,
0002
0003
0000
2000
,
0000
0000
3000
0000
,
0002
0000
0000
2000
,
0000
0000
3003
0000
,
0200
0000
0000
0020
,
0000
0000
0330
0000
,
2000
0000
0000
0002
,
0000
0000
3003
0000
,
0020
0000
0000
0200
,
0000
0000
0330
0000
,
2000
0000
0000
3000
0000
0000
0200
0000
,
0000
0300
0010
0000
,
0020
0000
0030
0002
,
0000
0003
1000
0000
,
2000
0000
3000
0020
,
0000
0030
0100
0000
,
0200
0000
0300
0002
,
0000
0000
1003
0000
,
0000
0000
0000
0000
,
0000
0000
0000
0000
,
0000
0000
0000
0000
,
0000
0000
0000
0000
,
1000
0000
0000
0000
,
0001
0000
0001
0000
2000
3000
0000
0000
;

//---------------dance-double - ----------------
#NOTEDATA:;
#CHARTNAME:;
#STEPSTYPE:dance-double;
#DESCRIPTION:;
#CHARTSTYLE:;
#DIFFICULTY:Hard;
#METER:12;
#RADARVALUES:0.362182,0.550802,0.202087,0.367431,0.027557,276.000000,254.000000,22.000000,40.000000,28.000000,0.000000,0.000000,0.000000,0.000000,0.362182,0.550802,0.202087,0.367431,0.027557,276.000000,254.000000,22.000000,40.000000,28.000000,0.000000,0.000000,0.000000,0.000000;
#CREDIT:;
#NOTES:
// measure 0
00000000
00000000
00000000
00000000
,  // measure 1
00000000
00000000
00000000
00000000
,  // measure 2
00000000
00000000
00000000
00000000
,  // measure 3
00000000
00000000
00000000
00000000
,  // measure 4
00010000
00000000
00001000
00000000
00000100
00001000
00000100
00001000
,  // measure 5
00010000
00000000
00000000
00010000
00000000
00000000
00010000
00000000
00001000
00000000
00000000
00000000
00001000
00000000
00000000
00000000
,  // measure 6
00010000
00000000
00001000
00000000
00000010
00001000
00010000
00001000
,  // measure 7
00011000
10010000
01100000
MMMM0000
,  // measure 8
10000000
00000000
00010000
00000000
00000000
00010000
10000000
00000000
,  // measure 9
00010000
10000000
01000000
00010000
00001000
00000100
00000100
00000000
,  // measure 10
00000001
00000000
00001000
00000000
00000000
00001000
00000001
00000000
,  // measure 11
00001000
00000001
00000010
00001000
00010000
01000000
01000000
00000000
,  // measure 12
10000000
00000000
00010000
00000000
00000000
00010000
10000000
00000000
,  // measure 13
00010000
10000000
00100000
00010000
00001000
00000010
00000010
00000000
,  // measure 14
00000100
00000000
00000000
00000010
00000000
00000000
00000100
00000000
00000000
00000010
00000000
00000000
00000001
00000000
00001000
00000000
00000001
00000000
00001000
00000000
00000001
00000000
00001000
00000000
,  // measure 15
00000001
00000110
00002001
00000000
,  // measure 16
00023000
00000000
00000000
00000000
,  // measure 17
00230000
00000000
00000000
00000000
,  // measure 18
02300000
00000000
00000000
03000000
,  // measure 19
11000000
10010000
10100000
01100000
,  // measure 20
10020000
00000000
00000000
00000000
,  // measure 21
00032000
00000000
00000000
00000000
,  // measure 22
00003200
00000000
00000000
00000000
,  // measure 23
00000020
00000000
00000000
00000330
,  // measure 24
00000001
00000100
00000010
00000010
00000000
00000100
00000000
00000100
,  // measure 25
00000001
00000010
00000100
00000000
00020000
00000000
00000000
00000000
,  // measure 26
00031000
00000000
00010000
00100000
00000000
00010000
00001000
00200000
,  // measure 27
01000000
01000000
10000000
10000000
,  // measure 28
01300000
00100000
00010000
10000000
00100000
00010000
00001000
00000100
,  // measure 29
00000002
00000000
00000000
00000000
00000013
00001000
00000002
00000000
,  // measure 30
00000000
00000000
00001003
00000000
00000010
00000000
00000001
00001000
,  // measure 31
00001010
00000000
00001010
00000000
00001000
00000001
00000021
00000000
,  // measure 32
00000000
00001000
00000130
00000000
,  // measure 33
00020000
00000000
00000000
00000000
00031000
00000100
00020000
00000000
,  // measure 34
00000000
00030100
00001000
00010000
,  // measure 35
00002000
00000000
00000000
00000000
00013000
01000000
00002000
00000000
,  // measure 36
00000000
00000000
01003000
00000000
00100000
00001000
01000000
00010000
,  // measure 37
20000000
00000000
00000000
00000000
30100000
00010000
20000000
00000000
,  // measure 38
00000000
00000000
30010000
00000000
00100000
00000000
10000000
00010000
,  // measure 39
00110000
00000000
00110000
00000000
00010000
10000000
10200000
00000000
,  // measure 40
00000000
00010000
01300000
00000000
,  // measure 41
00002000
00000000
00013000
00000000
,  // measure 42
00011000
00001010
00011000
00110000
,  // measure 43
00012000
00000000
00000000
00000000
00013000
00001000
00000020
00000000
,  // measure 44
00000000
00000100
00000031
00000000
,  // measure 45
00002000
00000000
00000000
00000000
00003001
00000100
00002000
00000000
,  // measure 46
00000000
00000000
00013000
00100000
00100000
00000000
00100000
10000000
,  // measure 47
00020000
00000000
00000000
00001000
00000000
10000000
20030000
00000000
,  // measure 48
00000000
00000000
31000000
00100000
00100000
00000000
10000000
00100000
,  // measure 49
00020000
00000000
00000000
00000000
10030000
00100000
00020000
00000000
,  // measure 50
00000000
00000000
00031000
00000010
00000010
00000000
00000010
00000001
,  // measure 51
00002000
00000000
00000000
00010000
00000000
00000001
00003002
00000000
,  // measure 52
00000000
00000010
00002003
00000000
,  // measure 53
00023000
00000000
00000000
00000000
10030000
01000000
00020000
00000000
,  // measure 54
00000000
00000000
00031000
00000010
00000010
00000000
00000010
00000001
,  // measure 55
00002000
00000000
00000000
00010000
00000000
00000001
00003002
00000000
,  // measure 56
00000000
00000000
00000013
00000100
00000100
00000000
00000001
00000100
,  // measure 57
00002000
00000000
00000000
00000000
00003001
00000100
00002000
00000000
,  // measure 58
00000000
00000000
00013000
00100000
00100000
00000000
00100000
10000000
,  // measure 59
00020000
00000000
00000000
00001000
00000000
10000000
20030000
00000000
,  // measure 60
00000000
00000000
00100000
00000000
30010000
10000000
10000000
00000000
,  // measure 61
MMMM0000
10000000
01000000
01000000
,  // measure 62
MMMM0000
01000000
00100000
00100000
,  // measure 63
MMMM0000
00100000
00001000
00001000
,  // measure 64
MMMMMMMM
00000000
00001000
00000000
00010000
00001000
00010000
00000000
,  // measure 65
00011000
00000000
00000000
00001000
00000000
00000000
00010000
00000000
00001000
00000000
00000000
00000000
00001000
00000000
00000000
00000000
,  // measure 66
00000010
00001000
00010000
00010000
00100000
MMMM0000
00000000
00000000
;
