#TITLE:Secrets;
#SUBTITLE:;
#ARTIST:good-cool feat. CHiCO;
#TITLETRANSLIT:;
#SUBTITLETRANSLIT:;
#ARTISTTRANSLIT:;
#GENRE:TECH-PARA;
#CREDIT:;
#BANNER:Secrets.png;
#BACKGROUND:Secrets-bg.png;
#LYRICSPATH:;
#CDTITLE:;
#MUSIC:Secrets.ogg;
#OFFSET:1.555213;
#SAMPLESTART:46.438980;
#SAMPLELENGTH:15.000000;
#LASTBEATHINT:1.332392;
#SELECTABLE:YES;
#BPMS:0.000000=150.000000
;
#STOPS:
;
#BGCHANGES:2.500=Secrets.mp4=1.000=1=0=1===CrossFade==,
99999=-nosongbg-=1.000=0=0=0 // don't automatically add -songbackground-
;
#KEYSOUNDS:;
#ATTACKS:;

//---------------dance-single - ----------------
#NOTES:
     dance-single:
     :
     Hard:
     16:
     0.849738,0.941758,0.395446,0.197723,1.054522,722.000000,674.000000,48.000000,24.000000,39.000000,0.000000,0.849738,0.941758,0.395446,0.197723,1.054522,722.000000,674.000000,48.000000,24.000000,39.000000,0.000000:
// measure 0
0000
0000
0000
0000
,  // measure 1
0000
0000
0000
0000
,  // measure 2
0000
0000
0000
0000
,  // measure 3
0000
0000
0000
0000
,  // measure 4
0000
0000
0000
0000
,  // measure 5
0001
1000
0000
0100
1000
0000
0001
0000
1000
0000
0001
0100
0000
010M
1000
0000
,  // measure 6
0001
1000
0000
0010
1000
0000
0001
0000
1000
0000
0001
0010
0000
001M
1000
0000
,  // measure 7
0001
0100
0000
0010
0100
0000
0001
0000
1000
0000
0001
0100
0000
010M
1000
0000
,  // measure 8
0001
0000
0001
0000
0100
0000
0100
0000
0010
0100
0000
0010
1000
0001
1000
0001
,  // measure 9
1000
0100
0000
0010
0100
0000
1000
0000
0001
0000
0100
0010
0000
0M10
0001
0000
,  // measure 10
0001
0100
0000
0010
0100
0000
0001
0000
1000
0000
0100
0010
0000
0M10
1000
0000
,  // measure 11
0001
0010
0000
1000
0010
0000
0001
0000
1000
0000
0010
0100
0000
01M0
1000
0000
,  // measure 12
0001
0001
0001
0100
1000
1000
1000
0100
,  // measure 13
0001
0010
0100
1000
0100
0010
0001
1000
0000
0000
0000
0000
1001
0000
1000
0001
,  // measure 14
1000
0100
0000
1000
0100
0000
1000
0000
0001
0000
0100
0010
0000
0010
0100
0000
,  // measure 15
0001
0010
0000
0001
0010
0000
0001
0000
1000
0010
0100
0010
1000
0010
0000
0000
,  // measure 16
1000
0001
1000
0000
0001
0010
0100
0010
0001
0000
1000
0000
0001
1000
0001
1000
,  // measure 17
0001
0200
0310
0200
1300
0200
0310
0200
,  // measure 18
0301
0100
0000
0001
0010
0000
0001
0000
1000
0000
0001
0010
0000
001M
1000
0000
,  // measure 19
0001
0100
0000
0010
0100
0000
0001
0000
1000
0100
0010
0100
1000
0001
0000
0000
,  // measure 20
1000
0010
0100
0000
0001
0010
0100
1000
0001
0000
0100
0000
0010
1000
0001
0100
,  // measure 21
0020
0000
0000
0000
0030
0000
0000
0000
1000
0100
0000
M100
0000
0001
1000
0000
,  // measure 22
0002
0000
0003
0010
0100
0010
0100
0000
2000
0000
3000
0000
0001
0100
0001
0100
,  // measure 23
0010
0000
0M10
0001
0010
0001
1000
0000
0010
0000
0100
0000
1001
0000
0000
0000
,  // measure 24
1000
0100
1000
0100
0010
0000
0M10
0000
1000
0010
1000
0010
0100
0000
01M0
0000
,  // measure 25
1000
0100
1000
0100
0010
0000
0010
0001
1000
0010
1000
0010
0100
0001
0100
0001
,  // measure 26
1000
0000
0001
0010
0001
0000
0100
0000
0001
0000
1000
0000
0100
1000
0100
1000
,  // measure 27
0010
1000
0010
1000
0002
0000
0103
0000
0001
0000
0010
0000
1001
0000
0000
0000
,  // measure 28
1000
0000
0020
0000
0032
0000
2003
0000
3200
0000
0000
0320
0000
0000
1030
0000
,  // measure 29
0002
0000
0023
0000
2030
0000
3002
0000
0103
0000
0110
0000
0010
0000
0001
1000
,  // measure 30
0001
0100
1000
0100
0010
MM0M
0001
0010
,  // measure 31
1000
0010
0100
M0MM
0001
0100
1000
0001
,  // measure 32
0020
0000
1030
2000
0000
0001
3001
0000
,  // measure 33
1000
0100
1000
0100
0010
0001
0010
0001
1000
0010
1000
0010
0100
0001
0100
0001
,  // measure 34
1000
0100
0001
0100
0010
MM0M
1000
0010
,  // measure 35
0001
0010
0100
M0MM
1000
0100
0001
1000
,  // measure 36
0020
0000
0031
0002
0000
1000
1003
0000
,  // measure 37
0001
0100
0001
0100
0010
1000
0010
1000
0001
0010
0001
0010
0100
1000
0100
1000
,  // measure 38
0001
1000
0100
0000
M100
0001
1000
0000
0001
0010
0000
001M
0000
1000
0001
1000
,  // measure 39
0001
0000
0100
0010
0000
0100
1000
0000
1000
0000
0000
0100
0010
0000
1010
0000
,  // measure 40
1000
0000
0100
0001
0000
0100
0010
0000
0010
0000
0000
0001
0010
0100
1000
0100
,  // measure 41
0010
0000
0001
0100
0000
1000
0100
0000
0010
0000
0000
1000
0001
0000
1001
0000
,  // measure 42
1000
0100
0010
0001
1000
0010
0100
0001
1000
0100
0000
0001
0100
0000
1000
0001
,  // measure 43
1000
0000
0100
0010
0000
0M10
1000
0000
0001
0000
0000
0010
0100
0000
1100
0000
,  // measure 44
0000
1000
0100
0010
0M10
1000
0001
0000
1000
0000
0000
0001
0100
0010
1000
0001
,  // measure 45
1000
0000
0010
0100
0000
01M0
1000
0000
0001
0000
0000
0100
0010
0000
1010
0000
,  // measure 46
1000
0100
0010
0001
1000
0010
0100
0001
1000
0010
0000
M010
0001
0000
1000
0001
,  // measure 47
1000
0100
0000
0001
0000
0100
1000
0000
0000
0000
0000
0000
1001
0000
0000
0000
,  // measure 48
0001
0100
0000
1000
0000
0100
0001
0000
1001
0000
0000
0000
1001
1000
0010
0100
,  // measure 49
0001
0010
0000
1000
0000
0010
0001
0000
1001
0000
1001
0000
1001
0000
0000
0000
,  // measure 50
0001
0100
0010
1000
0010
0100
0001
0000
1000
0100
0010
0001
0010
0100
1000
0001
,  // measure 51
1000
0010
0000
0001
00M0
0001
1000
0000
0000
0000
0000
0000
1001
1000
0001
0000
,  // measure 52
1000
0100
0000
0001
0M00
0001
1000
0000
1001
0000
0000
0000
1001
0001
0100
0010
,  // measure 53
1000
0010
0000
0001
0000
1000
0100
0000
0110
0000
0110
0000
1001
0001
1000
0000
,  // measure 54
0001
0010
0100
1000
0001
0100
0010
1000
0001
0100
0010
0100
1000
0100
0010
0100
,  // measure 55
0002
0000
0000
0000
0003
0000
0000
0000
1000
0100
0010
0001
0010
0100
0000
1000
,  // measure 56
0001
0100
0000
0010
0000
0001
0010
0000
1000
0000
1000
0000
0001
0000
0001
0000
,  // measure 57
1000
0100
0000
0010
0000
1000
0010
0000
1010
0000
0000
0000
0011
0000
0000
0000
,  // measure 58
0001
0100
0000
0010
0000
0001
0010
0000
1000
0000
1000
0000
0001
0000
0001
0000
,  // measure 59
1000
0100
0010
0100
0010
0100
0000
01M0
0001
0010
0100
0010
0100
0010
0000
0M10
,  // measure 60
1000
0010
0000
0001
0000
1000
0100
0000
0001
0000
0001
0000
1000
0000
1000
0000
,  // measure 61
0001
0010
0000
1000
0000
0001
0100
0000
1100
0000
1100
0000
1001
0000
0000
0000
,  // measure 62
1000
0010
0000
0001
0000
1000
0100
0000
0010
0000
0010
0000
1000
0000
1000
0000
,  // measure 63
0001
0010
0100
0010
0100
0010
0000
0M10
1000
0100
0010
0100
0010
0100
0000
01M0
,  // measure 64
0001
0000
0000
0000
0101
0000
0101
0000
0000
0011
0000
0000
1001
0000
0000
0000
,  // measure 65
1000
0001
1100
0101
,  // measure 66
1000
0000
0000
0000
1010
0000
1010
0000
0000
1100
0000
0000
1001
0000
0000
0000
,  // measure 67
1000
0010
0100
0001
1000
0001
0010
0100
1000
0010
0100
0010
1000
0100
0000
M100
,  // measure 68
0001
0000
0000
0000
0011
0000
1100
0000
0000
1010
0000
0000
0101
0000
0000
0000
,  // measure 69
0001
0000
1000
0000
1010
1010
0011
0011
,  // measure 70
1000
0000
0000
0000
1100
0000
0011
0000
0000
1010
0000
0000
0101
0000
0000
0000
,  // measure 71
0001
0010
0100
1000
0001
1000
0010
0100
0001
0010
1000
0010
0001
0010
000M
0010
,  // measure 72
1000
0100
0001
0100
1000
0100
M000
0100
0001
0100
1000
0100
0001
0100
000M
0100
,  // measure 73
1000
0010
0001
0010
1000
0010
0000
2002
0000
0000
0000
0000
3003
0000
0000
0000
;

//---------------dance-single - ----------------
#NOTES:
     dance-single:
     :
     Medium:
     12:
     0.619061,0.637965,0.263631,0.173008,0.387207,526.000000,494.000000,32.000000,21.000000,0.000000,0.000000,0.619061,0.637965,0.263631,0.173008,0.387207,526.000000,494.000000,32.000000,21.000000,0.000000,0.000000:
0000
0000
0000
0000
,
0000
0000
0000
0000
,
0000
0000
0000
0000
,
0000
0000
0000
0000
,
0000
0000
0000
0000
,
1000
0100
0000
1000
0100
0000
1000
0000
0001
0000
0000
0100
0000
0000
0010
0000
,
1000
0010
0000
1000
0010
0000
1000
0000
0001
0000
0000
0010
0000
0000
0100
0000
,
1000
0001
0000
1000
0001
0000
0100
0000
0010
0000
0000
1000
0000
0000
0001
0000
,
1000
0000
1000
0000
0100
0000
0100
0000
0010
0000
0010
0000
0001
1000
0001
0000
,
1000
0010
0000
0100
0010
0000
1000
0000
0001
0000
0000
0010
0000
0000
1001
0000
,
1000
0100
0000
0010
0100
0000
1000
0000
0001
0000
0000
0100
0000
0000
1001
0000
,
1000
0100
0000
0010
0001
0000
1000
0000
0010
0000
0000
0101
0000
0000
1001
0000
,
0001
0001
0001
1000
0100
0100
0100
0010
,
0001
0000
0100
0000
0010
0000
1000
0001
0000
0000
0000
0000
0110
0000
0000
0000
,
1001
0000
0001
0100
0010
0100
0000
1000
,
0000
0100
0002
0000
0013
0000
0011
0000
,
1200
0000
0301
0000
0100
1000
0001
0000
,
1000
0020
0130
0002
1003
0200
0310
0002
,
1003
0000
0001
0010
0100
0010
0000
1000
,
0000
0010
0002
0000
0103
0000
0101
0000
,
1020
0000
0031
0000
0010
1000
0001
0000
,
1001
0000
0000
0000
0000
0000
0000
0000
1000
0100
0000
1000
0000
0001
0100
0000
,
1001
0000
0000
0001
0010
0000
0001
0000
1000
0000
0000
0000
0010
0000
0100
0000
,
0001
1000
0100
0010
0001
1000
1100
0000
,
1000
0000
0010
0000
0001
0000
0010
0000
1000
0000
0000
0001
0000
0000
1001
0000
,
0001
0000
0100
0000
1000
0000
0100
0000
0001
0000
0000
1000
0000
1000
0001
0000
,
1001
0001
0010
0100
1000
0001
0100
0010
,
0100
0001
1000
0100
0010
0001
0011
0000
,
0001
0000
0100
0000
1000
0000
0100
0000
0001
0000
0000
1000
0000
0000
1001
0000
,
1000
0000
0010
0000
0001
0000
0010
0000
1000
0010
1000
0000
0001
0100
0001
0000
,
1000
0100
0001
0100
0010
0000
0001
0100
,
1000
0100
0010
0000
1000
0010
0001
0010
,
0200
0000
0001
0001
0000
0010
0310
0000
,
0100
0100
0001
0001
0010
0010
0100
0100
,
1000
0100
0001
0100
0010
0000
0001
0100
,
1000
0100
0010
0000
1000
0010
0001
0010
,
0200
0000
0001
0001
0000
0010
0310
0000
,
0100
0100
0001
0001
0010
0010
0100
1000
,
0001
1000
0000
0000
0010
0100
0000
0000
0001
1000
0000
0100
0000
0100
0010
0000
,
0001
0000
0100
0001
0000
0100
0001
0000
1000
0000
0000
0000
0001
0000
0001
0000
,
1000
0000
0100
1000
0000
0100
1000
0000
0001
0000
0000
0010
0001
0000
1000
0000
,
0010
0000
0100
0010
0000
0100
0010
0000
1000
0000
0000
0000
0001
0000
0001
0000
,
1000
0000
0100
0000
0001
0000
0100
0000
0010
0100
0000
1000
0001
0000
1000
0000
,
0001
0000
0100
0010
0000
0100
0001
0000
1000
0000
0000
0000
0100
0000
0100
0000
,
0000
1000
0010
0000
1000
0001
1000
0000
0001
0000
0000
0010
0100
0000
1000
0000
,
0001
0000
0100
0010
0000
0100
0001
0000
0010
0000
0000
0010
0100
0000
0100
0000
,
1000
0000
0010
0000
0001
0000
0010
0000
1000
0100
0000
0010
0001
0000
1000
0000
,
1002
0000
0100
0100
0000
0020
0000
0033
,
0001
0100
1000
0100
0110
0000
1010
0000
,
1000
0100
0001
0100
0010
0010
0010
0000
,
0001
0000
0001
0000
0100
0000
0100
0000
0010
1000
0010
0000
1000
0001
1000
0000
,
2001
0000
0010
0010
0000
0200
0000
3300
,
1000
0010
0001
0010
0110
0000
0101
0000
,
0001
0010
1000
0010
0100
0100
0100
0000
,
1000
0000
1000
0000
0010
0000
0010
0000
0100
0001
0100
0000
0001
1000
0001
0000
,
2000
0000
0000
0000
3001
0000
0000
0000
0100
0000
0010
0000
0100
0001
0000
1000
,
0001
0000
0000
0010
0000
0001
1000
0000
0001
0000
0001
0000
1000
0000
1000
0000
,
0010
0000
0000
1000
0000
0001
1000
0000
1010
0000
0000
0000
0101
0000
0000
0000
,
1000
0000
0000
0100
0000
1000
0001
0000
1000
0000
1000
0000
0001
0000
0001
0000
,
1000
0000
0010
0000
0100
0001
0000
0001
1000
0000
0100
0000
0010
0001
0000
0001
,
1000
0000
0000
0010
0000
0100
0010
0000
1000
0000
0100
0000
0010
0000
0001
0000
,
0100
0000
0000
0010
0000
0100
0001
0000
0011
0000
0000
0000
1100
0000
0000
0000
,
1000
0000
0000
0100
0000
0010
0100
0000
1000
0000
0010
0000
0100
0000
0001
0000
,
0010
0000
0100
0000
1000
0001
0000
0001
0100
0000
0010
0000
1000
0001
0000
0001
,
2000
0000
0000
0000
0010
0000
0010
0000
0000
0100
0000
0000
3001
0000
0000
0000
,
1000
0001
0101
1010
,
0002
0000
0000
0000
0010
0000
0010
0000
0000
0100
0000
0000
1003
0000
0000
0000
,
0001
0000
0010
0000
0100
0000
0010
0000
1000
0000
0010
0000
0001
1000
0000
1000
,
0002
0000
0000
0000
0100
0000
0100
0000
0000
1000
0000
0000
0013
0000
0000
0000
,
0001
1000
1010
0101
,
2000
0000
0000
0000
0100
0000
0100
0000
0000
0001
0000
0000
3010
0000
0000
0000
,
1000
0000
0010
0000
0100
0000
0010
0000
0001
0000
0010
0000
1000
0100
0000
0010
,
0001
0000
1000
0000
0001
0100
0000
0010
1000
0000
0001
0000
1000
0100
0000
0010
,
0001
0000
1000
0000
0010
0100
0000
2002
0000
0000
0000
0000
3003
0000
0000
0000
;

//---------------dance-single - ----------------
#NOTES:
     dance-single:
     :
     Easy:
     7:
     0.351900,0.393257,0.173008,0.016477,0.004119,299.000000,278.000000,21.000000,2.000000,0.000000,0.000000,0.351900,0.393257,0.173008,0.016477,0.004119,299.000000,278.000000,21.000000,2.000000,0.000000,0.000000:
0000
0000
0000
0000
,
0000
0000
0000
0000
,
0000
0000
0000
0000
,
0000
0000
0000
0000
,
0000
0000
0000
0000
,
1000
0001
0100
0100
,
0001
1000
0100
0100
,
1000
0001
0010
0010
,
0001
1000
0010
1001
,
1000
0010
0001
0001
,
1000
0100
0010
0010
,
1000
0100
0001
0001
,
1000
1000
0010
0010
,
0001
1000
0001
1001
,
1000
1000
0010
0010
,
0100
0001
1000
0001
,
0010
0010
0100
0100
,
1000
0010
0100
0001
,
1000
1000
0100
0100
,
0001
0100
1000
0001
,
0100
0100
0010
0010
,
1001
0000
1000
0001
,
1000
0100
0010
0010
,
0100
1000
0001
1001
,
0001
0100
0010
0010
,
0100
0001
1000
1001
,
1000
0010
0100
0100
,
0010
1000
0001
1001
,
0001
0010
0100
0100
,
0010
0001
1000
1001
,
1000
0010
0001
1000
,
0010
0001
1000
0010
,
0200
0010
0310
0100
,
0001
0101
1000
1100
,
0001
0010
1000
0001
,
0010
1000
0001
0010
,
0200
0010
0310
0001
,
1000
1010
0001
0011
,
1000
0001
0100
0100
,
0001
0010
0100
1000
,
0100
0010
0001
0011
,
0001
0100
0010
1000
,
0010
0100
0001
0101
,
1000
0100
0010
0001
,
0010
0100
1000
1100
,
1000
0010
0100
0001
,
0100
0010
1000
1001
,
1000
0100
0010
0100
,
0001
0100
1000
1000
,
0001
0100
0010
0100
,
1000
0100
0001
0001
,
1000
0010
0100
0010
,
0001
0010
1000
1000
,
0001
0010
0100
0010
,
1000
0010
0001
0001
,
1001
0000
1000
0001
,
1000
0010
0100
0100
,
1000
0100
0001
1001
,
1000
0100
0001
0001
,
1000
0010
0100
1100
,
1000
0010
0001
0001
,
0100
0001
0010
1010
,
1000
0100
0001
0001
,
1000
0010
0100
1001
,
0001
0100
0010
0010
,
0100
0001
1000
0001
,
1000
0100
0010
0010
,
0100
0000
1000
0000
0001
0001
0001
0000
,
1000
0010
0001
0010
,
0100
0001
1000
1001
,
1000
0100
0001
0100
,
0010
0000
0001
0000
1000
1000
1000
0000
,
0001
0001
0001
0000
0100
0100
0100
0000
,
0010
0000
0010
0000
0010
0000
0000
0010
0000
0000
0000
0000
0000
0000
0000
0000
;

//---------------dance-single - ----------------
#NOTES:
     dance-single:
     :
     Beginner:
     4:
     0.231854,0.272487,0.000000,0.000000,0.000000,197.000000,197.000000,0.000000,0.000000,0.000000,0.000000,0.231854,0.272487,0.000000,0.000000,0.000000,197.000000,197.000000,0.000000,0.000000,0.000000,0.000000:
0000
0000
0000
0000
,
0000
0000
0000
0000
,
0000
0000
0000
0000
,
0000
0000
0000
0000
,
0000
0000
0000
0000
,
1000
1000
1000
0000
,
0010
0010
0010
0000
,
0100
0100
0100
0000
,
0001
0001
0001
0000
,
0010
0010
0010
0000
,
0100
0100
0100
0000
,
1000
1000
1000
0000
,
0001
0000
0100
0000
,
0010
0010
0010
0000
,
1000
0000
0001
0000
,
0100
0100
0100
0000
,
0001
0000
1000
0000
,
0010
0010
0010
0000
,
1000
0000
0001
0000
,
0010
0010
0010
0000
,
0001
0000
1000
0000
,
0100
0000
0010
0010
,
0010
0000
0001
0000
,
1000
1000
1000
1000
,
1000
0000
0010
0000
,
0100
0100
0100
0100
,
0100
0000
0001
0000
,
1000
1000
1000
1000
,
1000
0000
0100
0000
,
0010
0010
0010
0000
,
0001
0001
0000
1000
,
1000
0000
0010
0010
,
0010
0000
0100
0000
,
0001
0001
0001
0000
,
0010
0010
0000
0100
,
0100
0000
1000
1000
,
1000
0000
0001
0000
,
0100
0100
0100
0000
,
0010
0010
0010
0010
,
0010
0000
1000
1000
,
1000
0000
0001
0001
,
0001
0000
0010
0010
,
0010
0000
0100
0100
,
0100
0000
1000
1000
,
1000
0000
0001
0001
,
0001
0000
0100
0100
,
0100
0000
0010
0010
,
0010
0010
0010
0000
,
1000
0000
0001
0001
,
0001
0001
0001
0000
,
0010
0000
0100
0100
,
0100
0100
0100
0000
,
1000
0000
0001
0001
,
0001
0001
0001
0000
,
1000
0000
0010
0010
,
0010
0000
0000
0000
,
1000
0000
0001
0001
,
0001
0000
0010
0010
,
0010
0000
0100
0100
,
0100
0000
1000
1000
,
1000
0000
0001
0001
,
0001
0000
0100
0100
,
0100
0000
0010
0010
,
0010
0000
1000
1000
,
1000
1000
1000
0000
,
0001
0000
0010
0000
,
0100
0100
0100
0000
,
0010
0000
0001
0001
,
0001
0001
0001
0000
,
0100
0000
0010
0010
,
0010
0000
1000
0000
,
0001
0000
0010
0010
,
0010
0010
0010
0010
,
0010
0010
0010
0000
;
